title=Re:Elemental Creation
artist=uma meets モリモリあつし
effect=TEK-A-RHYTHM
jacket=jak.png
illustrator=♪珍☆犯♪
difficulty=infinite
level=18
t=212
m=mxm.ogg
o=0
bg=desert
layer=arrow
po=10188
plength=15000
pfiltergain=0
filtertype=peak
chokkakuautovol=0
chokkakuvol=0
icon=../sdvx05.png
ver=167
--
beat=4/4
0000|00|--
--
0000|00|-o
0000|00|-:
0000|00|-K
0000|00|-:
0000|00|-:
0000|00|-:
0000|00|-:
0000|00|-:
0000|00|0:
0000|00|::
0000|00|e:
0000|00|::
0000|00|::
0000|00|::
0000|00|::
0000|00|::
0010|00|::
0000|00|::
0000|00|::
0000|00|::
0010|00|::
0000|00|::
0000|00|::
0000|00|::
0010|00|::
0000|00|::
0000|00|::
0000|00|::
0010|00|::
0000|00|::
0000|00|::
0000|00|::
0010|00|::
0000|00|::
0000|00|::
0000|00|::
0010|00|::
0000|00|::
0000|00|::
0000|00|::
0010|00|::
0000|00|::
0000|00|::
0000|00|::
0000|00|e:
0000|00|::
0000|00|::
0000|00|::
0000|00|e:
0000|00|::
0000|00|U:
0000|00|::
0000|00|U:
0000|00|::
0000|00|K:
0000|00|::
0000|00|K:
0000|00|::
0000|00|A:
0000|00|::
0000|00|::
0000|00|::
0000|00|::
0000|00|::
--
0000|00|::
0000|00|::
0000|00|::
0000|00|::
0000|00|::
0000|00|::
0000|00|::
0000|00|::
0000|00|:K
0000|00|::
0000|00|:U
0000|00|::
0000|00|::
0000|00|::
0000|00|::
0000|00|::
0100|00|::
0000|00|::
0000|00|::
0000|00|::
0100|00|::
0000|00|::
0000|00|::
0000|00|::
0100|00|::
0000|00|::
0000|00|::
0000|00|::
0100|00|::
0000|00|::
0000|00|::
0000|00|::
0100|00|::
0000|00|::
0000|00|::
0000|00|::
0100|00|::
0000|00|::
0000|00|::
0000|00|::
0100|00|::
0000|00|::
0000|00|::
0000|00|::
0000|00|::
0000|00|::
0000|00|::
0000|00|::
0000|00|:U
0000|00|::
0000|00|:A
0000|00|::
0000|00|::
0000|00|::
0000|00|::
0000|00|::
0000|00|::
0000|00|::
0000|00|::
0000|00|::
0000|00|::
0000|00|::
0000|00|::
0000|00|::
--
0000|00|:o
0000|00|::
0000|00|:K
0000|00|::
0000|00|::
0000|00|::
0000|00|::
0000|00|::
0000|00|A:
0000|00|::
0000|00|e:
0000|00|::
0000|00|::
0000|00|::
0000|00|::
0000|00|::
0010|00|::
0000|00|::
0000|00|::
0000|00|::
0010|00|::
0000|00|::
0000|00|::
0000|00|::
0010|00|::
0000|00|::
0000|00|::
0000|00|::
0010|00|::
0000|00|::
0000|00|::
0000|00|::
0010|00|::
0000|00|::
0000|00|::
0000|00|::
0010|00|::
0000|00|::
0000|00|::
0000|00|::
0010|00|::
0000|00|::
0000|00|::
0000|00|::
0000|00|::
0000|00|::
0000|00|::
0000|00|::
0000|00|e:
0000|00|::
0000|00|U:
0000|00|::
0000|00|U:
0000|00|::
0000|00|K:
0000|00|::
0000|00|K:
0000|00|::
0000|00|0:
0000|00|::
0000|00|::
0000|00|::
0000|00|::
0000|00|::
--
0000|00|:K
0000|00|::
0000|00|::
0000|00|::
0000|00|::
0000|00|::
0000|00|::
0000|00|::
0000|00|:K
0000|00|::
0000|00|:U
0000|00|::
0000|00|::
0000|00|::
0000|00|::
0000|00|::
0000|20|::
0000|00|::
0000|00|::
0000|00|::
0000|20|::
0000|00|::
0000|00|::
0000|00|::
0000|20|::
0000|00|::
0000|00|::
0000|00|::
0000|20|::
0000|00|::
0000|00|::
0000|00|::
fx-l_se=clap;0
0000|20|::
0000|00|::
0000|00|::
0000|00|::
0000|00|::
0000|00|::
0000|00|::
0000|00|::
0000|00|::
0000|00|::
0000|00|::
0000|00|::
0000|00|::
0000|00|::
0000|00|::
0000|00|::
0000|00|0U
0000|00|::
0000|00|o0
0000|00|::
0000|00|::
0000|00|::
0000|00|::
0000|00|::
0000|00|::
0000|00|::
0000|00|::
0000|00|::
0000|00|::
0000|00|::
0000|00|::
0000|00|::
--
zoom_bottom=0
0000|00|00
0000|00|::
0000|00|o:
0000|00|::
0000|00|::
0000|00|::
0000|00|::
0000|00|::
0000|00|:0
0000|00|::
0000|00|:o
0000|00|::
0000|00|::
0000|00|::
0000|00|::
0000|00|::
0000|20|::
0000|00|::
0000|00|::
0000|00|::
0010|00|::
0000|00|::
0000|00|::
0000|00|::
0100|00|::
0000|00|::
0000|00|::
0000|00|::
1000|00|::
0000|00|::
0000|00|::
0000|00|::
0000|00|:o
0000|00|::
0000|00|:0
0000|00|::
0000|00|::
0000|00|::
0000|00|::
0000|00|::
0000|00|o:
0000|00|::
0000|00|0:
0000|00|::
0000|00|::
0000|00|::
0000|00|::
0000|00|::
0000|02|::
0000|00|::
0000|00|::
0000|00|::
0100|00|::
0000|00|::
0000|00|::
0000|00|::
0010|00|::
0000|00|::
0000|00|::
0000|00|::
0001|00|::
0000|00|::
0000|00|::
0000|00|::
--
0000|00|0:
0000|00|::
0000|00|o:
0000|00|::
0000|00|::
0000|00|::
0000|00|::
0000|00|::
0000|00|:0
0000|00|::
0000|00|:o
0000|00|::
0000|00|::
0000|00|::
0000|00|::
0000|00|::
0000|20|::
0000|00|::
0000|00|::
0000|00|::
0010|00|::
0000|00|::
0000|00|::
0000|00|::
0100|00|::
0000|00|::
0000|00|::
0000|00|::
1000|00|::
0000|00|::
0000|00|::
0000|00|::
0000|00|:o
0000|00|::
0000|00|:0
0000|00|:-
0000|00|:-
0000|00|:-
0000|00|:-
0000|00|:-
0000|00|o-
0000|00|:-
0000|00|0-
0000|00|:-
0000|00|:-
0000|00|:-
0000|00|:-
0000|00|:-
0000|02|:-
0000|00|:-
0000|00|:-
0000|00|:-
0100|00|:-
0000|00|:-
0000|00|:-
0000|00|:-
0010|00|:-
0000|00|:-
0000|00|:-
0000|00|:-
0001|00|:-
0000|00|:-
0000|00|:-
0000|00|:-
--
zoom_bottom=-50
fx-r=
0000|01|0-
0000|01|:-
0000|01|P-
0000|01|:-
0000|01|:-
0000|01|:-
0000|01|:-
0000|01|:-
0000|01|:-
0000|01|:-
0000|01|:-
0000|01|:-
0000|01|:-
0000|01|:-
0000|01|:-
0000|01|:-
0000|00|:-
0000|00|:-
0000|00|:-
0000|00|:-
0000|00|:-
0000|00|:-
0000|00|:-
0000|00|:-
fx-l=
0000|10|0-
0000|10|:-
0000|10|o-
0000|10|:-
0000|10|:-
0000|10|:-
0000|10|:-
0000|10|:-
0000|10|:-
0000|10|:-
0000|10|:-
0000|10|:-
0000|10|:-
0000|10|:-
0000|10|:-
0000|10|:-
0000|00|:-
0000|00|:-
0000|00|:-
0000|00|:-
0000|00|:-
0000|00|:-
0000|00|:-
0000|00|:-
fx-r=
0000|01|P-
0000|01|:-
0000|01|o-
0000|01|:-
0000|01|:-
0000|01|:-
0000|01|:-
0000|01|:-
0000|01|:-
0000|01|:-
0000|01|:-
0000|01|:-
0000|01|:-
0000|01|:-
0000|01|:-
0000|01|:-
--
0010|00|o-
0000|00|:-
0000|00|0-
0000|00|--
0000|00|--
0000|00|--
0000|00|--
0000|00|--
0001|00|--
0000|00|--
0000|00|--
0000|00|--
0100|00|--
0000|00|--
0000|00|--
0000|00|--
1000|00|--
0000|00|--
0000|00|--
0000|00|--
0000|00|--
0000|00|--
0000|00|--
0000|00|--
0100|00|--
0000|00|--
0000|00|--
0000|00|--
0010|00|--
0000|00|--
0000|00|--
0000|00|--
fx-l=
0000|10|--
0000|10|--
0000|10|--
0000|10|--
0001|10|--
0000|10|--
0000|10|--
0000|10|--
0010|10|--
0000|10|--
0000|10|--
0000|10|--
0100|10|--
0000|10|--
0000|10|--
0000|10|--
1000|00|--
0000|00|--
0000|00|--
0000|00|--
0100|00|--
0000|00|--
0000|00|--
0000|00|--
0010|00|--
0000|00|--
0000|00|--
0000|00|--
0001|00|--
0000|00|--
0000|00|--
0000|00|--
--
0000|02|--
0000|00|--
0100|00|--
0010|00|--
0100|00|--
0000|00|--
0000|20|--
0000|00|--
0010|00|--
0100|00|--
0010|00|--
0000|00|--
0000|22|--
0000|00|--
0010|00|--
0100|00|--
--
1000|00|--
0000|00|--
0000|00|--
0000|00|--
0000|00|--
0000|00|--
0000|00|--
0000|00|--
0000|22|--
0000|00|--
0000|00|--
0000|00|--
0000|00|--
0000|00|--
0000|00|--
0000|00|--
0100|00|--
0000|00|--
0000|00|--
0000|00|--
0010|00|--
0000|00|--
0000|00|--
0000|00|--
0001|00|--
0000|00|--
0000|00|--
0000|00|--
0000|00|--
0000|00|--
0000|00|--
0000|00|--
laserrange_l=2x
0110|00|K-
0000|00|:-
0000|00|7-
0000|00|--
0000|00|--
0000|00|--
0000|00|--
0000|00|--
0000|00|--
0000|00|--
0000|00|--
0000|00|--
0000|00|--
0000|00|--
0000|00|--
0000|00|--
laserrange_r=2x
0110|00|-U
0000|00|-:
0000|00|-h
0000|00|--
0000|00|--
0000|00|--
0000|00|--
0000|00|--
0000|00|--
0000|00|--
0000|00|--
0000|00|--
0000|00|--
0000|00|--
0000|00|--
0000|00|--
--
0000|20|--
0000|00|--
0001|00|--
0100|00|--
0001|00|--
0000|00|--
0000|02|--
0000|00|--
1000|00|--
0010|00|--
1000|00|--
0000|00|--
0000|22|--
0000|00|--
0001|00|--
0010|00|--
--
0100|00|--
0000|00|--
0000|00|--
0000|00|--
0000|00|--
0000|00|--
0000|00|--
0000|00|--
0000|22|--
0000|00|--
0000|00|--
0000|00|--
0000|00|--
0000|00|--
0000|00|--
0000|00|--
1000|00|--
0000|00|--
0000|00|--
0000|00|--
0100|00|--
0000|00|--
0000|00|--
0000|00|--
0010|00|--
0000|00|--
0000|00|--
0000|00|--
0000|00|--
0000|00|--
0000|00|--
0000|00|--
laserrange_l=2x
0001|00|7-
0000|00|:-
0000|00|h-
0000|00|:-
0000|00|:-
0000|00|:-
0000|00|:-
0000|00|:-
0010|00|:-
0000|00|:-
0000|00|:-
0000|00|:-
0100|00|:-
0000|00|:-
0000|00|:-
0000|00|:-
1000|00|:-
0000|00|:-
0000|00|:-
0000|00|:-
0100|00|:-
0000|00|:-
0000|00|:-
0000|00|:-
0010|00|:-
0000|00|:-
0000|00|:-
0000|00|:-
0000|00|:-
0000|00|:-
0000|00|:-
0000|00|:-
--
0000|02|h-
0000|00|:-
0001|00|:-
0000|00|:-
0010|00|:-
0000|00|:-
0100|00|:-
0000|00|:-
0010|00|:-
0000|00|:-
0001|00|:-
0000|00|:-
fx-r_se=clap;0;0
0000|02|7-
0000|00|:-
0000|00|:-
0000|00|:-
--
laserrange_r=2x
0000|20|7h
0000|00|::
1000|00|::
0000|00|::
0100|00|::
0000|00|::
0010|00|::
0000|00|::
0100|00|::
0000|00|::
1000|00|::
0000|00|::
fx-l_se=clap;0
0000|20|:7
0000|00|::
0000|00|::
0000|00|::
--
0110|00|:7
0000|00|::
0000|00|:h
0000|00|:-
0000|00|:-
0000|00|:-
0000|00|:-
0000|00|:-
0000|00|:-
0000|00|:-
0000|00|:-
0000|00|:-
0000|00|:-
0000|00|:-
0000|00|:-
0000|00|:-
0110|00|7-
0000|00|:-
0000|00|h-
0000|00|:-
0000|00|:-
0000|00|:-
0000|00|:-
0000|00|:-
0000|00|:-
0000|00|:-
0000|00|:-
0000|00|:-
0000|00|:-
0000|00|:-
0000|00|:-
0000|00|:-
0001|00|:-
0000|00|:-
0000|00|:-
0000|00|:-
0010|00|:-
0000|00|:-
0000|00|:-
0000|00|:-
0100|00|:-
0000|00|:-
0000|00|:-
0000|00|:-
1000|00|:-
0000|00|:-
0000|00|:-
0000|00|:-
0100|00|:-
0000|00|:-
0000|00|:-
0000|00|:-
0010|00|:-
0000|00|:-
0000|00|:-
0000|00|:-
0001|00|:-
0000|00|:-
0000|00|:-
0000|00|:-
0000|00|:-
0000|00|:-
0000|00|:-
0000|00|:-
--
0000|00|h-
0000|00|:-
0000|00|7-
0000|00|:-
0000|00|:-
0000|00|:-
0000|00|:-
0000|00|:-
0001|00|:-
0000|00|:-
0000|00|:-
0000|00|:-
0010|00|:-
0000|00|:-
0000|00|:-
0000|00|:-
0000|00|7-
0000|00|:-
0000|00|h-
0000|00|:-
0000|00|:-
0000|00|:-
0000|00|:-
0000|00|:-
0010|00|:-
0000|00|:-
0000|00|:-
0000|00|:-
0100|00|:-
0000|00|:-
0000|00|:-
0000|00|:-
0001|00|:-
0000|00|:-
0000|00|:-
0000|00|:-
0010|00|:-
0000|00|:-
0000|00|:-
0000|00|:-
0100|00|:-
0000|00|:-
0000|00|:-
0000|00|:-
1000|00|:-
0000|00|:-
0000|00|:-
0000|00|:-
laserrange_r=2x
fx-l=
0000|10|hh
0000|10|-:
0000|10|-7
0000|10|--
0000|10|--
0000|10|--
0000|10|--
0000|10|--
0000|10|--
0000|10|--
0000|10|--
0000|10|--
0000|10|--
0000|10|--
0000|10|--
0000|10|--
--
0000|02|--
0000|00|--
0000|00|--
0000|00|--
0100|00|--
0000|00|--
0010|00|--
0000|00|--
0001|00|--
0000|00|--
0000|00|--
0000|00|--
0000|20|--
0000|00|--
0000|00|--
0000|00|--
0010|00|--
0000|00|--
0100|00|--
0000|00|--
1000|00|--
0000|00|--
0000|00|--
0000|00|--
0000|02|--
0000|00|--
0000|00|--
0000|00|--
0100|00|--
0000|00|--
0010|00|--
0000|00|--
--
0001|00|--
0000|00|--
0000|00|--
0000|00|--
0000|00|--
0000|00|--
0000|00|--
0000|00|--
0000|20|--
0000|00|--
0000|00|--
0000|00|--
0000|00|--
0000|00|--
0000|00|--
0000|00|--
0010|00|--
0000|00|--
0000|00|--
0000|00|--
0100|00|--
0000|00|--
0000|00|--
0000|00|--
1000|00|--
0000|00|--
0000|00|--
0000|00|--
0000|00|--
0000|00|--
0000|00|--
0000|00|--
laserrange_r=2x
0110|00|-U
0000|00|-:
0000|00|-h
0000|00|--
0000|00|--
0000|00|--
0000|00|--
0000|00|--
0000|00|--
0000|00|--
0000|00|--
0000|00|--
0000|00|--
0000|00|--
0000|00|--
0000|00|--
laserrange_l=2x
0110|00|K-
0000|00|:-
0000|00|7-
0000|00|--
0000|00|--
0000|00|--
0000|00|--
0000|00|--
0000|00|--
0000|00|--
0000|00|--
0000|00|--
0000|00|--
0000|00|--
0000|00|--
0000|00|--
--
fx-r=
1000|01|--
0000|01|--
0000|01|--
0000|01|--
0010|01|--
0000|01|--
0000|01|--
0000|01|--
0100|01|--
0000|01|--
0000|01|--
0000|01|--
0010|01|--
0000|01|--
0000|01|--
0000|01|--
fx-l=
0001|10|--
0000|10|--
0010|10|--
0000|10|--
0100|10|--
0000|10|--
1000|10|--
0000|10|--
fx-r_se=clap;0;0
0000|02|--
0000|00|--
0000|00|--
0000|00|--
0000|00|--
0000|00|--
0000|00|--
0000|00|--
--
laserrange_l=2x
laserrange_r=2x
0000|00|PP
0000|00|::
0000|00|h5
0000|00|::
0000|00|::
0000|00|::
0000|00|::
0000|00|::
0000|00|h5
0000|00|::
0000|00|HX
0000|00|::
0000|00|::
0000|00|::
0000|00|::
0000|00|::
0000|00|::
0000|00|::
0000|00|::
0000|00|::
0000|00|::
0000|00|::
0000|00|::
0000|00|::
zoom_bottom=-50
fx-l=
fx-r=
0000|11|::
0000|11|::
0000|11|::
0000|11|::
0000|11|::
0000|11|::
0000|11|::
0000|11|::
0000|11|::
0000|11|::
0000|11|::
0000|11|::
0000|11|::
0000|11|::
0000|11|::
0000|11|::
0100|11|::
0000|11|::
0000|11|::
0000|11|::
0010|11|::
0000|11|::
0000|11|::
0000|11|::
0100|00|HX
0000|00|--
0000|00|--
0000|00|--
0000|00|--
0000|00|--
0000|00|--
0000|00|--
0000|00|--
0000|00|--
0000|00|--
0000|00|--
0000|00|--
0000|00|--
0000|00|--
0000|00|--
--
0011|00|--
0000|00|--
0110|00|--
0000|00|--
zoom_bottom=0
1100|00|--
0000|00|--
0110|00|--
0000|00|--
0011|00|--
0000|00|--
0110|00|--
0000|00|--
1000|00|--
0100|00|--
0010|00|--
0001|00|--
--
0000|20|--
0000|00|--
0000|00|--
0000|00|--
0001|00|--
0000|00|--
0100|00|--
0000|00|--
0000|02|--
0000|00|--
0000|00|--
0000|00|--
1000|00|--
0000|00|--
0010|00|--
0000|00|--
fx-l=
0000|10|--
0000|10|--
0100|10|--
0000|10|--
0010|10|--
0000|10|--
0001|10|--
0000|10|--
1000|10|--
0000|10|--
0100|10|--
0000|10|--
0010|10|--
0000|10|--
0001|10|--
0000|10|--
--
fx-r=
1000|01|--
0000|01|--
0000|01|--
0000|01|--
0010|01|--
0000|01|--
0000|01|--
0000|01|--
0100|01|--
0000|01|--
0000|01|--
0000|01|--
0001|01|--
0000|01|--
0000|01|--
0000|01|--
0020|00|0-
0020|00|:-
0020|00|:-
0020|00|:-
0020|00|:-
0020|00|:-
0020|00|:-
0020|00|:-
0000|00|:-
0000|00|:-
0000|00|:-
0000|00|:-
0100|00|:-
0000|00|:-
0010|00|:-
0000|00|:-
--
0000|00|o-
0000|00|:-
0000|00|0-
0000|00|--
0000|00|--
0000|00|--
0000|00|--
0000|00|--
laserrange_r=2x
0000|00|-b
0000|00|-:
0000|00|-C
0000|00|-:
0000|00|-:
0000|00|-:
0000|00|-:
0000|00|-:
0000|00|-:
0000|00|-:
0000|00|-:
0000|00|-:
0000|00|-:
0000|00|-:
0000|00|-:
0000|00|-:
1001|22|-:
0000|00|-:
0000|00|-:
0000|00|-:
0000|00|-:
0000|00|-:
0000|00|-:
0000|00|-:
fx-l=
fx-r=
2002|11|-:
2002|11|-:
2002|11|-:
2002|11|-:
2002|11|-:
2002|11|-:
2002|11|-:
2002|11|-:
2002|11|-:
2002|11|-:
2002|11|-:
2002|11|-:
2002|11|-:
2002|11|-:
2002|11|-:
2002|11|-:
0110|00|-:
0000|00|-:
0000|00|-:
0000|00|-:
0000|00|-:
0000|00|-:
0000|00|-:
0000|00|-:
0000|00|-:
0000|00|-:
0000|00|-:
0000|00|-:
0000|00|-:
0000|00|-:
0000|00|-:
0000|00|-:
--
zoom_bottom=0
laserrange_l=2x
0000|00|CC
0000|00|::
0000|00|b:
0000|00|::
0000|00|::
0000|00|::
0000|00|::
0000|00|::
0000|00|::
0000|00|::
0000|00|::
0000|00|::
0000|00|::
0000|00|::
0000|00|::
0000|00|::
0000|00|KC
0000|00|::
0000|00|::
0000|00|::
0000|00|::
0000|00|::
0000|00|::
0000|00|::
0000|00|:P
0000|00|::
0000|00|::
0000|00|::
0000|00|::
0000|00|::
0000|00|::
0000|00|::
0000|00|hC
0000|00|::
0000|00|::
0000|00|::
0000|00|::
0000|00|::
0000|00|::
0000|00|::
0000|00|U:
0000|00|::
0000|00|::
0000|00|::
0000|00|::
0000|00|::
0000|00|::
0000|00|::
0000|00|hb
0000|00|::
0000|00|::
0000|00|::
0000|00|::
0000|00|::
0000|00|::
0000|00|::
0000|00|::
0000|00|::
0000|00|::
0000|00|::
0000|00|::
0000|00|::
0000|00|::
0000|00|::
--
0000|00|KC
0000|00|::
0000|00|KK
0000|00|::
0000|00|PK
0000|00|::
0000|00|PP
0000|00|::
0000|00|UP
0000|00|::
0000|00|UU
0000|00|::
0000|00|bU
0000|00|::
0000|00|UU
0000|00|::
--
zoom_bottom=-75
0000|00|UP
0000|00|::
0000|00|:Z
0000|00|::
0000|00|oP
0000|00|::
0000|00|e:
0000|00|::
0000|00|oh
0000|00|::
0000|00|:P
0000|00|::
0000|00|:b
0000|00|::
0000|00|::
0000|00|::
--
0000|00|0A
0000|00|::
0000|00|::
0000|00|::
0000|00|::
0000|00|::
0000|00|::
0000|00|::
0000|00|AA
0000|00|::
0000|00|::
0000|00|::
0000|00|::
0000|00|::
0000|00|::
0000|00|::
0000|00|AK
0000|00|::
0000|00|::
0000|00|::
0000|00|::
0000|00|::
0000|00|::
0000|00|::
0000|00|KK
0000|00|::
0000|00|::
0000|00|::
0000|00|::
0000|00|::
0000|00|::
0000|00|::
0000|00|KS
0000|00|::
0000|00|::
0000|00|::
0000|00|::
0000|00|::
0000|00|::
0000|00|::
0000|00|SS
0000|00|::
0000|00|::
0000|00|::
0000|00|::
0000|00|::
0000|00|::
0000|00|::
0000|00|Sb
0000|00|-:
0000|00|-7
0000|00|-:
0000|00|-:
0000|00|-:
0000|00|-:
0000|00|-:
0000|00|-:
0000|00|-:
0000|00|-:
0000|00|-:
0000|00|-:
0000|00|-:
0000|00|-:
0000|00|-:
--
laserrange_l=2x
0000|00|77
0000|00|::
0000|00|h:
0000|00|::
0000|00|::
0000|00|::
0000|00|::
0000|00|::
0000|00|::
0000|00|::
0000|00|::
0000|00|::
0000|00|::
0000|00|::
0000|00|::
0000|00|::
0000|22|::
0000|00|::
0000|00|::
0000|00|::
0000|00|::
0000|00|::
0000|00|::
0000|00|::
0000|00|::
0000|00|::
0000|00|::
0000|00|::
0000|00|::
0000|00|::
0000|00|::
0000|00|::
0100|00|h7
0000|00|::
0000|00|:h
0000|00|::
0000|00|::
0000|00|::
0000|00|::
0000|00|::
1000|00|::
0000|00|::
0000|00|::
0000|00|::
0000|00|::
0000|00|::
0000|00|::
0000|00|::
0000|00|::
0000|00|::
0000|00|::
0000|00|::
0000|00|::
0000|00|::
0000|00|::
0000|00|::
0110|00|::
0000|00|::
0000|00|::
0000|00|::
0000|00|::
0000|00|::
0000|00|::
0000|00|::
--
0000|00|hh
0000|00|::
0000|00|7:
0000|00|::
0000|00|::
0000|00|::
0000|00|::
0000|00|::
0011|00|::
0000|00|::
0000|00|::
0000|00|::
0000|00|::
0000|00|::
0000|00|::
0000|00|::
0000|00|::
0000|00|::
0000|00|::
0000|00|::
0000|00|::
0000|00|::
0000|00|::
0000|00|::
0110|00|::
0000|00|::
0000|00|::
0000|00|::
0000|00|::
0000|00|::
0000|00|::
0000|00|::
0000|00|7h
0000|00|::
0000|00|:7
0000|00|::
0000|00|::
0000|00|::
0000|00|::
0000|00|::
1100|00|::
0000|00|::
0000|00|::
0000|00|::
0000|00|::
0000|00|::
0000|00|::
0000|00|::
0000|00|::
0000|00|::
0000|00|::
0000|00|::
0000|00|::
0000|00|::
0000|00|::
0000|00|::
0110|00|::
0000|00|::
0000|00|::
0000|00|::
0000|00|::
0000|00|::
0000|00|::
0000|00|::
--
0000|00|7:
0000|00|::
0000|00|h:
0000|00|::
0000|00|::
0000|00|::
0000|00|::
0000|00|::
0000|00|::
0000|00|::
0000|00|::
0000|00|::
0000|00|::
0000|00|::
0000|00|::
0000|00|::
0000|22|::
0000|00|::
0000|00|::
0000|00|::
0000|00|::
0000|00|::
0000|00|::
0000|00|::
0000|00|::
0000|00|::
0000|00|::
0000|00|::
0000|00|::
0000|00|::
0000|00|::
0000|00|::
0100|00|h7
0000|00|::
0000|00|:h
0000|00|::
0000|00|::
0000|00|::
0000|00|::
0000|00|::
1000|00|::
0000|00|::
0000|00|::
0000|00|::
0000|00|::
0000|00|::
0000|00|::
0000|00|::
0000|00|::
0000|00|::
0000|00|::
0000|00|::
0000|00|::
0000|00|::
0000|00|::
0000|00|::
0110|00|::
0000|00|::
0000|00|::
0000|00|::
0000|00|::
0000|00|::
0000|00|::
0000|00|::
--
zoom_bottom=-75
0000|00|hh
0000|00|:-
0000|00|7-
0000|00|:-
0000|00|:-
0000|00|:-
0000|00|:-
0000|00|:-
0010|00|:-
0000|00|:-
0000|00|:-
0000|00|:-
0000|00|:-
0000|00|:-
0000|00|:-
0000|00|:-
0001|00|:-
0000|00|:-
0000|00|:-
0000|00|:-
0000|00|:-
0000|00|:-
0000|00|:-
0000|00|:-
0010|00|:-
0000|00|:-
0000|00|:-
0000|00|:-
0000|00|:-
0000|00|:-
0000|00|:-
0000|00|:-
0001|00|:-
0000|00|:-
0000|00|:-
0000|00|:-
0000|00|:-
0000|00|:-
0000|00|:-
0000|00|:-
0100|00|:-
0000|00|:-
0000|00|:-
0000|00|:-
0000|00|:-
0000|00|:-
0000|00|:-
0000|00|:-
0010|00|b-
0000|00|:-
0000|00|C-
0000|00|--
0000|00|--
0000|00|--
0000|00|--
0000|00|--
0100|00|--
0000|00|--
0000|00|--
0000|00|--
0000|00|--
0000|00|--
0000|00|--
0000|00|--
--
zoom_bottom=0
fx-l=
1000|10|--
0000|10|--
fx-r=
0001|01|--
0000|01|--
0010|20|--
0000|00|--
0000|00|--
0000|00|--
0101|00|--
0000|00|--
1010|00|--
0000|00|--
0000|20|--
0000|00|--
1010|00|--
0000|00|--
--
0000|00|--
0000|00|--
0000|00|--
0000|00|--
0101|00|--
0000|00|--
0000|00|--
0000|00|--
0000|20|--
0000|00|--
0000|00|--
0000|00|--
0011|00|--
0000|00|--
0000|00|--
0000|00|--
fx-l=
0000|10|--
0000|10|--
1000|10|--
0000|10|--
0100|10|--
0000|10|--
0010|10|--
0000|10|--
0001|00|--
0000|00|--
0000|00|--
0000|00|--
0110|00|--
0000|00|--
0000|00|--
0000|00|--
--
fx-r=
0001|01|--
0000|01|--
fx-l=
1000|10|--
0000|10|--
0100|02|--
0000|00|--
0000|00|--
0000|00|--
0101|00|--
0000|00|--
1010|00|--
0000|00|--
0000|02|--
0000|00|--
1010|00|--
0000|00|--
--
0000|00|--
0000|00|--
0000|00|--
0000|00|--
0000|00|--
0000|00|--
0110|00|--
0000|00|--
0000|00|--
0000|00|--
0000|00|--
0000|00|--
0000|02|--
0000|00|--
0000|00|--
0000|00|--
0000|00|--
0000|00|--
0101|00|--
0000|00|--
0000|00|--
0000|00|--
0000|00|--
0000|00|--
fx-r=
0000|01|--
0000|01|--
0000|01|--
0000|01|--
1100|01|--
0000|01|--
0000|01|--
0000|01|--
0011|01|--
0000|01|--
0000|01|--
0000|01|--
1100|01|--
0000|01|--
0000|01|--
0000|01|--
0011|01|--
0000|01|--
0000|01|--
0000|01|--
1100|01|--
0000|01|--
0000|01|--
0000|01|--
--
0011|00|--
0000|00|--
fx-l=
0100|10|--
0000|10|--
0001|10|--
0000|10|--
0100|10|--
0000|10|--
0001|00|--
0000|00|--
fx-r=
0010|01|--
0000|01|--
1000|01|--
0000|01|--
0010|01|--
0000|01|--
--
1000|00|--
0000|00|--
0000|00|--
0000|00|--
fx-l=
0100|10|--
0000|10|--
0000|10|--
0000|10|--
0001|10|--
0000|10|--
0000|10|--
0000|10|--
0100|10|--
0000|10|--
0000|10|--
0000|10|--
fx-r=
0001|01|--
0000|01|--
0010|01|--
0000|01|--
0100|01|--
0000|01|--
1000|01|--
0000|01|--
0000|20|--
0000|00|--
0000|00|--
0000|00|--
0000|02|--
0000|00|--
0000|00|--
0000|00|--
--
zoom_bottom=0
0212|00|--
0202|00|--
0202|00|--
0202|00|--
0202|00|--
0202|00|--
0202|00|--
0202|00|--
0202|00|--
0202|00|--
0202|00|--
0202|00|--
0202|00|--
0202|00|--
0202|00|--
0202|00|--
2020|00|--
2020|00|--
2020|00|--
2020|00|--
2020|00|--
2020|00|--
2020|00|--
2020|00|--
2020|00|--
2020|00|--
2020|00|--
2020|00|--
2020|00|--
2020|00|--
2020|00|--
2020|00|--
0100|00|--
0000|00|--
0000|00|--
0000|00|--
0000|00|--
0000|00|--
0000|00|--
0000|00|--
0000|22|--
0000|00|--
0000|00|--
0000|00|--
0000|00|--
0000|00|--
0000|00|--
0000|00|--
0000|00|--
0000|00|--
0000|00|--
0000|00|--
0000|00|--
0000|00|--
0000|00|--
0000|00|--
zoom_bottom=-50
laserrange_l=2x
0110|00|2-
0000|00|:-
0000|00|H-
0000|00|--
0000|00|--
0000|00|--
0000|00|--
0000|00|--
--
0000|00|--
0000|00|--
0000|00|--
0000|00|--
0000|00|--
0000|00|--
0000|00|--
0000|00|--
laserrange_r=2x
0110|00|-m
0000|00|-:
0000|00|-X
0000|00|--
0000|00|--
0000|00|--
0000|00|--
0000|00|--
0000|00|--
0000|00|--
0000|00|--
0000|00|--
0000|00|--
0000|00|--
0000|00|--
0000|00|--
laserrange_l=2x
0000|02|M-
0000|00|:-
0000|00|A-
0000|00|--
0000|00|--
0000|00|--
0000|00|--
0000|00|--
0000|00|--
0000|00|--
0000|00|--
0000|00|--
0000|00|--
0000|00|--
0000|00|--
0000|00|--
laserrange_r=2x
0000|20|-S
0000|00|-:
0000|00|-e
0000|00|--
0000|00|--
0000|00|--
0000|00|--
0000|00|--
0000|00|--
0000|00|--
0000|00|--
0000|00|--
0000|00|--
0000|00|--
0000|00|--
0000|00|--
0000|02|K-
0000|00|:-
0000|00|0-
0000|00|:-
0000|00|:-
0000|00|:-
0000|00|:-
0000|00|:-
--
0000|00|0-
0000|00|:-
0000|00|P-
0000|00|:-
0000|00|:-
0000|00|:-
0000|00|:-
0000|00|:-
0001|00|P-
0000|00|:-
0000|00|o-
0000|00|:-
0000|00|:-
0000|00|:-
0000|00|:-
0000|00|:-
0010|00|:-
0000|00|:-
0000|00|:-
0000|00|:-
0000|00|:-
0000|00|:-
0000|00|:-
0000|00|:-
0100|00|:-
0000|00|:-
0000|00|:-
0000|00|:-
0000|00|:-
0000|00|:-
0000|00|:-
0000|00|:-
0000|00|:o
0000|00|::
0000|00|:P
0000|00|::
0000|00|::
0000|00|::
0000|00|::
0000|00|::
1000|00|:P
0000|00|::
0000|00|:0
0000|00|::
0000|00|::
0000|00|::
0000|00|::
0000|00|::
0100|00|::
0000|00|::
0000|00|::
0000|00|::
0000|00|::
0000|00|::
0000|00|::
0000|00|::
0010|00|::
0000|00|::
0000|00|::
0000|00|::
0000|00|::
0000|00|::
0000|00|::
0000|00|::
--
0000|00|o0
0000|00|::
0000|00|0:
0000|00|::
0000|00|::
0000|00|::
0000|00|::
0000|00|::
0000|02|::
0000|00|::
0000|00|::
0000|00|::
0000|20|::
0000|00|::
0000|00|::
0000|00|::
0000|02|::
0000|00|::
0000|00|::
0000|00|::
0000|00|::
0000|00|::
0000|00|::
0000|00|::
0011|00|0:
0000|00|::
0000|00|o:
0000|00|::
0000|00|::
0000|00|::
0000|00|::
0000|00|::
0000|00|::
0000|00|::
0000|00|::
0000|00|::
0000|00|::
0000|00|::
0000|00|::
0000|00|::
1000|00|:0
0000|00|::
0000|00|:o
0000|00|::
0000|00|::
0000|00|::
0000|00|::
0000|00|::
0100|00|::
0000|00|::
0000|00|::
0000|00|::
0000|00|::
0000|00|::
0000|00|::
0000|00|::
1000|00|:o
0000|00|::
0000|00|:0
0000|00|::
0000|00|::
0000|00|::
0000|00|::
0000|00|::
--
0000|00|:0
0000|00|::
0000|00|:P
0000|00|::
0000|00|::
0000|00|::
0000|00|::
0000|00|::
0100|00|:P
0000|00|::
0000|00|:o
0000|00|::
0000|00|::
0000|00|::
0000|00|::
0000|00|::
0010|00|::
0000|00|::
0000|00|::
0000|00|::
0000|00|::
0000|00|::
0000|00|::
0000|00|::
0001|00|::
0000|00|::
0000|00|::
0000|00|::
0000|00|::
0000|00|::
0000|00|::
0000|00|::
0000|00|o:
0000|00|::
0000|00|P:
0000|00|::
0000|00|::
0000|00|::
0000|00|::
0000|00|::
0010|00|P:
0000|00|::
0000|00|0:
0000|00|::
0000|00|::
0000|00|::
0000|00|::
0000|00|::
0100|00|:o
0000|00|::
0000|00|::
0000|00|::
0000|00|::
0000|00|::
0000|00|::
0000|00|::
1000|00|0:
0000|00|::
0000|00|::
0000|00|::
0000|00|::
0000|00|::
0000|00|::
0000|00|::
--
0000|00|0o
0000|00|::
0000|00|:0
0000|00|::
0000|00|::
0000|00|::
0000|00|::
0000|00|::
0000|20|::
0000|00|::
0000|00|::
0000|00|::
0000|02|::
0000|00|::
0000|00|::
0000|00|::
0000|20|::
0000|00|::
0000|00|::
0000|00|::
0000|00|::
0000|00|::
0000|00|::
0000|00|::
1100|00|:0
0000|00|::
0000|00|:o
0000|00|:-
0000|00|:-
0000|00|:-
0000|00|:-
0000|00|:-
0000|00|:-
0000|00|:-
0000|00|:-
0000|00|:-
0000|00|:-
0000|00|:-
0000|00|:-
0000|00|:-
zoom_bottom=-50
0000|00|0-
0000|00|:-
0000|00|K-
0000|00|:-
0000|00|:-
0000|00|:-
0000|00|:-
0000|00|:-
0000|00|KK
0000|00|-:
0000|00|-U
0000|00|-:
0000|00|-:
0000|00|-:
0000|00|-:
0000|00|-:
laserrange_l=2x
0000|00|RU
0000|00|:-
0000|00|b-
0000|00|:-
0000|00|:-
0000|00|:-
0000|00|:-
0000|00|:-
--
zoom_bottom=-75
0000|00|b-
0000|00|:-
0000|00|m-
0000|00|:-
0000|00|:-
0000|00|:-
0000|00|:-
0000|00|:-
0001|00|m-
0000|00|:-
0000|00|b-
0000|00|:-
0000|00|:-
0000|00|:-
0000|00|:-
0000|00|:-
0010|00|:-
0000|00|:-
0000|00|:-
0000|00|:-
0000|00|:-
0000|00|:-
0000|00|:-
0000|00|:-
0000|20|:-
0000|00|:-
0000|00|:-
0000|00|:-
0000|00|:-
0000|00|:-
0000|00|:-
0000|00|:-
laserrange_r=2x
0000|00|bC
0000|00|::
0000|00|:2
0000|00|::
0000|00|::
0000|00|::
0000|00|::
0000|00|::
1000|00|:2
0000|00|::
0000|00|:C
0000|00|::
0000|00|::
0000|00|::
0000|00|::
0000|00|::
0100|00|::
0000|00|::
0000|00|::
0000|00|::
0000|00|::
0000|00|::
0000|00|::
0000|00|::
0000|02|b:
0000|00|::
0000|00|::
0000|00|::
0000|00|::
0000|00|::
0000|00|::
0000|00|::
--
0000|00|bC
0000|00|::
0000|00|C:
0000|00|::
0000|00|::
0000|00|::
0000|00|::
0000|00|::
0010|00|::
0000|00|::
0000|00|::
0000|00|::
1100|00|::
0000|00|::
0000|00|::
0000|00|::
0010|00|::
0000|00|::
0000|00|::
0000|00|::
0000|00|::
0000|00|::
0000|00|::
0000|00|::
fx-r=
0000|01|C:
0000|01|::
0000|01|b:
0000|01|::
0000|01|::
0000|01|::
0000|01|::
0000|01|::
0000|01|::
0000|01|::
0000|01|::
0000|01|::
0000|01|::
0000|01|::
0000|01|::
0000|01|::
0001|20|::
0000|00|::
0000|00|::
0000|00|::
0000|00|::
0000|00|::
0000|00|::
0000|00|::
0010|00|::
0000|00|::
0000|00|::
0000|00|::
0000|00|::
0000|00|::
0000|00|::
0000|00|::
0100|20|::
0000|00|::
0000|00|::
0000|00|::
0000|00|::
0000|00|::
0000|00|::
0000|00|::
--
0000|00|:C
0000|00|::
0000|00|:2
0000|00|::
0000|00|::
0000|00|::
0000|00|::
0000|00|::
1000|00|:2
0000|00|::
0000|00|:C
0000|00|::
0000|00|::
0000|00|::
0000|00|::
0000|00|::
0100|00|::
0000|00|::
0000|00|::
0000|00|::
0000|00|::
0000|00|::
0000|00|::
0000|00|::
0000|02|b:
0000|00|::
0000|00|::
0000|00|::
0000|00|::
0000|00|::
0000|00|::
0000|00|::
0000|00|b:
0000|00|::
0000|00|m:
0000|00|::
0000|00|::
0000|00|::
0000|00|::
0000|00|::
0001|00|m:
0000|00|::
0000|00|b:
0000|00|::
0000|00|::
0000|00|::
0000|00|::
0000|00|::
0010|00|::
0000|00|::
0000|00|::
0000|00|::
0000|00|::
0000|00|::
0000|00|::
0000|00|::
1000|00|::
0000|00|::
0000|00|::
0000|00|::
0000|00|::
0000|00|::
0000|00|::
0000|00|::
--
0000|00|:C
0000|00|::
0000|00|:b
0000|00|::
0000|00|::
0000|00|::
0000|00|::
0000|00|::
0100|00|::
0000|00|::
0000|00|::
0000|00|::
0011|00|::
0000|00|::
0000|00|::
0000|00|::
0100|00|::
0000|00|::
0000|00|::
0000|00|::
0000|00|::
0000|00|::
0000|00|::
0000|00|::
1000|00|:b
0000|00|::
0000|00|:C
0000|00|::
0000|00|::
0000|00|::
0000|00|::
0000|00|::
0000|00|::
0000|00|::
0000|00|::
0000|00|::
0000|00|::
0000|00|::
0000|00|::
0000|00|::
0000|00|b:
0000|00|::
0000|00|P:
0000|00|::
0000|00|P:
0000|00|::
0000|00|C:
0000|00|::
0000|00|CC
0000|00|-:
0000|00|-0
0000|00|--
0000|00|--
0000|00|--
0000|00|--
0000|00|--
fx-l=
0000|10|--
0000|10|--
0000|10|--
0000|10|--
0000|10|--
0000|10|--
0000|10|--
0000|10|--
--
zoom_bottom=-75
fx-r=
0000|11|--
0000|11|--
0000|11|--
0000|11|--
zoom_bottom=-50
1010|00|--
0000|00|--
0100|00|--
0000|00|--
1010|00|--
0000|00|--
0001|00|--
0000|00|--
1010|00|--
0000|00|--
0100|00|--
0000|00|--
--
1010|00|--
0000|00|--
0000|00|--
0000|00|--
0101|00|--
0000|00|--
0000|00|--
0000|00|--
0101|00|--
0000|00|--
0000|00|--
0000|00|--
1010|00|--
0000|00|--
0000|00|--
0000|00|--
fx-r=
0100|01|--
0000|01|--
0010|01|--
0000|01|--
0001|00|--
0000|00|--
0000|00|--
0000|00|--
fx-r=
1000|01|--
0000|01|--
0100|01|--
0000|01|--
0010|00|--
0000|00|--
0000|00|--
0000|00|--
--
fx-l=
fx-r=
0000|11|--
0000|11|--
0000|11|--
0000|11|--
0002|00|--
0002|00|--
0022|00|--
0022|00|--
2022|00|--
2022|00|--
2220|00|--
2220|00|--
2202|00|--
2202|00|--
0222|00|--
0222|00|--
--
2022|00|--
2022|00|--
2022|00|--
2022|00|--
2220|00|--
2220|00|--
2220|00|--
2220|00|--
2202|00|--
2202|00|--
2202|00|--
2202|00|--
2222|00|--
2222|00|--
2222|00|--
2222|00|--
fx-l=
fx-r=
0000|11|--
0000|11|--
0000|11|--
0000|11|--
0100|11|--
0000|11|--
0010|11|--
0000|11|--
0100|00|--
0000|00|--
0000|00|--
0000|00|--
0000|00|--
0000|00|--
0000|00|--
0000|00|--
--
zoom_bottom=-50
0011|00|0-
0000|00|:-
0000|00|o-
0000|00|:-
0000|00|:-
0000|00|:-
0000|00|:-
0000|00|:-
0000|00|:-
0000|00|:-
0000|00|:-
0000|00|:-
0000|00|:-
0000|00|:-
0000|00|:-
0000|00|:-
1000|00|:-
0000|00|:-
0000|00|:-
0000|00|:-
0000|00|:-
0000|00|:-
0000|00|:-
0000|00|:-
0100|00|:-
0000|00|:-
0000|00|:-
0000|00|:-
0000|00|:-
0000|00|:-
0000|00|:-
0000|00|:-
0000|00|oo
0000|00|::
0000|00|:Z
0000|00|::
0000|00|::
0000|00|::
0000|00|::
0000|00|::
0000|00|o:
0000|00|::
0000|00|P:
0000|00|::
0000|00|::
0000|00|::
0000|00|::
0000|00|::
0000|00|:Z
0000|00|::
0000|00|:F
0000|00|::
0000|00|::
0000|00|::
0000|00|::
0000|00|::
0000|00|PF
0000|00|:-
0000|00|0-
0000|00|:-
0000|00|:-
0000|00|:-
0000|00|:-
0000|00|:-
--
zoom_bottom=0
0010|00|0-
0000|00|:-
0000|00|:-
0000|00|:-
0100|00|:-
0000|00|:-
0000|00|:-
0000|00|:-
0010|00|:-
0000|00|:-
0000|00|:-
0000|00|:-
0100|00|:-
0000|00|:-
0000|00|:-
0000|00|:-
0010|00|:-
0000|00|:-
0000|00|:-
0000|00|:-
0100|00|:-
0000|00|:-
0000|00|:-
0000|00|:-
0010|00|:-
0000|00|:-
0000|00|:-
0000|00|:-
0100|00|:-
0000|00|:-
0000|00|:-
0000|00|:-
fx-l_se=clap;0
fx-r_se=clap;0;0
0000|22|:-
0000|00|:-
0000|00|:-
0000|00|:-
0000|00|:-
0000|00|:-
0000|00|:-
0000|00|:-
0000|00|:-
0000|00|:-
0000|00|:-
0000|00|:-
0000|00|0o
0000|00|::
0000|00|PP
0000|00|-:
0000|00|-:
0000|00|-:
0000|00|-:
0000|00|-:
0000|00|-:
0000|00|-:
0000|00|-:
0000|00|-:
fx-l_se=clap;0
fx-r_se=clap;0;0
0000|22|-:
0000|00|-:
0000|00|-:
0000|00|-:
0000|00|-:
0000|00|-:
0000|00|-:
0000|00|-:
--
0220|00|-:
0220|00|-:
0220|00|-:
0220|00|-:
0220|00|-:
0220|00|-:
0220|00|-:
0220|00|-:
0220|00|-:
0220|00|-:
0220|00|-:
0220|00|-:
0220|00|-:
0220|00|-:
0220|00|-:
0220|00|-:
0220|00|-:
0220|00|-:
0220|00|-:
0220|00|-:
0220|00|-:
0220|00|-:
0220|00|-:
0220|00|-:
0220|00|-P
0220|00|-:
0220|00|-:
0220|00|-:
0220|00|-:
0220|00|-:
0220|00|-:
0220|00|-:
0220|00|-:
0220|00|-:
0220|00|-:
0220|00|-:
0220|00|-:
0220|00|-:
0220|00|-:
0220|00|-:
0220|00|-:
0220|00|-:
0220|00|-:
0220|00|-:
0220|00|-:
0220|00|-:
0220|00|-:
0220|00|-:
0000|00|-0
0000|00|-:
0000|00|-o
0000|00|--
0000|00|--
0000|00|--
0000|00|--
0000|00|--
0000|00|--
0000|00|--
0000|00|--
0000|00|--
0000|00|--
0000|00|--
0000|00|--
0000|00|--
--
0110|00|0-
0000|00|:-
0000|00|o-
0000|00|--
0000|00|--
0000|00|--
0000|00|--
0000|00|--
0001|00|--
0000|00|--
0000|00|--
0000|00|--
0010|00|--
0000|00|--
0000|00|--
0000|00|--
0100|00|--
0000|00|--
0000|00|--
0000|00|--
0000|00|--
0000|00|--
0000|00|--
0000|00|--
1000|00|--
0000|00|--
0000|00|--
0000|00|--
0100|00|--
0000|00|--
0000|00|--
0000|00|--
0010|00|--
0000|00|--
0000|00|--
0000|00|--
0001|00|--
0000|00|--
0000|00|--
0000|00|--
0100|00|--
0000|00|--
0000|00|--
0000|00|--
0010|00|--
0000|00|--
0000|00|--
0000|00|--
0001|00|--
0000|00|--
0000|00|--
0000|00|--
0010|00|--
0000|00|--
0000|00|--
0000|00|--
0100|00|--
0000|00|--
0000|00|--
0000|00|--
1000|00|--
0000|00|--
0000|00|--
0000|00|--
--
zoom_top=0
zoom_bottom=0
0000|00|-o
0000|00|-:
0000|00|-A
0000|00|-:
0000|00|-:
0000|00|-:
0000|00|-:
0000|00|-:
0000|00|-:
0000|00|-:
0000|00|-:
0000|00|-:
0000|00|-:
0000|00|-:
0000|00|-:
0000|00|-:
0000|00|FU
0000|00|:-
0000|00|:-
0000|00|:-
0000|00|:-
0000|00|:-
0000|00|:-
0000|00|:-
0000|00|:-
0000|00|:-
0000|00|:-
0000|00|:-
0000|00|:-
0000|00|:-
0000|00|:-
0000|00|:-
0000|00|ZK
0000|00|-:
0000|00|-:
0000|00|-:
0000|00|-:
0000|00|-:
0000|00|-:
0000|00|-:
0000|00|-:
0000|00|-:
0000|00|-:
0000|00|-:
0000|00|-:
0000|00|-:
0000|00|-:
0000|00|-:
0000|00|Pe
0000|00|:-
0000|00|:-
0000|00|:-
0000|00|:-
0000|00|:-
0000|00|:-
0000|00|:-
0000|00|:-
0000|00|:-
0000|00|:-
0000|00|:-
0000|00|:-
0000|00|:-
0000|00|:-
0000|00|:-
--
zoom_top=50
zoom_bottom=-75
fx-r=
0000|01|o-
0000|01|:-
0000|01|0-
0000|01|--
0000|01|--
0000|01|--
0000|01|--
0000|01|--
0000|01|--
0000|01|--
0000|01|--
0000|01|--
0000|01|--
0000|01|--
0000|01|--
0000|01|--
fx-l=
0000|10|--
0000|10|--
0000|10|--
0000|10|--
0001|10|--
0000|10|--
0000|10|--
0000|10|--
0010|10|--
0000|10|--
0000|10|--
0000|10|--
0100|10|--
0000|10|--
0000|10|--
0000|10|--
1000|10|--
0000|10|--
0000|10|--
0000|10|--
0010|10|--
0000|10|--
0000|10|--
0000|10|--
0100|10|--
0000|10|--
0000|10|--
0000|10|--
1000|10|--
0000|10|--
0000|10|--
0000|10|--
laserrange_r=2x
0000|00|-h
0000|00|-:
0000|00|-7
0000|00|-:
0000|00|-:
0000|00|-:
0000|00|-:
0000|00|-:
0000|00|-:
0000|00|-:
0000|00|-:
0000|00|-:
0000|00|-:
0000|00|-:
0000|00|-:
0000|00|-:
--
laserrange_l=2x
0000|02|77
0000|00|::
0001|00|::
0000|00|::
0000|02|::
0000|00|::
0001|00|::
0000|00|::
0000|02|::
0000|00|::
0010|00|h:
0000|00|::
fx-r_se=clap;0;0
0000|02|::
0000|00|::
0100|00|::
0000|00|::
--
0000|20|h7
0000|00|::
1000|00|::
0000|00|::
0000|20|::
0000|00|::
1000|00|::
0000|00|::
0000|20|::
0000|00|::
0100|00|:h
0000|00|::
fx-l_se=clap;0
0000|20|::
0000|00|::
0010|00|::
0000|00|::
--
0100|00|hh
0000|00|--
0000|00|--
0000|00|--
0010|00|--
0000|00|--
0000|00|--
0000|00|--
0001|00|--
0000|00|--
1000|00|--
0000|00|--
0100|00|--
0000|00|--
0010|00|--
0000|00|--
0001|00|--
0000|00|--
1000|00|--
0000|00|--
0100|00|--
0000|00|--
0010|00|--
0000|00|--
0001|00|--
0000|00|--
0100|00|--
0000|00|--
1000|00|--
0000|00|--
0010|00|--
0000|00|--
--
0100|00|--
0000|00|--
0001|00|--
0010|00|--
1000|00|--
0100|00|--
0010|00|--
0001|00|--
1000|00|--
0100|00|--
0010|00|--
0001|00|--
0100|00|--
0010|00|--
1000|00|--
0001|00|--
--
0000|20|--
0000|00|--
0010|00|--
0000|00|--
0000|20|--
0000|00|--
0100|00|--
0000|00|--
0000|20|--
0000|00|--
0010|00|--
0000|00|--
0000|20|--
0000|00|--
0001|00|--
0000|00|--
1000|00|--
0000|00|--
0100|00|--
0000|00|--
fx-r=
0010|01|--
0000|01|--
0000|01|--
0000|01|--
0100|00|--
0000|00|--
0010|00|--
0000|00|--
fx-r=
0001|01|--
0000|01|--
0000|01|--
0000|01|--
--
fx-l=
1000|10|--
0000|10|--
0000|10|--
0000|10|--
0000|10|--
0000|10|--
0000|10|--
0000|10|--
0001|00|--
0000|00|--
0000|00|--
0000|00|--
0010|00|--
0000|00|--
0000|00|--
0000|00|--
fx-l=
0100|10|--
0000|10|--
0000|10|--
0000|10|--
0000|10|--
0000|10|--
0000|10|--
0000|10|--
0010|00|--
0000|00|--
0000|00|--
0000|00|--
0100|00|--
0000|00|--
0000|00|--
0000|00|--
1000|00|--
0000|00|--
0000|00|--
0000|00|--
0100|00|--
0000|00|--
0000|00|--
0000|00|--
0010|00|--
0000|00|--
0000|00|--
0000|00|--
0001|00|--
0000|00|--
0000|00|--
0000|00|--
laserrange_l=2x
fx-r=
0000|01|C-
0000|01|:-
0000|01|b-
0000|01|:-
0000|01|:-
0000|01|:-
0000|01|:-
0000|01|:-
0000|01|:-
0000|01|:-
0000|01|:-
0000|01|:-
0000|01|:-
0000|01|:-
0000|01|:-
0000|01|:-
--
0010|00|b-
0000|00|:-
0000|00|K-
0000|00|:-
0000|00|:-
0000|00|:-
0000|00|:-
0000|00|:-
0100|00|K-
0000|00|:-
0000|00|U-
0000|00|:-
0000|00|:-
0000|00|:-
0000|00|:-
0000|00|:-
0010|00|U-
0000|00|:-
0000|00|C-
0000|00|:-
0000|00|:-
0000|00|:-
0000|00|:-
0000|00|:-
0100|00|C-
0000|00|:-
0000|00|b-
0000|00|:-
0000|00|:-
0000|00|:-
0000|00|:-
0000|00|:-
0000|02|:-
0000|00|:-
0000|00|:-
0000|00|:-
0000|20|:-
0000|00|:-
0000|00|:-
0000|00|:-
0000|02|:-
0000|00|:-
0000|00|:-
0000|00|:-
0000|00|:-
0000|00|:-
0000|00|:-
0000|00|:-
0110|00|b-
0000|00|:-
0000|00|C-
0000|00|:-
0000|00|:-
0000|00|:-
0000|00|:-
0000|00|:-
0000|02|:-
0000|00|:-
0000|00|:-
0000|00|:-
0000|20|:-
0000|00|:-
0000|00|:-
0000|00|:-
--
0000|02|:-
0000|00|:-
0000|00|:-
0000|00|:-
0000|00|:-
0000|00|:-
0000|00|:-
0000|00|:-
0110|00|C-
0000|00|:-
0000|00|b-
0000|00|:-
0000|00|:-
0000|00|:-
0000|00|:-
0000|00|:-
0000|02|:-
0000|00|:-
0000|00|:-
0000|00|:-
0000|20|:-
0000|00|:-
0000|00|:-
0000|00|:-
0000|02|:-
0000|00|:-
0000|00|:-
0000|00|:-
0000|00|:-
0000|00|:-
0000|00|:-
0000|00|:-
0110|00|b-
0000|00|:-
0000|00|m-
0000|00|--
0000|00|--
0000|00|--
0000|00|--
0000|00|--
0000|00|--
0000|00|--
0000|00|--
0000|00|--
0000|00|--
0000|00|--
0000|00|--
0000|00|--
laserrange_r=2x
0110|00|-C
0000|00|-:
0000|00|-2
0000|00|--
0000|00|--
0000|00|--
0000|00|--
0000|00|--
0000|00|--
0000|00|--
0000|00|--
0000|00|--
0000|00|--
0000|00|--
0000|00|--
0000|00|--
--
0001|20|--
0000|00|--
0010|20|--
0000|00|--
0100|20|--
0000|00|--
1000|02|--
0000|00|--
0100|02|--
0000|00|--
0010|02|--
0000|00|--
fx-l=
0001|10|--
0000|10|--
0000|10|--
0000|10|--
--
1000|00|-o
0000|00|-:
0000|00|-P
0000|00|-:
0000|00|-:
0000|00|-:
0000|00|-:
0000|00|-:
1000|00|-P
0000|00|-:
0000|00|-o
0000|00|-:
0000|00|-:
0000|00|-:
0000|00|-:
0000|00|-:
0000|00|-:
0000|00|-:
0000|00|-:
0000|00|-:
0000|00|-:
0000|00|-:
0000|00|-:
0000|00|-:
0000|00|00
0000|00|::
0000|00|oo
0000|00|::
0000|00|::
0000|00|::
0000|00|::
0000|00|::
0000|00|::
0000|00|::
0000|00|::
0000|00|::
0000|00|o:
0000|00|::
0000|00|::
0000|00|::
0000|00|oo
0000|00|::
0000|00|P:
0000|00|::
0000|00|P:
0000|00|::
0000|00|0o
0000|00|::
0000|00|0o
0000|00|::
0000|00|:0
0000|00|:-
0000|00|:-
0000|00|:-
0000|00|:-
0000|00|:-
0000|00|0-
0000|00|:-
0000|00|o-
0000|00|--
0000|00|--
0000|00|--
0000|00|--
0000|00|--
--
0011|00|--
0000|00|--
0100|00|--
0000|00|--
1001|00|--
0000|00|--
0110|00|--
0000|00|--
0001|00|--
0000|00|--
0110|00|--
0000|00|--
1000|00|--
0100|00|--
0010|00|--
0001|00|--
--
0000|02|--
0000|00|--
0000|00|--
0000|00|--
0010|00|--
0000|00|--
1000|00|--
0000|00|--
0000|20|--
0000|00|--
0000|00|--
0000|00|--
0100|00|--
0000|00|--
0001|00|--
0000|00|--
0000|02|--
0000|00|--
0000|00|--
0000|00|--
0010|00|--
0000|00|--
1000|00|--
0000|00|--
fx-l=
0000|10|--
0000|10|--
0100|10|--
0000|10|--
0010|10|--
0000|10|--
0001|10|--
0000|10|--
--
fx-r=
0000|01|--
0000|01|--
0000|01|--
0000|01|--
fx-l=
0000|10|--
0000|10|--
0000|10|--
0000|10|--
fx-r=
0000|01|--
0000|01|--
0000|01|--
0000|01|--
0100|01|--
0000|01|--
0010|01|--
0000|01|--
fx-l=
0100|10|--
0000|10|--
0000|10|--
0000|10|--
fx-r=
0000|01|--
0000|01|--
0000|01|--
0000|01|--
fx-l=
0000|10|--
0000|10|--
0000|10|--
0000|10|--
0000|10|--
0000|10|--
0000|10|--
0000|10|--
--
0100|00|--
0000|00|--
0010|00|--
0000|00|--
0001|00|--
0000|00|--
1000|00|--
0000|00|--
0010|00|--
0000|00|--
0100|00|--
0000|00|--
1000|00|--
0000|00|--
0001|00|--
0000|00|--
0010|00|--
0000|00|--
0100|00|--
0000|00|--
0010|00|--
0000|00|--
0001|00|--
0000|00|--
fx-l=
fx-r=
0000|11|--
0000|11|--
0000|11|--
0000|11|--
0000|11|--
0000|11|--
0000|11|--
0000|11|--
--
zoom_top=50
zoom_bottom=-75
0110|00|--
0000|00|--
0000|00|--
0000|00|--
1100|00|--
0000|00|--
0000|00|--
0000|00|--
0110|00|--
0000|00|--
0000|00|--
0000|00|--
0011|00|--
0000|00|--
0000|00|--
0000|00|--
0000|00|--
0000|00|--
0000|00|--
0000|00|--
1100|00|--
0000|00|--
0000|00|--
0000|00|--
0110|00|--
0000|00|--
0000|00|--
0000|00|--
0001|00|--
0000|00|--
0010|00|--
0000|00|--
--
0100|20|--
0000|00|--
1000|00|--
0100|00|--
0010|00|--
0000|00|--
0001|00|--
0010|00|--
zoom_top=0
zoom_bottom=0
0100|20|--
0000|00|--
1000|00|--
0100|20|--
0010|00|--
0000|00|--
0100|20|--
0010|00|--
--
0001|00|--
0000|00|--
1000|00|--
0000|00|--
0001|00|--
0000|00|--
1000|00|--
0000|00|--
0001|00|--
0000|00|--
0000|00|--
0000|00|--
0000|20|--
0000|00|--
0000|02|--
0000|00|--
fx-l=
0000|10|--
0000|10|--
0100|10|--
0000|10|--
0010|10|--
0000|10|--
0001|10|--
0000|10|--
0010|10|--
0000|10|--
0100|10|--
0000|10|--
1000|00|--
0000|00|--
0000|00|--
0000|00|--
--
0100|00|-o
0000|00|-:
0000|00|-F
0000|00|-:
0000|00|-:
0000|00|-:
0000|00|-:
0000|00|-:
0010|00|-F
0000|00|-:
0000|00|-Z
0000|00|-:
0000|00|-:
0000|00|-:
0000|00|-:
0000|00|-:
0100|00|-Z
0000|00|-:
0000|00|-0
0000|00|-:
0000|00|-:
0000|00|-:
0000|00|-:
0000|00|-:
0010|00|-0
0000|00|-:
0000|00|-P
0000|00|-:
0000|00|-:
0000|00|-:
0000|00|-:
0000|00|-:
0000|00|-P
0000|00|-:
0000|00|-:
0000|00|-:
0000|00|-:
0000|00|-:
0000|00|-:
0000|00|-:
0000|00|0P
0000|00|::
0000|00|Po
0000|00|::
0000|00|::
0000|00|::
0000|00|::
0000|00|::
0000|00|Po
0000|00|::
0000|00|0P
0000|00|:-
0000|00|:-
0000|00|:-
0000|00|:-
0000|00|:-
0000|00|:-
0000|00|:-
0000|00|:-
0000|00|:-
0000|00|:-
0000|00|:-
0000|00|:-
0000|00|:-
--
0000|22|o-@(192
0000|00|:-
0000|00|0-
0000|00|--
0000|00|--
0000|00|--
0000|00|--
0000|00|--
0000|00|--
0000|00|--
0000|00|--
0000|00|--
0000|00|--
0000|00|--
0000|00|--
0000|00|--
0000|00|--
0000|00|--
0000|00|--
0000|00|--
0000|00|--
0000|00|--
0000|00|--
0000|00|--
0000|00|--
0000|00|--
0000|00|--
0000|00|--
0000|00|--
0000|00|--
0000|00|--
0000|00|--
0000|00|--
0000|00|--
0000|00|--
0000|00|--
0000|00|--
0000|00|--
0000|00|--
0000|00|--
0000|00|--
0000|00|--
0000|00|--
0000|00|--
0000|00|--
0000|00|--
0000|00|--
0000|00|--
0000|00|--
0000|00|--
0000|00|--
0000|00|--
0000|00|--
0000|00|--
0000|00|--
0000|00|--
0000|00|--
0000|00|--
0000|00|--
0000|00|--
0000|00|--
0000|00|--
0000|00|--
0000|00|--
--
0000|00|--
0000|00|--
0000|00|--
0000|00|--
0000|00|--
0100|00|--
0010|00|--
0100|00|--
--
1000|00|-o
0000|00|-:
0000|00|-:
0000|00|-:
0100|00|-:
0000|00|-:
0001|00|-:
0000|00|-:
0000|00|-:
0000|00|-:
1000|00|-:
0000|00|-:
0010|00|-:
0000|00|-:
0000|00|-:
0000|00|-:
--
0000|20|-0
0000|00|-:
0000|00|-:
0000|00|-:
0000|00|-:
0000|00|-:
0000|00|-:
0000|00|-:
0000|02|-:
0000|00|-:
0000|00|-:
0000|00|-:
0000|00|-:
0000|00|-:
0000|00|-:
0000|00|-:
0000|00|-:
0000|00|-:
0000|00|-:
0000|00|-:
0000|00|-:
0000|00|-:
0000|00|-:
0000|00|-:
0000|20|-:
0000|00|-:
0000|00|-:
0000|00|-:
0000|00|-:
0000|00|-:
0000|00|-:
0000|00|-:
0000|02|-:
0000|00|-:
0000|00|-:
0000|00|-:
0000|00|-:
0000|00|-:
0000|00|-:
0000|00|-:
0000|00|-:
0000|00|-:
0000|00|-:
0000|00|-:
0000|00|-:
0000|00|-:
0000|00|-:
0000|00|-:
0010|00|-o
0000|00|-:
0000|00|-0
0000|00|-:
0000|00|-:
0000|00|-:
0000|00|-:
0000|00|-:
0100|00|-:
0000|00|-:
0000|00|-:
0000|00|-:
0000|00|-:
0000|00|-:
0000|00|-:
0000|00|-:
--
0010|00|-0
0000|00|-:
0000|00|-o
0000|00|--
0000|00|--
0000|00|--
0000|00|--
0000|00|--
0000|00|--
0000|00|--
0000|00|--
0000|00|--
0000|00|--
0000|00|--
0000|00|--
0000|00|--
0000|22|0-@)192
0000|00|:-
0000|00|o-
0000|00|--
0000|00|--
0000|00|--
0000|00|--
0000|00|--
0000|00|--
0000|00|--
0000|00|--
0000|00|--
0000|00|--
0000|00|--
0000|00|--
0000|00|--
0000|00|--
0000|00|--
0000|00|--
0000|00|--
0000|00|--
0000|00|--
0000|00|--
0000|00|--
0000|00|--
0000|00|--
0000|00|--
0000|00|--
0000|00|--
0000|00|--
0000|00|--
0000|00|--
0000|00|--
0000|00|--
0000|00|--
0000|00|--
0000|00|--
0000|00|--
0000|00|--
0000|00|--
0000|00|--
0000|00|--
0000|00|--
0000|00|--
0000|00|--
0000|00|--
0000|00|--
0000|00|--
--
0000|00|--
0000|00|--
0000|00|--
0000|00|--
0000|00|--
0010|00|--
0100|00|--
0010|00|--
--
0001|00|0-
0000|00|:-
0000|00|:-
0000|00|:-
0010|00|:-
0000|00|:-
1000|00|:-
0000|00|:-
0000|00|:-
0000|00|:-
0001|00|:-
0000|00|:-
0100|00|:-
0000|00|:-
0000|00|:-
0000|00|:-
--
0010|00|o-
0000|00|:-
1000|00|:-
0000|00|:-
0000|00|:-
0000|00|:-
0001|00|:-
0000|00|:-
0100|00|:-
0000|00|:-
0010|00|:-
0000|00|:-
0001|00|:-
0000|00|:-
0000|00|:-
0000|00|:-
--
fx-r=
0011|01|0-
0000|01|:-
0000|01|o-
0000|01|--
0000|01|--
0000|01|--
0000|01|--
0000|01|--
0011|01|--
0000|01|--
0000|01|--
0000|01|--
0000|01|--
0000|01|--
0000|01|--
0000|01|--
fx-l=
0011|10|--
0000|10|--
0000|10|--
0000|10|--
0000|10|--
0000|10|--
0000|10|--
0000|10|--
0011|10|--
0000|10|--
0000|10|--
0000|10|--
0000|10|--
0000|10|--
0000|10|--
0000|10|--
0011|10|--
0000|10|--
0000|10|--
0000|10|--
0000|10|--
0000|10|--
0000|10|--
0000|10|--
0011|10|--
0000|10|--
0000|10|--
0000|10|--
0000|10|--
0000|10|--
0000|10|--
0000|10|--
0011|10|--
0000|10|--
0000|10|--
0000|10|--
0000|10|--
0000|10|--
0000|10|--
0000|10|--
0011|10|--
0000|10|--
0000|10|--
0000|10|--
0100|10|--
0000|10|--
0000|10|--
0000|10|--
--
fx-r=
1000|01|--
0000|01|--
0000|01|--
0000|01|--
1100|01|--
0000|01|--
0000|01|--
0000|01|--
0110|01|--
0000|01|--
0000|01|--
0000|01|--
0110|01|--
0000|01|--
0000|01|--
0000|01|--
0011|01|--
0000|01|--
0000|01|--
0000|01|--
0011|01|--
0000|01|--
0000|01|--
0000|01|--
fx-l=
0000|10|--
0000|10|--
0010|10|--
0000|10|--
0100|10|--
0000|10|--
1000|10|--
0000|10|--
--
0212|00|--
0202|00|--
0202|00|--
0202|00|--
0212|00|--
0202|00|--
0202|00|--
0202|00|--
0212|00|--
0202|00|--
0202|00|--
0202|00|--
0212|00|--
0202|00|--
0202|00|--
0202|00|--
0212|00|--
0202|00|--
0202|00|--
0202|00|--
0212|00|--
0202|00|--
0202|00|--
0202|00|--
0212|00|--
0202|00|--
0202|00|--
0202|00|--
0000|02|--
0000|00|--
0000|20|--
0000|00|--
--
2120|00|--
2020|00|--
2020|00|--
2020|00|--
2120|00|--
2020|00|--
2020|00|--
2020|00|--
fx-l=
fx-r=
2020|11|--
2020|11|--
2020|11|--
2020|11|--
2021|00|--
2020|00|--
2120|00|--
2020|00|--
2021|00|--
2020|00|--
2020|00|--
2020|00|--
fx-l=
fx-r=
2020|11|--
2020|11|--
2020|11|--
2020|11|--
0100|00|--
0000|00|--
0000|00|--
0000|00|--
0000|00|--
0000|00|--
0000|00|--
0000|00|--
--
zoom_bottom=0
0000|00|P-
0000|00|:-
0000|00|:-
0000|00|:-
0000|00|:-
0000|00|:-
0000|00|0-
0000|00|:-
0000|00|:-
0000|00|:-
0000|00|:-
0000|00|:-
0000|00|:-
0000|00|:-
0000|00|:-
0000|00|:-
0000|00|:-
0000|00|:-
0000|00|:-
0000|00|:-
0000|00|:-
0000|00|:-
0000|00|:-
0000|00|:-
0000|00|0-
0000|00|:-
0000|00|:-
0000|00|:-
0000|00|:-
0000|00|:-
0000|00|P-
0000|00|:-
0010|00|:-
0000|00|:-
0000|00|:-
0000|00|:-
0000|00|:-
0000|00|:-
0000|00|:-
0000|00|:-
0000|00|:-
0000|00|:-
0000|00|:-
0000|00|:-
0000|00|:-
0000|00|:-
0000|00|:-
0000|00|:-
0000|00|:-
0000|00|:-
0000|00|:-
0000|00|:-
0000|00|:-
0000|00|:-
0000|00|:-
0000|00|:-
0000|00|:-
0000|00|:-
0000|00|:-
0000|00|:-
0000|00|:-
0000|00|:-
0000|00|:-
0000|00|:-
0100|00|:-
0000|00|:-
0000|00|:-
0000|00|:-
0000|00|:-
0000|00|:-
0000|00|:-
0000|00|:-
0000|00|P-
0000|00|:-
0000|00|:-
0000|00|:-
0000|00|:-
0000|00|:-
0000|00|o-
0000|00|:-
0000|00|:-
0000|00|:-
0000|00|:-
0000|00|:-
0000|00|:-
0000|00|:-
0000|00|:-
0000|00|:-
0000|00|:-
0000|00|:-
0000|00|:-
0000|00|:-
0000|00|:-
0000|00|:-
0000|00|:-
0000|00|:-
1000|00|:-
0000|00|:-
0000|00|:-
0000|00|:-
0000|00|:-
0000|00|:-
0000|00|:-
0000|00|:-
0000|00|:-
0000|00|:-
0000|00|:-
0000|00|:-
0000|00|:-
0000|00|:-
0000|00|:-
0000|00|:-
0000|00|:-
0000|00|:-
0000|00|:-
0000|00|:-
0000|00|:-
0000|00|:-
0000|00|:-
0000|00|:-
0000|00|o-
0000|00|:-
0000|00|:-
0000|00|:-
0000|00|:-
0000|00|:-
0000|00|P-
0000|00|:-
0100|00|:-
0000|00|:-
0000|00|:-
0000|00|:-
0000|00|:-
0000|00|:-
0000|00|:-
0000|00|:-
0000|00|:-
0000|00|:-
0000|00|:-
0000|00|:-
0000|00|:-
0000|00|:-
0000|00|:-
0000|00|:-
0000|00|P-
0000|00|:-
0000|00|:-
0000|00|:-
0000|00|:-
0000|00|:-
0000|00|0-
0000|00|:-
0000|00|:-
0000|00|:-
0000|00|:-
0000|00|:-
0000|00|:-
0000|00|:-
0000|00|:-
0000|00|:-
0010|00|:-
0000|00|:-
0000|00|:-
0000|00|:-
0000|00|:-
0000|00|:-
0000|00|:-
0000|00|:-
0000|00|:-
0000|00|:-
0000|00|:-
0000|00|:-
0000|00|:-
0000|00|:-
0000|00|:-
0000|00|:-
0000|00|:-
0000|00|:-
0000|00|:-
0000|00|:-
0000|00|:-
0000|00|:-
0000|00|:-
0000|00|:-
0000|00|:-
0000|00|:-
0000|00|:-
0000|00|:-
0000|00|:-
0000|00|:-
0000|00|:-
0000|00|:-
--
0000|02|0-
0000|00|:-
0000|00|:-
0000|00|:-
0000|00|:-
0000|00|:-
0000|00|P-
0000|00|:-
0000|00|:-
0000|00|:-
0000|00|:-
0000|00|:-
0000|00|:-
0000|00|:-
0000|00|:-
0000|00|:-
0000|00|:-
0000|00|:-
0000|00|:-
0000|00|:-
0000|00|:-
0000|00|:-
0000|00|:-
0000|00|:-
0000|00|P-
0000|00|:-
0000|00|:-
0000|00|:-
0000|00|:-
0000|00|:-
0000|00|0-
0000|00|:-
0010|00|:-
0000|00|:-
0000|00|:-
0000|00|:-
0000|00|:-
0000|00|:-
0000|00|:-
0000|00|:-
0000|00|:-
0000|00|:-
0000|00|:-
0000|00|:-
0000|00|:-
0000|00|:-
0000|00|:-
0000|00|:-
0000|00|:-
0000|00|:-
0000|00|:-
0000|00|:-
0000|00|:-
0000|00|:-
0000|00|:-
0000|00|:-
0000|00|:-
0000|00|:-
0000|00|:-
0000|00|:-
0000|00|:-
0000|00|:-
0000|00|:-
0000|00|:-
0100|00|:-
0000|00|:-
0000|00|:-
0000|00|:-
0000|00|:-
0000|00|:-
0000|00|:-
0000|00|:-
0000|00|0-
0000|00|:-
0000|00|:-
0000|00|:-
0000|00|:-
0000|00|:-
0000|00|o-
0000|00|:-
0000|00|:-
0000|00|:-
0000|00|:-
0000|00|:-
0000|00|:-
0000|00|:-
0000|00|:-
0000|00|:-
0000|00|:-
0000|00|:-
0000|00|:-
0000|00|:-
0000|00|:-
0000|00|:-
0000|00|:-
0000|00|:-
0000|20|:-
0000|00|:-
0000|00|:-
0000|00|:-
0000|00|:-
0000|00|:-
0000|00|:-
0000|00|:-
0000|00|:-
0000|00|:-
0000|00|:-
0000|00|:-
0000|00|o-
0000|00|:-
0000|00|:-
0000|00|:-
0000|00|:-
0000|00|:-
0000|00|:-
0000|00|:-
0000|00|:-
0000|00|:-
0000|00|:-
0000|00|:-
0000|00|o-
0000|00|:-
0000|00|:-
0000|00|:-
0000|00|:-
0000|00|:-
0000|00|P-
0000|00|:-
0100|00|:-
0000|00|:-
0000|00|:-
0000|00|:-
0000|00|:-
0000|00|:-
0000|00|:-
0000|00|:-
0000|00|:-
0000|00|:-
0000|00|:-
0000|00|:-
0000|00|:-
0000|00|:-
0000|00|:-
0000|00|:-
zoom_bottom=-50
0000|00|P-
0000|00|:-
0000|00|:-
0000|00|:-
0000|00|:-
0000|00|:-
0000|00|0-
0000|00|--
0000|00|--
0000|00|--
0000|00|--
0000|00|--
0000|00|--
0000|00|--
0000|00|--
0000|00|--
0010|00|--
0000|00|--
0000|00|--
0000|00|--
0000|00|--
0000|00|--
0000|00|--
0000|00|--
0000|00|--
0000|00|--
0000|00|--
0000|00|--
0000|00|--
0000|00|--
0000|00|--
0000|00|--
0000|00|--
0000|00|--
0000|00|--
0000|00|--
0000|00|--
0000|00|--
0000|00|--
0000|00|--
0000|00|--
0000|00|--
0000|00|--
0000|00|--
0000|00|--
0000|00|--
0000|00|--
0000|00|--
--
0000|20|-P
0000|00|-:
0000|00|-o
0000|00|-:
0000|00|-:
0000|00|-:
0000|00|-:
0000|00|-:
0000|00|-o
0000|00|-:
0000|00|-P
0000|00|-:
0000|00|-:
0000|00|-:
0000|00|-:
0000|00|-:
0100|00|-:
0000|00|-:
0000|00|-:
0000|00|-:
0000|00|-:
0000|00|-:
0000|00|-:
0000|00|-:
0001|00|-P
0000|00|-:
0000|00|-0
0000|00|-:
0000|00|-:
0000|00|-:
0000|00|-:
0000|00|-:
0000|00|-:
0000|00|-:
0000|00|-:
0000|00|-:
0000|00|-:
0000|00|-:
0000|00|-:
0000|00|-:
1000|00|-0
0000|00|-:
0000|00|-P
0000|00|-:
0000|00|-:
0000|00|-:
0000|00|-:
0000|00|-:
0010|00|-P
0000|00|-:
0000|00|-o
0000|00|-:
0000|00|-:
0000|00|-:
0000|00|-:
0000|00|-:
0000|00|-:
0000|00|-:
0000|00|-:
0000|00|-:
0000|00|-:
0000|00|-:
0000|00|-:
0000|00|-:
--
0000|02|-o
0000|00|-:
0000|00|-P
0000|00|-:
0000|00|-:
0000|00|-:
0000|00|-:
0000|00|-:
0000|00|-P
0000|00|-:
0000|00|-o
0000|00|-:
0000|00|-:
0000|00|-:
0000|00|-:
0000|00|-:
0001|00|-:
0000|00|-:
0000|00|-:
0000|00|-:
0000|00|-:
0000|00|-:
0000|00|-:
0000|00|-:
0100|00|-o
0000|00|-:
0000|00|-0
0000|00|-:
0000|00|-:
0000|00|-:
0000|00|-:
0000|00|-:
0000|00|-:
0000|00|-:
0000|00|-:
0000|00|-:
0000|00|-:
0000|00|-:
0000|00|-:
0000|00|-:
0010|00|-0
0000|00|-:
0000|00|-P
0000|00|-:
0000|00|-:
0000|00|-:
0000|00|-:
0000|00|-:
1000|00|-P
0000|00|-:
0000|00|-o
0000|00|--
0000|00|--
0000|00|--
0000|00|--
0000|00|--
0000|00|--
0000|00|--
0000|00|--
0000|00|--
0000|00|--
0000|00|--
0000|00|--
0000|00|--
--
0000|00|0-
0000|00|:-
0000|00|e-
0000|00|:-
0000|00|:-
0000|00|:-
0000|00|:-
0000|00|:-
0000|00|:o
0000|00|::
0000|00|:A
0000|00|::
0000|00|::
0000|00|::
0000|00|::
0000|00|::
zoom_top=0
zoom_bottom=-50
0100|00|::
0000|00|::
0000|00|::
0000|00|::
0100|00|::
0000|00|::
0000|00|::
0000|00|::
0100|00|::
0000|00|::
0000|00|::
0000|00|::
0100|00|::
0000|00|::
0000|00|::
0000|00|::
0100|00|::
0000|00|::
0000|00|::
0000|00|::
0100|00|::
0000|00|::
0000|00|::
0000|00|::
0100|00|::
0000|00|::
0000|00|::
0000|00|::
0100|00|::
0000|00|::
0000|00|::
0000|00|::
0100|00|::
0000|00|::
0000|00|::
0000|00|::
0100|00|::
0000|00|::
0000|00|::
0000|00|::
0100|00|::
0000|00|::
0000|00|::
0000|00|::
0100|00|::
0000|00|::
0000|00|::
0000|00|::
--
0100|00|::
0100|00|::
0100|00|::
0100|00|::
0100|00|::
0100|00|::
0100|00|::
0100|00|::
0100|00|::
0100|00|::
0100|00|::
0100|00|::
fx-l_se=clap;0
fx-r_se=clap;0;0
zoom_top=50
zoom_bottom=-75
0000|22|::
0000|00|::
0000|00|::
0000|00|::
--
zoom_top=50
zoom_bottom=-75
0010|00|::
0010|00|::
0010|00|::
0010|00|::
0010|00|::
0010|00|::
0010|00|::
0010|00|::
0010|00|::
0010|00|::
0010|00|::
0010|00|::
0010|00|::
0010|00|::
0010|00|::
0010|00|::
--
0010|00|::
0010|00|::
0010|00|::
0010|00|::
0010|00|::
0010|00|::
0010|00|::
0010|00|::
0010|00|::
0010|00|::
0010|00|::
0010|00|::
fx-l_se=clap;0
fx-r_se=clap;0;0
zoom_bottom=-100
0000|22|::
0000|00|::
0000|00|::
0000|00|::
--
zoom_top=100
zoom_bottom=-100
0000|00|eA
0000|00|::
0000|00|0o
0000|00|--
0000|00|--
0000|00|--
0000|00|--
0000|00|--
0000|00|--
0000|00|--
0000|00|--
0000|00|--
0000|00|--
0000|00|--
0000|00|--
0000|00|--
0000|00|--
0000|00|--
0000|00|--
0000|00|--
0000|00|--
0000|00|--
0000|00|--
0000|00|--
0000|00|--
0000|00|--
0000|00|--
0000|00|--
0000|00|--
0000|00|--
0000|00|--
0000|00|--
0000|00|--
0000|00|--
0000|00|--
0000|00|--
0000|00|--
0000|00|--
0000|00|--
0000|00|--
0000|00|--
0000|00|--
0000|00|--
0000|00|--
0000|00|--
0000|00|--
0000|00|--
0000|00|--
zoom_bottom=0
0000|00|--
0000|00|--
0000|00|--
0000|00|--
0000|00|--
0000|00|--
0000|00|--
0000|00|--
0000|00|--
0000|00|--
0000|00|--
0000|00|--
0000|00|--
0000|00|--
0000|00|--
0000|00|--
--
0000|00|--
zoom_top=0
0000|00|--
--
