title=卑弥呼
artist=朱雀 VS 玄武
effect=胸世魔神(黒)
jacket=mxm.png
illustrator=G (designed by Q)
difficulty=infinite
level=19
t=82.5-185
m=mxm.ogg
o=0
bg=desert
layer=arrow
po=92756
plength=15000
pfiltergain=0
filtertype=peak
chokkakuautovol=0
chokkakuvol=0
icon=../sdvx05.png
ver=167
--
beat=4/4
t=185
0000|00|--
--
zoom_bottom=0
0110|00|-o
0000|00|-:
0000|00|-0
0000|00|-:
zoom_bottom=-25
0000|00|-:
0000|00|-:
0000|00|-:
0000|00|-:
0000|00|-:
0000|00|-:
0000|00|-:
0000|00|-:
0000|00|-:
0000|00|-:
0000|00|-:
0000|00|-:
0000|00|-:
0000|00|-:
0000|00|-:
0000|00|-:
0000|00|-:
0000|00|-:
0000|00|-:
0000|00|-:
0000|00|-:
0000|00|-:
0000|00|-:
0000|00|-:
0000|00|-:
0000|00|-:
0000|00|-:
0000|00|-:
zoom_bottom=-25
fx-l=
fx-r=
0000|11|-0
0000|11|-:
0000|11|-o
0000|11|--
0000|11|--
0000|11|--
0000|11|--
0000|11|--
0000|11|--
0000|11|--
0000|11|--
0000|11|--
0000|11|--
0000|11|--
0000|11|--
0000|11|--
0000|11|--
0000|11|--
0000|11|--
0000|11|--
0000|11|--
0000|11|--
0000|11|--
0000|11|--
0000|11|--
0000|11|--
0000|11|--
0000|11|--
0000|11|--
0000|11|--
0000|11|--
0000|11|--
--
0001|11|--
0000|11|--
0000|11|--
0000|11|--
0100|11|--
0000|11|--
0000|11|--
0001|11|--
tilt=zero
0000|11|--
0000|11|--
0010|11|--
0000|11|--
0001|11|--
0000|11|--
0100|11|--
0000|11|--
0010|11|--
0000|11|--
0001|11|--
0000|11|--
0000|11|--
0000|11|--
0000|11|--
0000|11|--
0000|11|--
0000|11|--
0000|11|--
0000|11|--
0000|11|--
0000|11|--
0000|11|--
0000|11|--
--
zoom_bottom=100
0100|11|0-
0000|11|:-
0000|11|:-
0000|11|:-
0000|11|5-
0000|11|:-
0000|11|:-
0000|11|:-
0010|11|K-
0000|11|:-
0000|11|U-
0000|11|:-
0000|11|o-
0000|11|--
0000|11|--
0000|11|--
--
0011|11|--
0000|11|--
0000|11|--
1100|11|--
0000|11|--
0000|11|--
0101|11|--
0000|11|--
--
0000|11|--
0000|11|--
1010|11|--
0000|11|--
0000|11|--
0000|11|--
0000|11|--
0000|11|--
0000|11|--
0000|11|--
0000|11|--
0000|11|--
0220|11|-o
0220|11|-:
0220|11|-:
0220|11|-:
0220|11|-:
0220|11|-:
0220|11|-:
0220|11|-:
0220|11|-:
0220|11|-:
0220|11|-:
0220|11|-:
0220|11|-:
0220|11|-:
0220|11|-:
0220|11|-:
0000|00|-0
0000|00|--
0000|00|--
0000|00|--
--
zoom_bottom=-50
0000|00|--
0000|00|--
0000|00|--
0000|00|--
0100|00|--
0000|00|--
0010|00|--
0000|00|--
0100|00|--
0000|00|--
0010|00|--
0000|00|--
0100|00|--
0000|00|--
0010|00|--
0000|00|--
0100|00|--
0000|00|--
0010|00|--
0000|00|--
0100|00|--
0000|00|--
0010|00|--
0000|00|--
1000|20|--
0000|00|--
0000|00|--
0001|02|--
0000|00|--
0000|00|--
0100|20|--
0000|00|--
0000|00|--
0010|02|--
0000|00|--
0000|00|--
1000|20|--
0000|00|--
0000|00|--
0001|02|--
0000|00|--
0000|00|--
0100|20|--
0000|00|--
0000|00|--
0010|02|--
0000|00|--
0000|00|--
--
tilt=normal
zoom_bottom=0
1000|20|--
0000|00|--
0100|00|--
0000|00|--
0010|00|--
0000|00|--
0001|00|--
0000|00|--
1000|20|--
0000|00|--
0010|00|--
0000|00|--
0100|00|--
0000|00|--
1000|00|--
0000|00|--
0001|20|--
0000|00|--
0010|00|--
0000|00|--
0100|00|--
0000|00|--
1000|00|--
0000|00|--
fx-l=
0010|10|--
0000|10|--
0100|10|--
0000|10|--
0010|10|--
0000|10|--
0001|10|--
0000|10|--
--
1000|02|--
0000|00|--
0100|00|--
0000|00|--
0010|00|--
0000|00|--
0001|00|--
0000|00|--
1000|02|--
0000|00|--
0010|00|--
0000|00|--
0100|00|--
0000|00|--
1000|00|--
0000|00|--
0001|02|--
0000|00|--
0010|00|--
0000|00|--
0100|00|--
0000|00|--
1000|00|--
0000|00|--
fx-r=
0010|01|--
0000|01|--
0100|01|--
0000|01|--
0010|01|--
0000|01|--
0100|01|--
0000|01|--
--
2000|00|--
2000|00|--
2010|00|--
2000|00|--
2001|00|--
2000|00|--
2100|00|--
2000|00|--
2010|00|--
2000|00|--
2001|00|--
2000|00|--
2100|00|--
2000|00|--
2010|00|--
2000|00|--
2001|00|--
2000|00|--
2010|00|--
2000|00|--
2100|00|--
2000|00|--
2001|00|--
2000|00|--
2010|00|--
2000|00|--
2100|00|--
2000|00|--
2001|00|--
2000|00|--
2010|00|--
2000|00|--
--
2100|00|--
2000|00|--
2010|00|--
2000|00|--
2001|00|--
2000|00|--
2100|00|--
2000|00|--
2010|00|--
2000|00|--
2001|00|--
2000|00|--
2100|00|--
2000|00|--
2010|00|--
2000|00|--
2001|00|--
2000|00|--
2010|00|--
2000|00|--
2100|00|--
2000|00|--
2010|00|--
2000|00|--
0002|00|--
0002|00|--
0012|00|--
0002|00|--
0102|00|--
0002|00|--
1002|00|--
0002|00|--
--
fx-r=
0000|01|--
0000|01|--
1000|01|--
0000|01|--
0100|01|--
0000|01|--
0010|01|--
0000|01|--
0001|01|--
0000|01|--
1000|01|--
0000|01|--
0100|01|--
0000|01|--
0010|01|--
0000|01|--
0001|01|--
0000|01|--
0010|01|--
0000|01|--
0100|01|--
0000|01|--
0010|01|--
0000|01|--
0100|01|--
0000|01|--
1000|01|--
0000|01|--
0010|01|--
0000|01|--
1000|01|--
0000|01|--
--
0001|01|--
0000|01|--
1000|01|--
0000|01|--
0100|01|--
0000|01|--
0010|01|--
0000|01|--
0001|01|--
0000|01|--
1000|01|--
0000|01|--
0100|01|--
0000|01|--
0010|01|--
0000|01|--
0001|01|--
0000|01|--
0010|01|--
0000|01|--
0100|01|--
0000|01|--
0010|01|--
0000|01|--
2000|00|--
2000|00|--
2001|00|--
2000|00|--
2010|00|--
2000|00|--
2100|00|--
2000|00|--
--
0002|00|--
0002|00|--
0102|00|--
0002|00|--
0012|00|--
0002|00|--
1002|00|--
0002|00|--
0102|00|--
0002|00|--
0012|00|--
0002|00|--
1002|00|--
0002|00|--
0102|00|--
0002|00|--
0012|00|--
0002|00|--
0102|00|--
0002|00|--
1002|00|--
0002|00|--
0012|00|--
0002|00|--
0102|00|--
0002|00|--
1002|00|--
0002|00|--
0102|00|--
0002|00|--
0012|00|--
0002|00|--
--
zoom_bottom=0
laserrange_l=2x
0000|00|C-
0000|00|:-
0000|00|b-
0000|00|:-
0000|00|:-
0000|00|:-
0000|00|:-
0000|00|:-
laserrange_r=2x
0000|00|:b
0000|00|::
0000|00|:C
0000|00|::
0000|00|::
0000|00|::
0000|00|::
0000|00|::
0000|00|::
0000|00|::
0000|00|::
0000|00|::
0000|00|::
0000|00|::
0000|00|::
0000|00|::
0000|00|::
0000|00|::
0000|00|::
0000|00|::
0000|00|::
0000|00|::
0000|00|::
0000|00|::
fx-l=
fx-r=
0001|11|::
0000|11|::
0000|11|::
0000|11|::
0010|11|::
0000|11|::
0000|11|::
0000|11|::
0100|11|::
0000|11|::
0000|11|::
0000|11|::
1000|11|::
0000|11|::
0000|11|::
0000|11|::
0011|00|::
0000|00|::
0000|00|::
0000|00|::
0000|00|::
0000|00|::
0000|00|::
0000|00|::
1100|00|::
0000|00|::
0000|00|::
0000|00|::
0000|00|::
0000|00|::
0000|00|::
0000|00|::
--
zoom_bottom=-50
0000|20|:C
0000|00|::
0000|00|:0
0000|00|::
0000|00|::
0000|00|::
0000|00|::
0000|00|::
1000|00|:0
0000|00|::
0000|00|:C
0000|00|::
0100|00|::
0000|00|::
0000|00|::
0000|00|::
0010|00|::
0000|00|::
0000|00|::
0000|00|::
0001|00|::
0000|00|::
0000|00|::
0000|00|::
0010|00|::
0000|00|::
0000|00|::
0000|00|::
0100|00|::
0000|00|::
0000|00|::
0000|00|::
0000|20|::
0000|00|::
0000|00|::
0000|00|::
1000|00|::
0000|00|::
0000|00|::
0000|00|::
0100|00|::
0000|00|::
0000|00|::
0000|00|::
0010|00|::
0000|00|::
0000|00|::
0000|00|::
0000|02|::
0000|00|::
0000|00|::
0000|00|::
0100|00|::
0000|00|::
0000|00|::
0000|00|::
0010|00|::
0000|00|::
0000|00|::
0000|00|::
0001|00|::
0000|00|::
0000|00|::
0000|00|::
--
0000|02|b:
0000|00|::
0000|00|o:
0000|00|::
0000|00|::
0000|00|::
0000|00|::
0000|00|::
0001|00|o:
0000|00|::
0000|00|b:
0000|00|::
0010|00|::
0000|00|::
0000|00|::
0000|00|::
0100|00|::
0000|00|::
0000|00|::
0000|00|::
1000|00|::
0000|00|::
0000|00|::
0000|00|::
0100|00|::
0000|00|::
0000|00|::
0000|00|::
0010|00|::
0000|00|::
0000|00|::
0000|00|::
0000|02|::
0000|00|::
0000|00|::
0000|00|::
0001|00|::
0000|00|::
0000|00|::
0000|00|::
0010|00|::
0000|00|::
0000|00|::
0000|00|::
0100|00|::
0000|00|::
0000|00|::
0000|00|::
0000|20|::
0000|00|::
0000|00|::
0000|00|::
0010|00|::
0000|00|::
0000|00|::
0000|00|::
0100|00|::
0000|00|::
0000|00|::
0000|00|::
1000|00|::
0000|00|::
0000|00|::
0000|00|::
--
fx-l=
0000|10|:C
0000|10|::
0000|10|:0
0000|10|::
0000|10|::
0000|10|::
0000|10|::
0000|10|::
1000|10|:0
0000|10|::
0000|10|:C
0000|10|::
0100|10|::
0000|10|::
0000|10|::
0000|10|::
0010|10|::
0000|10|::
0000|10|::
0000|10|::
0100|10|::
0000|10|::
0000|10|::
0000|10|::
0010|10|::
0000|10|::
0000|10|::
0000|10|::
0001|10|::
0000|10|::
0000|10|::
0000|10|::
0010|10|::
0000|10|::
0000|10|::
0000|10|::
0100|10|::
0000|10|::
0000|10|::
0000|10|::
1000|10|::
0000|10|::
0000|10|::
0000|10|::
0001|10|::
0000|10|::
0000|10|::
0000|10|::
0010|00|::
0000|00|::
0000|00|::
0000|00|::
0100|00|::
0000|00|::
0000|00|::
0000|00|::
0010|00|::
0000|00|::
0000|00|::
0000|00|::
0001|00|::
0000|00|::
0000|00|::
0000|00|::
--
fx-r=
0000|01|b:
0000|01|::
0000|01|o:
0000|01|::
0000|01|::
0000|01|::
0000|01|::
0000|01|::
0001|01|o:
0000|01|::
0000|01|b:
0000|01|::
0010|01|::
0000|01|::
0000|01|::
0000|01|::
0100|01|::
0000|01|::
0000|01|::
0000|01|::
0010|01|::
0000|01|::
0000|01|::
0000|01|::
0100|01|::
0000|01|::
0000|01|::
0000|01|::
1000|01|::
0000|01|::
0000|01|::
0000|01|::
0100|01|::
0000|01|::
0000|01|::
0000|01|::
0010|01|::
0000|01|::
0000|01|::
0000|01|::
0001|01|::
0000|01|::
0000|01|::
0000|01|::
1000|01|::
0000|01|::
0000|01|::
0000|01|::
0100|00|::
0000|00|::
0000|00|::
0000|00|::
0010|00|::
0000|00|::
0000|00|::
0000|00|::
0100|00|::
0000|00|::
0000|00|::
0000|00|::
1000|00|::
0000|00|::
0000|00|::
0000|00|::
--
0000|20|:C
0000|00|::
0000|00|:0
0000|00|::
0000|00|::
0000|00|::
0000|00|::
0000|00|::
1000|00|:0
0000|00|::
0000|00|:C
0000|00|::
0100|00|::
0000|00|::
0000|00|::
0000|00|::
0010|00|::
0000|00|::
0000|00|::
0000|00|::
0001|00|::
0000|00|::
0000|00|::
0000|00|::
0010|00|::
0000|00|::
0000|00|::
0000|00|::
0100|00|::
0000|00|::
0000|00|::
0000|00|::
0000|20|::
0000|00|::
0000|00|::
0000|00|::
1000|00|::
0000|00|::
0000|00|::
0000|00|::
0100|00|::
0000|00|::
0000|00|::
0000|00|::
0010|00|::
0000|00|::
0000|00|::
0000|00|::
0000|02|::
0000|00|::
0000|00|::
0000|00|::
0100|00|::
0000|00|::
0000|00|::
0000|00|::
0010|00|::
0000|00|::
0000|00|::
0000|00|::
0001|00|::
0000|00|::
0000|00|::
0000|00|::
--
0000|02|b:
0000|00|::
0000|00|o:
0000|00|::
0000|00|::
0000|00|::
0000|00|::
0000|00|::
0001|00|o:
0000|00|::
0000|00|b:
0000|00|::
0010|00|::
0000|00|::
0000|00|::
0000|00|::
0100|00|::
0000|00|::
0000|00|::
0000|00|::
1000|00|::
0000|00|::
0000|00|::
0000|00|::
0100|00|::
0000|00|::
0000|00|::
0000|00|::
0010|00|::
0000|00|::
0000|00|::
0000|00|::
0000|02|::
0000|00|::
0000|00|::
0000|00|::
0001|00|::
0000|00|::
0000|00|::
0000|00|::
0010|00|::
0000|00|::
0000|00|::
0000|00|::
0100|00|::
0000|00|::
0000|00|::
0000|00|::
0000|20|::
0000|00|::
0000|00|::
0000|00|::
0010|00|::
0000|00|::
0000|00|::
0000|00|::
0100|00|::
0000|00|::
0000|00|::
0000|00|::
1000|00|::
0000|00|::
0000|00|::
0000|00|::
--
fx-l=
0000|10|:C
0000|10|::
0000|10|:0
0000|10|::
0000|10|::
0000|10|::
0000|10|::
0000|10|::
1000|10|:0
0000|10|::
0000|10|:C
0000|10|::
0100|10|::
0000|10|::
0000|10|::
0000|10|::
0010|10|::
0000|10|::
0000|10|::
0000|10|::
0100|10|::
0000|10|::
0000|10|::
0000|10|::
0010|10|::
0000|10|::
0000|10|::
0000|10|::
0001|10|::
0000|10|::
0000|10|::
0000|10|::
0010|10|::
0000|10|::
0000|10|::
0000|10|::
0100|10|::
0000|10|::
0000|10|::
0000|10|::
1000|10|::
0000|10|::
0000|10|::
0000|10|::
0001|10|::
0000|10|::
0000|10|::
0000|10|::
0010|00|::
0000|00|::
0000|00|::
0000|00|::
0100|00|::
0000|00|::
0000|00|::
0000|00|::
0010|00|::
0000|00|::
0000|00|::
0000|00|::
0001|00|::
0000|00|::
0000|00|::
0000|00|::
--
0000|00|b:
0000|00|::
0000|00|C:
0000|00|::
0000|00|::
0000|00|::
0000|00|::
0000|00|::
0000|00|:C
0000|00|::
0000|00|:b
0000|00|::
0000|00|::
0000|00|::
0000|00|::
0000|00|::
0000|00|::
0000|00|::
0000|00|::
0000|00|::
0000|00|::
0000|00|::
0000|00|::
0000|00|::
0000|00|::
0000|00|::
0000|00|::
0000|00|::
0000|00|::
0000|00|::
0000|00|::
0000|00|::
0000|00|b:
0000|00|::
0000|00|P:
0000|00|::
0000|00|::
0000|00|::
0000|00|::
0000|00|::
0000|00|:C
0000|00|::
0000|00|:P
0000|00|::
0000|00|::
0000|00|::
0000|00|::
0000|00|::
1000|00|::
0000|00|::
0000|00|::
0000|00|::
0100|00|::
0000|00|::
0000|00|::
0000|00|::
0010|00|::
0000|00|::
0000|00|::
0000|00|::
0000|00|::
0000|00|::
0000|00|::
0000|00|::
--
0000|02|PP
0000|00|::
0000|00|C:
0000|00|-:
0001|00|-:
0000|00|-:
0000|00|-:
0000|00|-:
0000|02|-:
0000|00|-:
0000|00|-:
0000|00|-:
0000|00|-:
0000|00|-:
0000|00|-:
0000|00|-:
0000|02|-:
0000|00|-:
0000|00|-:
0000|00|-:
0000|00|-:
0000|00|-:
0000|00|-:
0000|00|-:
0001|00|-:
0000|00|-:
0000|00|-:
0000|00|-:
0000|02|-:
0000|00|-:
0000|00|-:
0000|00|-:
0000|00|-:
0000|00|-:
0000|00|-:
0000|00|-:
0001|00|-:
0000|00|-:
0000|00|-:
0000|00|-:
0000|02|-:
0000|00|-:
0000|00|-:
0000|00|-:
0000|00|-:
0000|00|-:
0000|00|-:
0000|00|-:
0000|02|-:
0000|00|-:
0000|00|-:
0000|00|-:
0001|00|-:
0000|00|-:
0000|00|-:
0000|00|-:
0000|02|-:
0000|00|-:
0000|00|-:
0000|00|-:
0000|00|-:
0000|00|-:
0000|00|-:
0000|00|-:
--
0000|20|PP
0000|00|::
0000|00|:b
0000|00|:-
0000|00|:-
0000|00|:-
0000|00|:-
0000|00|:-
1000|00|:-
0000|00|:-
0000|00|:-
0000|00|:-
0000|20|:-
0000|00|:-
0000|00|:-
0000|00|:-
0000|00|:-
0000|00|:-
0000|00|:-
0000|00|:-
1000|00|:-
0000|00|:-
0000|00|:-
0000|00|:-
0000|20|:-
0000|00|:-
0000|00|:-
0000|00|:-
0000|00|:-
0000|00|:-
0000|00|:-
0000|00|:-
0000|20|:-
0000|00|:-
0000|00|:-
0000|00|:-
1000|00|:-
0000|00|:-
0000|00|:-
0000|00|:-
0000|20|:-
0000|00|:-
0000|00|:-
0000|00|:-
0000|00|:-
0000|00|:-
0000|00|:-
0000|00|:-
0000|20|:-
0000|00|:-
0000|00|:-
0000|00|:-
0000|00|:-
0000|00|:-
0000|00|:-
0000|00|:-
0001|00|:-
0000|00|:-
0000|00|:-
0000|00|:-
0000|02|:-
0000|00|:-
0000|00|:-
0000|00|:-
--
0000|00|PP
0000|00|::
0000|00|0:
0000|00|-:
0001|00|-:
0000|00|-:
0000|00|-:
0000|00|-:
0000|02|-:
0000|00|-:
0000|00|-:
0000|00|-:
0000|00|-:
0000|00|-:
0000|00|-:
0000|00|-:
0000|02|-:
0000|00|-:
0000|00|-:
0000|00|-:
0001|00|-:
0000|00|-:
0000|00|-:
0000|00|-:
0000|02|-:
0000|00|-:
0000|00|-:
0000|00|-:
0000|00|-:
0000|00|-:
0000|00|-:
0000|00|-:
0000|02|-:
0000|00|-:
0000|00|-:
0000|00|-:
0000|00|-:
0000|00|-:
0000|00|-:
0000|00|-:
0001|00|-:
0000|00|-:
0000|00|-:
0000|00|-:
0000|02|-:
0000|00|-:
0000|00|-:
0000|00|-:
0000|00|-:
0000|00|-:
0000|00|-:
0000|00|-:
0001|00|-:
0000|00|-:
0000|00|-:
0000|00|-:
0000|02|-:
0000|00|-:
0000|00|-:
0000|00|-:
0000|00|-:
0000|00|-:
0000|00|-:
0000|00|-:
--
0000|20|-P
0000|00|-:
0000|00|Po
0000|00|:-
1000|00|:-
0000|00|:-
0000|00|:-
0000|00|:-
0000|20|:-
0000|00|:-
0000|00|:-
0000|00|:-
0000|00|:-
0000|00|:-
0000|00|:-
0000|00|:-
0000|20|:-
0000|00|:-
0000|00|:-
0000|00|:-
0000|00|:-
0000|00|:-
0000|00|:-
0000|00|:-
1000|00|:-
0000|00|:-
0000|00|:-
0000|00|:-
0000|20|:-
0000|00|:-
0000|00|:-
0000|00|:-
0001|00|:-
0000|00|:-
0010|00|:-
0000|00|:-
0100|00|:-
0000|00|:-
1000|00|:-
0000|00|:-
0100|00|:-
0000|00|:-
0010|00|:-
0000|00|:-
0001|00|:-
0000|00|:-
0000|00|:-
0000|00|:-
0000|00|P-
0000|00|:-
0000|00|:-
0000|00|:-
0000|00|:-
0000|00|:-
0000|00|:-
0000|00|:-
0000|00|0P
0000|00|-:
0000|00|-:
0000|00|-:
0000|00|-:
0000|00|-:
0000|00|-:
0000|00|-:
--
zoom_top=0
0100|00|-o
0000|00|-:
0000|00|-0
0000|00|--
0010|00|--
0000|00|--
0000|00|--
0000|00|--
0100|00|--
0000|00|--
0000|00|--
0000|00|--
0000|00|--
0000|00|--
0000|00|--
0000|00|--
0100|00|--
0000|00|--
0000|00|--
0000|00|--
0000|00|--
0000|00|--
0000|00|--
0000|00|--
0010|02|--
0000|00|--
0000|00|--
0000|00|--
0100|20|--
0000|00|--
0000|00|--
0000|00|--
zoom_top=25
0000|00|--
0000|00|--
0000|00|--
0000|00|--
0010|02|--
0000|00|--
0000|00|--
0000|00|--
0100|20|--
0000|00|--
0000|00|--
0000|00|--
0000|00|--
0000|00|--
0000|00|--
0000|00|--
0011|00|--
0000|00|--
0000|00|--
0000|00|--
0110|00|--
0000|00|--
0000|00|--
0000|00|--
0011|00|--
0000|00|--
0000|00|--
0000|00|--
0000|00|--
0000|00|--
0000|00|--
0000|00|--
--
1100|00|--
0000|00|--
0110|00|--
1100|00|--
0000|00|--
0110|00|--
1100|00|--
0000|00|--
1100|00|--
0110|00|--
0011|00|--
0000|00|--
0011|00|--
0000|00|--
0110|00|--
0011|00|--
--
0000|00|--
0110|00|--
0011|00|--
0000|00|--
0000|22|--
0110|00|--
0000|22|--
0000|00|--
0000|22|--
0000|00|--
1001|00|--
0000|22|--
0000|00|--
1001|00|--
0000|22|--
0000|00|--
--
beat=6/4
0110|00|--
0000|00|--
0110|00|--
0000|00|--
0110|00|--
0000|00|--
0000|00|--
0000|00|--
1110|00|--
0000|00|--
0000|00|--
0000|00|--
0111|00|--
0000|00|--
0111|00|--
0000|00|--
0000|00|--
0000|00|--
0000|22|--
0000|00|--
0110|00|--
0000|00|--
0000|00|--
0000|00|--
1001|00|--
0000|00|--
0000|22|--
0000|00|--
1001|00|--
0000|00|--
0000|00|--
0000|00|--
1001|22|--
0000|00|--
0000|00|--
0000|00|--
0110|00|--
0000|00|--
0110|00|--
0000|00|--
zoom_top=25
zoom_bottom=-50
0000|00|-P
0000|00|-:
0000|00|-:
0000|00|-:
0000|00|Po
0000|00|:-
0000|00|:-
0000|00|:-
--
beat=4/4
zoom_top=50
zoom_bottom=-75
0010|00|0-
0000|00|:-
0000|00|o-
0000|00|--
0100|00|--
0000|00|--
0000|00|--
0000|00|--
0010|00|--
0000|00|--
0000|00|--
0000|00|--
0000|00|--
0000|00|--
0000|00|--
0000|00|--
1100|02|--
0000|00|--
0000|00|--
0000|00|--
0000|00|--
0000|00|--
0000|00|--
0000|00|--
1100|00|--
0000|00|--
0000|00|--
0000|00|--
0110|00|--
0000|00|--
0000|00|--
0000|00|--
0000|20|--
0000|00|--
0000|00|--
0000|00|--
0110|00|--
0000|00|--
0000|00|--
0000|00|--
1100|00|--
0000|00|--
0000|00|--
0000|00|--
0000|00|--
0000|00|--
0000|00|--
0000|00|--
0011|00|--
0000|00|--
0000|00|--
0000|00|--
0110|00|--
0000|00|--
0000|00|--
0000|00|--
1100|00|--
0000|00|--
0000|00|--
0000|00|--
0000|00|--
0000|00|--
0000|00|--
0000|00|--
--
0011|20|--
0000|00|--
0011|00|--
0110|00|--
0000|02|--
0110|00|--
0011|00|--
0000|00|--
1100|00|--
0110|00|--
0011|00|--
0000|00|--
1100|02|--
0000|00|--
0011|00|--
0011|00|--
--
0000|20|--
0110|00|--
0110|00|--
0000|00|--
0011|00|--
0110|00|--
1100|00|--
0000|00|--
0011|20|--
0000|00|--
1100|00|--
1100|00|--
0000|02|--
0110|00|--
0110|00|--
0000|00|--
--
0000|22|--
1001|00|--
0000|22|--
0000|00|--
0000|22|--
0000|00|--
1110|00|--
1110|00|--
0000|00|--
0111|00|--
0111|00|--
0000|00|--
0000|22|--
0110|00|--
0000|22|--
0000|00|--
--
beat=3/4
1111|00|--
0000|00|--
0110|22|--
0110|22|--
0000|00|--
1001|22|--
1001|22|--
0000|00|--
1111|00|--
1111|00|--
1111|00|--
0000|00|--
--
beat=2/4
t=92.5
zoom_top=50
zoom_bottom=-75
fx-l=
fx-r=
0000|11|--
0000|11|--
1010|11|--
0000|11|--
--
0101|11|--
1010|11|--
--
zoom_top=0
zoom_bottom=100
0100|11|--
0000|11|--
0010|11|--
0100|11|--
--
1001|11|--
0110|11|--
--
0011|10|--
0000|10|--
0110|10|--
0000|10|--
--
fx-r=
1100|01|--
0000|01|--
0000|01|--
0000|01|--
0001|01|--
0000|01|--
0010|01|--
0000|01|--
--
fx-l=
0101|10|--
0000|10|--
0000|10|--
0000|10|--
1000|10|--
0000|10|--
0100|10|--
0000|10|--
--
fx-r=
1010|01|--
0000|01|--
0101|01|--
0000|01|--
1010|01|--
0000|01|--
0000|01|P-
0000|01|:-
--
0010|00|0-
0000|00|:-
0001|00|:-
0000|00|:-
0100|00|:-
0000|00|:-
0001|00|:-
0000|00|:-
0010|00|o-
0000|00|:-
0001|00|:-
0000|00|:-
0000|02|:-
0000|00|:-
0001|00|:-
0000|00|:-
--
0010|00|0-
0000|00|:-
0001|00|:-
0000|00|:-
0100|00|:-
0000|00|:-
0001|00|:-
0000|00|:-
0010|00|o-
0000|00|:-
0001|00|:-
0000|00|:-
0000|00|PP
0000|00|-:
0000|00|-:
0000|00|-:
--
0100|00|-0
0000|00|-:
1000|00|-:
0000|00|-:
0010|00|-:
0000|00|-:
1000|00|-:
0000|00|-:
0100|00|-o
0000|00|-:
1000|00|-:
0000|00|-:
0000|20|-:
0000|00|-:
1000|00|-:
0000|00|-:
--
0100|00|-0
0000|00|-:
1000|00|-:
0000|00|-:
0010|00|-:
0000|00|-:
1000|00|-:
0000|00|-:
0100|00|-o
0000|00|-:
1000|00|-:
0000|00|-:
0000|00|PP
0000|00|:-
0000|00|:-
0000|00|:-
--
0000|02|0-
0000|00|:-
0010|00|:-
0000|00|:-
0001|00|:-
0000|00|:-
0010|00|:-
0000|00|:-
0000|02|o-
0000|00|:-
0001|00|:-
0000|00|:-
0000|00|PP
0000|00|-:
0000|00|-:
0000|00|-:
--
0000|20|-0
0000|00|-:
0100|00|-:
0000|00|-:
1000|00|-:
0000|00|-:
0100|00|-:
0000|00|-:
0000|20|-o
0000|00|-:
1000|00|-:
0000|00|-:
0000|00|PP
0000|00|:-
0000|00|:-
0000|00|:-
--
zoom_top=0
zoom_bottom=100
0011|00|0-
0000|00|:-
0000|00|:-
0000|00|:-
0110|00|:-
0000|00|:-
1100|00|:-
0000|00|:-
--
0000|00|o0
0000|00|::
0000|00|::
0000|00|::
0000|00|PP
0000|00|::
0000|00|::
0000|00|::
0000|00|Ae
0000|00|::
0000|00|::
0000|00|::
0000|00|::
0000|00|::
0000|00|::
0000|00|::
zoom_top=25
zoom_bottom=0
0000|00|0o
0000|00|::
0000|00|Z0
0000|00|::
zoom_bottom=-25
0000|00|Z0
0000|00|::
0000|00|Aj
0000|00|::
zoom_bottom=-25
0000|00|Aj
0000|00|::
0000|00|oF
0000|00|::
zoom_bottom=-50
0000|00|::
0000|00|::
0000|00|::
0000|00|::
--
beat=4/4
t=185
zoom_top=25
fx-l=
1000|10|oF
0000|10|-:
0000|10|-o
0000|10|--
0100|10|--
0000|10|--
0000|10|--
0000|10|--
0010|10|--
0000|10|--
0000|10|--
0000|10|--
0001|10|--
0000|10|--
0000|10|--
0000|10|--
0010|10|--
0000|10|--
0000|10|--
0000|10|--
0100|10|--
0000|10|--
0000|10|--
0000|10|--
1000|10|--
0000|10|--
0000|10|--
0000|10|--
0100|10|--
0000|10|--
0000|10|--
0000|10|--
0010|10|--
0000|10|--
0000|10|--
0000|10|--
0001|10|--
0000|10|--
0000|10|--
0000|10|--
0010|10|--
0000|10|--
0000|10|--
0000|10|--
0000|10|--
0000|10|--
0000|10|--
0000|10|--
1000|10|--
0000|10|--
0000|10|--
0000|10|--
0100|10|--
0000|10|--
0000|10|--
0000|10|--
0010|10|--
0000|10|--
0000|10|--
0000|10|--
0001|10|--
0000|10|--
0000|10|--
0000|10|--
--
0100|10|--
0000|10|--
0010|10|--
0000|10|--
0001|10|--
0000|10|--
0100|10|--
0000|10|--
0010|10|--
0000|10|--
1000|10|--
0000|10|--
0001|10|--
0000|10|--
0100|10|--
0000|10|--
zoom_top=0
zoom_bottom=0
1000|00|--
0000|00|--
0100|00|--
0000|00|--
0010|00|--
0000|00|--
0001|00|--
0000|00|--
0000|02|--
0000|00|--
0100|00|--
0000|00|--
1000|00|--
0000|00|--
0100|00|--
0000|00|--
--
0010|00|--
0000|00|--
0001|00|--
0000|00|--
0000|02|--
0000|00|--
0000|00|--
0000|00|--
0000|20|--
0000|00|--
0100|00|--
0000|00|--
0010|00|--
0000|00|--
0001|00|--
0000|00|--
fx-l=
1000|10|--
0000|10|--
0010|10|--
0000|10|--
0001|10|--
0000|10|--
0100|10|--
0000|10|--
0010|10|--
0000|10|--
0100|10|--
0000|10|--
0001|10|--
0000|10|--
0010|10|--
0000|10|--
--
fx-r=
1000|01|--
0000|01|--
0100|01|--
0000|01|--
0010|01|--
0000|01|--
0001|01|--
0000|01|--
0010|01|--
0000|01|--
0100|01|--
0000|01|--
1000|01|--
0000|01|--
0100|01|--
0000|01|--
0010|01|--
0000|01|--
0001|01|--
0000|01|--
0100|01|--
0000|01|--
0000|01|--
0000|01|--
1000|01|--
0000|01|--
0100|01|--
0000|01|--
0010|01|--
0000|01|--
0001|01|--
0000|01|--
--
zoom_bottom=0
0010|01|--
0000|01|--
0100|01|--
0000|01|--
0010|01|--
0000|01|--
0001|01|--
0000|01|--
0100|01|--
0000|01|--
0001|01|--
0000|01|--
1000|01|--
0000|01|--
0010|01|--
0000|01|--
0000|20|--
0000|00|--
0100|00|--
0000|00|--
0010|00|--
0000|00|--
0001|00|--
0000|00|--
0010|00|--
0000|00|--
0100|00|--
0000|00|--
0000|20|--
0000|00|--
0100|00|--
0000|00|--
--
0010|00|--
0001|00|--
0010|00|--
0000|00|--
1000|00|--
0100|00|--
0010|00|--
0000|02|--
0100|00|--
0010|00|--
0001|00|--
0100|00|--
0010|00|--
1000|00|--
0001|00|--
0100|00|--
--
fx-r=
1000|01|--
0000|01|--
0100|01|--
0000|01|--
0010|01|--
0000|01|--
0001|01|--
0000|01|--
0010|01|--
0000|01|--
0100|01|--
0000|01|--
1000|01|--
0000|01|--
0100|01|--
0000|01|--
0010|01|--
0000|01|--
0001|01|--
0000|01|--
0010|01|--
0000|01|--
0000|01|--
0000|01|--
0100|01|--
0000|01|--
0010|01|--
0000|01|--
1000|01|--
0000|01|--
0100|01|--
0000|01|--
--
0010|01|--
0000|01|--
1000|01|--
0000|01|--
0001|01|--
0000|01|--
0100|01|--
0000|01|--
0010|01|--
0000|01|--
0100|01|--
0000|01|--
0001|01|--
0000|01|--
0010|01|--
0000|01|--
fx-l=
1000|10|--
0000|10|--
0100|10|--
0000|10|--
0010|10|--
0000|10|--
0001|10|--
0000|10|--
0010|10|--
0000|10|--
0100|10|--
0000|10|--
1000|10|--
0000|10|--
0100|10|--
0000|10|--
--
0010|10|--
0001|10|--
0010|10|--
0000|10|--
1000|10|--
0100|10|--
0010|10|--
0100|10|--
0010|10|--
0001|10|--
0100|10|--
1000|10|--
0010|10|--
0100|10|--
0001|10|--
0010|10|--
--
0000|02|--
0000|00|--
0100|00|--
0000|00|--
0000|02|--
0000|00|--
0010|00|--
0000|00|--
0100|02|--
0000|00|--
1000|00|--
0000|00|--
0000|02|--
0000|00|--
0100|00|--
0000|00|--
0000|02|--
0000|00|--
0010|00|--
0000|00|--
0100|02|--
0000|00|--
0000|00|--
0000|00|--
0000|20|--
0000|00|--
0100|00|--
0000|00|--
0010|20|--
0000|00|--
0001|00|--
0000|00|--
--
0000|20|--
0000|00|--
0010|00|--
0000|00|--
0000|20|--
0000|00|--
0100|00|--
0000|00|--
0000|20|--
0000|00|--
0001|00|--
0000|00|--
0010|20|--
0000|00|--
0100|00|--
0000|00|--
fx-r=
0001|01|--
0000|01|--
0010|01|--
0000|01|--
0100|01|--
0000|01|--
1000|01|--
0000|01|--
0011|00|--
0000|00|--
1100|00|--
0000|00|--
0011|00|--
0000|00|--
1100|00|--
0000|00|--
--
zoom_top=0
zoom_bottom=-50
laserrange_r=2x
0000|20|-h
0000|00|-:
0000|00|-U
0000|00|-:
0000|00|-U
0000|00|-:
0000|00|-K
0000|00|-:
0000|20|-K
0000|00|-:
0000|00|-7
0000|00|-:
0000|00|-7
0000|00|-:
0000|00|-K
0000|00|-:
0000|20|-K
0000|00|-:
0000|00|-U
0000|00|-:
0000|00|-U
0000|00|-:
0000|00|-h
0000|00|-:
zoom_top=25
laserrange_l=2x
0000|00|7h
0000|00|::
0000|00|h7
0000|00|::
0000|00|::
0000|00|::
0000|00|::
0000|00|::
0000|00|::
0000|00|::
0000|00|::
0000|00|::
0000|00|::
0000|00|::
0000|00|::
0000|00|::
0001|00|::
0000|00|::
0000|00|::
0000|00|::
0010|00|::
0000|00|::
0000|00|::
0000|00|::
0001|00|::
0000|00|::
0000|00|::
0000|00|::
0010|00|::
0000|00|::
0000|00|::
0000|00|::
0001|00|::
0000|00|::
0000|00|::
0000|00|::
0010|00|::
0000|00|::
0000|00|::
0000|00|::
--
0000|02|77
0000|00|::
0000|00|K:
0000|00|::
0000|00|K:
0000|00|::
0000|00|U:
0000|00|::
0000|02|U:
0000|00|::
0000|00|h:
0000|00|::
0000|00|h:
0000|00|::
0000|00|U:
0000|00|::
0000|02|U:
0000|00|::
0000|00|K:
0000|00|::
0000|00|K:
0000|00|::
0000|00|7:
0000|00|::
0000|00|77
0000|00|::
0000|00|hh
0000|00|::
0000|00|::
0000|00|::
0000|00|::
0000|00|::
0000|00|::
0000|00|::
0000|00|::
0000|00|::
0000|00|::
0000|00|::
0000|00|::
0000|00|::
1000|00|::
0000|00|::
0000|00|::
0000|00|::
0100|00|::
0000|00|::
0000|00|::
0000|00|::
1000|00|::
0000|00|::
0000|00|::
0000|00|::
0100|00|::
0000|00|::
0000|00|::
0000|00|::
1000|00|::
0000|00|::
0000|00|::
0000|00|::
0100|00|::
0000|00|::
0000|00|::
0000|00|::
--
0000|20|h7
0000|00|::
0000|00|:K
0000|00|::
0000|00|:K
0000|00|::
0000|00|:U
0000|00|::
0000|20|:U
0000|00|::
0000|00|:h
0000|00|::
0000|00|:h
0000|00|::
0000|00|:U
0000|00|::
0000|20|:U
0000|00|::
0000|00|:K
0000|00|::
0000|00|:K
0000|00|::
0000|00|:7
0000|00|::
0000|00|h7
0000|00|::
0000|00|7h
0000|00|::
0000|00|::
0000|00|::
0000|00|::
0000|00|::
0000|00|::
0000|00|::
0000|00|::
0000|00|::
0000|00|::
0000|00|::
0000|00|::
0000|00|::
0010|00|::
0000|00|::
0000|00|::
0000|00|::
0100|00|::
0000|00|::
0000|00|::
0000|00|::
0010|00|::
0000|00|::
0000|00|::
0000|00|::
0100|00|::
0000|00|::
0000|00|::
0000|00|::
0010|00|::
0000|00|::
0000|00|::
0000|00|::
0100|00|::
0000|00|::
0000|00|::
0000|00|::
--
0000|00|hh
0000|00|::
0000|00|::
0000|00|::
0000|00|::
0000|00|::
0000|00|X:
0000|00|::
0000|00|::
0000|00|::
0000|00|::
0000|00|::
0000|00|:h
0000|00|::
0000|00|::
0000|00|::
0000|00|::
0000|00|::
0000|00|:P
0000|00|::
0000|00|::
0000|00|::
0000|00|::
0000|00|::
0000|00|X:
0000|00|::
0000|00|::
0000|00|::
0000|00|::
0000|00|::
0000|00|H:
0000|00|::
0000|00|::
0000|00|::
0000|00|::
0000|00|::
0000|00|:P
0000|00|::
0000|00|::
0000|00|::
0000|00|::
0000|00|::
0000|00|:7
0000|00|::
0000|00|::
0000|00|::
0000|00|::
0000|00|::
0000|00|:7
0000|00|::
0000|00|::
0000|00|::
0000|00|::
0000|00|::
0000|00|:P
0000|00|::
0000|00|::
0000|00|::
0000|00|::
0000|00|::
0000|00|H:
0000|00|::
0000|00|::
0000|00|::
0000|00|::
0000|00|::
0000|00|X:
0000|00|::
0000|00|::
0000|00|::
0000|00|::
0000|00|::
0000|00|:P
0000|00|::
0000|00|::
0000|00|::
0000|00|::
0000|00|::
0000|00|:h
0000|00|::
0000|00|::
0000|00|::
0000|00|::
0000|00|::
0000|00|X:
0000|00|::
0000|00|::
0000|00|::
0000|00|::
0000|00|::
0000|00|h:
0000|00|::
0000|00|::
0000|00|::
0000|00|::
0000|00|::
0001|00|::
0000|00|::
0000|00|::
0000|00|::
0000|00|::
0000|00|::
0000|00|::
0000|00|::
0000|00|::
0000|00|::
0000|00|::
0000|00|::
0010|00|::
0000|00|::
0000|00|::
0000|00|::
0000|00|::
0000|00|::
0000|00|::
0000|00|::
0000|00|::
0000|00|::
0000|00|::
0000|00|::
0100|00|::
0000|00|::
0000|00|::
0000|00|::
0000|00|::
0000|00|::
0000|00|::
0000|00|::
0000|00|::
0000|00|::
0000|00|::
0000|00|::
0010|00|::
0000|00|::
0000|00|::
0000|00|::
0000|00|::
0000|00|::
0000|00|::
0000|00|::
0000|00|::
0000|00|::
0000|00|::
0000|00|::
0001|00|::
0000|00|::
0000|00|::
0000|00|::
0000|00|::
0000|00|::
0000|00|::
0000|00|::
1000|00|::
0000|00|::
0000|00|::
0000|00|::
0000|00|::
0000|00|::
0000|00|::
0000|00|::
0001|00|::
0000|00|::
0000|00|::
0000|00|::
0000|00|::
0000|00|::
0000|00|::
0000|00|::
1000|00|::
0000|00|::
0000|00|::
0000|00|::
0000|00|::
0000|00|::
0000|00|::
0000|00|::
0001|00|::
0000|00|::
0000|00|::
0000|00|::
0000|00|::
0000|00|::
0000|00|::
0000|00|::
0000|00|::
0000|00|::
0000|00|::
0000|00|::
0000|00|::
0000|00|::
0000|00|::
0000|00|::
--
0000|02|h:
0000|00|::
0000|00|7:
0000|00|::
0001|00|::
0000|00|::
0000|00|::
0000|00|::
0010|00|::
0000|00|::
0000|00|::
0000|00|::
0100|00|::
0000|00|::
0000|00|::
0000|00|::
0010|00|::
0000|00|::
0000|00|::
0000|00|::
0100|00|::
0000|00|::
0000|00|::
0000|00|::
1000|00|:h
0000|00|::
0000|00|:7
0000|00|::
0000|00|::
0000|00|::
0000|00|::
0000|00|::
0000|00|::
0000|00|::
0000|00|::
0000|00|::
0000|00|::
0000|00|::
0000|00|::
0000|00|::
1100|00|::
0000|00|::
0000|00|::
0000|00|::
0001|00|::
0000|00|::
0000|00|::
0000|00|::
0110|00|::
0000|00|::
0000|00|::
0000|00|::
1000|00|::
0000|00|::
0000|00|::
0000|00|::
0011|00|::
0000|00|::
0000|00|::
0000|00|::
0100|00|::
0000|00|::
0000|00|::
0000|00|::
--
0000|20|:7
0000|00|::
0000|00|:h
0000|00|::
0100|00|::
0000|00|::
0000|00|::
0000|00|::
1000|00|::
0000|00|::
0000|00|::
0000|00|::
0010|00|::
0000|00|::
0000|00|::
0000|00|::
0100|00|::
0000|00|::
0000|00|::
0000|00|::
0001|00|::
0000|00|::
0000|00|::
0000|00|::
0010|00|7:
0000|00|::
0000|00|h:
0000|00|::
0000|00|::
0000|00|::
0000|00|::
0000|00|::
0000|00|::
0000|00|::
0000|00|::
0000|00|::
0000|00|::
0000|00|::
0000|00|::
0000|00|::
0011|00|::
0000|00|::
0000|00|::
0000|00|::
1000|00|::
0000|00|::
0000|00|::
0000|00|::
0110|00|::
0000|00|::
0000|00|::
0000|00|::
0001|00|::
0000|00|::
0000|00|::
0000|00|::
1100|00|::
0000|00|::
0000|00|::
0000|00|::
0010|00|::
0000|00|::
0000|00|::
0000|00|::
--
0000|02|h:
0000|00|::
0000|00|7:
0000|00|::
0001|00|::
0000|00|::
0000|00|::
0000|00|::
0100|00|::
0000|00|::
0000|00|::
0000|00|::
0010|00|::
0000|00|::
0000|00|::
0000|00|::
1000|00|::
0000|00|::
0000|00|::
0000|00|::
0100|00|::
0000|00|::
0000|00|::
0000|00|::
1000|00|7h
0000|00|::
0000|00|:7
0000|00|::
0000|00|::
0000|00|::
0000|00|::
0000|00|::
0000|00|::
0000|00|::
0000|00|::
0000|00|::
0000|00|::
0000|00|::
0000|00|::
0000|00|::
0000|02|::
0000|00|::
0000|00|::
0000|00|::
0110|00|::
0000|00|::
0000|00|::
0000|00|::
0000|02|::
0000|00|::
0000|00|::
0000|00|::
0000|20|::
0000|00|::
0000|00|::
0000|00|::
0110|00|::
0000|00|::
0000|00|::
0000|00|::
0000|20|::
0000|00|::
0000|00|::
0000|00|::
--
beat=6/4
0110|00|::
0000|00|::
0000|00|::
0000|00|::
0000|00|::
0000|00|::
0000|00|::
0000|00|::
0000|00|::
0000|00|::
0000|00|::
0000|00|::
1100|00|::
0000|00|::
0000|00|::
0000|00|::
0000|00|::
0000|00|::
0000|00|::
0000|00|::
0000|00|::
0000|00|::
0000|00|::
0000|00|::
0110|00|::
0000|00|::
0000|00|::
0000|00|::
0000|00|::
0000|00|::
0000|00|::
0000|00|::
0000|00|::
0000|00|::
0000|00|::
0000|00|::
1100|00|::
0000|00|::
0000|00|::
0000|00|::
0000|00|::
0000|00|::
0000|00|::
0000|00|::
0000|00|::
0000|00|::
0000|00|::
0000|00|::
0011|00|::
0000|00|::
0000|00|::
0000|00|::
0000|00|::
0000|00|::
0000|00|::
0000|00|::
0000|00|::
0000|00|::
0000|00|::
0000|00|::
0110|00|::
0000|00|::
0000|00|::
0000|00|::
0000|00|::
0000|00|::
0000|00|::
0000|00|::
0000|00|::
0000|00|::
0000|00|::
0000|00|::
0011|00|::
0000|00|::
0000|00|::
0000|00|::
0000|00|::
0000|00|::
0000|00|::
0000|00|::
0000|00|::
0000|00|::
0000|00|::
0000|00|::
0110|00|::
0000|00|::
0000|00|::
0000|00|::
0000|00|::
0000|00|::
0000|00|::
0000|00|::
0000|00|::
0000|00|::
0000|00|::
0000|00|::
0001|02|::
0000|00|::
0000|00|::
0000|00|::
0000|00|::
0000|00|::
0000|00|::
0000|00|::
0000|00|::
0000|00|::
0000|00|::
0000|00|::
1000|20|::
0000|00|::
0000|00|::
0000|00|::
0000|00|::
0000|00|::
0000|00|::
0000|00|::
0000|00|::
0000|00|::
0000|00|::
0000|00|::
0001|02|::
0000|00|::
0000|00|::
0000|00|::
0000|00|::
0000|00|::
0000|00|::
0000|00|::
0000|00|::
0000|00|::
0000|00|::
0000|00|::
1000|20|::
0000|00|::
0000|00|::
0000|00|::
0000|00|::
0000|00|::
0000|00|::
0000|00|::
0000|00|::
0000|00|::
0000|00|::
0000|00|::
zoom_bottom=-50
0010|00|::
0000|00|::
0000|00|::
0000|00|::
0000|00|::
0000|00|::
0000|00|::
0000|00|::
0100|00|::
0000|00|::
0000|00|::
0000|00|::
0000|00|::
0000|00|::
0000|00|::
0000|00|::
0010|00|::
0000|00|::
0000|00|::
0000|00|::
0000|00|::
0000|00|::
0000|00|::
0000|00|::
0100|00|::
0000|00|::
0000|00|::
0000|00|::
0000|00|::
0000|00|::
0000|00|::
0000|00|::
0010|00|::
0000|00|::
0000|00|::
0000|00|::
0000|00|::
0000|00|::
0000|00|::
0000|00|::
0100|00|::
0000|00|::
0000|00|::
0000|00|::
0000|00|::
0000|00|::
0000|00|::
0000|00|::
0010|00|::
0000|00|::
0000|00|::
0000|00|::
0000|00|::
0000|00|::
0000|00|::
0000|00|::
0100|00|::
0000|00|::
0000|00|::
0000|00|::
0000|00|::
0000|00|::
0000|00|::
0000|00|::
0010|00|::
0000|00|::
0000|00|::
0000|00|::
0000|00|::
0000|00|::
0000|00|::
0000|00|::
0100|00|::
0000|00|::
0000|00|::
0000|00|::
0000|00|::
0000|00|::
0000|00|::
0000|00|::
0010|00|::
0000|00|::
0000|00|::
0000|00|::
0000|00|::
0000|00|::
0000|00|::
0000|00|::
0100|00|::
0000|00|::
0000|00|::
0000|00|::
0000|00|::
0000|00|::
0000|00|::
0000|00|::
zoom_bottom=-100
0000|00|:7
0000|00|::
0000|00|::
0000|00|::
0000|00|::
0000|00|::
0000|00|:h
0000|00|:-
0000|00|:-
0000|00|:-
0000|00|:-
0000|00|:-
0000|00|:-
0000|00|:-
0000|00|:-
0000|00|:-
0000|00|:-
0000|00|:-
0000|00|:-
0000|00|:-
0000|00|:-
0000|00|:-
0000|00|:-
0000|00|:-
0000|00|:-
0000|00|:-
0000|00|:-
0000|00|:-
0000|00|:-
0000|00|:-
0000|00|:-
0000|00|:-
0000|00|:-
0000|00|:-
0000|00|:-
0000|00|:-
0000|00|:-
0000|00|:-
0000|00|:-
0000|00|:-
0000|00|:-
0000|00|:-
0000|00|:-
0000|00|:-
0000|00|:-
0000|00|:-
0000|00|:-
0000|00|:-
--
beat=4/4
zoom_top=25
zoom_bottom=-100
0001|00|7-
0000|00|:-
0010|00|:-
0000|00|:-
0001|00|:-
0000|00|:-
0010|00|:-
0000|00|:-
0000|02|h-
0000|00|:-
0010|00|:-
0000|00|:-
0100|00|:-
0000|00|:-
1000|00|:-
0000|00|:-
fx-r=
0000|01|:-
0000|01|:-
1000|01|:-
0000|01|:-
0100|01|:-
0000|01|:-
0010|01|:-
0000|01|:-
0000|20|:-
0000|00|:-
0100|00|:-
0000|00|:-
0010|00|:-
0000|00|:-
0001|00|:-
0000|00|:-
--
zoom_top=0
zoom_bottom=-75
0010|00|h-
0000|00|:-
0001|00|:-
0000|00|:-
0010|00|:-
0000|00|:-
0001|00|:-
0000|00|:-
0000|02|7-
0000|00|:-
0001|00|:-
0000|00|:-
0010|00|:-
0000|00|:-
0100|00|:-
0000|00|:-
fx-l=
0000|10|:-
0000|10|:-
0010|10|:-
0000|10|:-
0100|10|:-
0000|10|:-
1000|10|:-
0000|10|:-
0000|02|:-
0000|00|:-
1000|00|:-
0000|00|:-
0100|00|:-
0000|00|:-
0010|00|:-
0000|00|:-
--
0001|00|7-
0000|00|:-
0010|00|:-
0000|00|:-
0001|00|:-
0000|00|:-
0010|00|:-
0000|00|:-
0000|02|h-
0000|00|:-
0001|00|:-
0000|00|:-
0010|00|:-
0000|00|:-
0100|00|:-
0000|00|:-
fx-r=
1000|01|:-
0000|01|:-
0100|01|:-
0000|01|:-
1000|01|:-
0000|01|:-
0100|01|:-
0000|01|:-
0010|00|:-
0000|00|:-
0100|00|:-
0000|00|:-
1000|00|:-
0000|00|:-
0010|00|:-
0000|00|:-
--
0000|20|:-
0000|00|:-
0000|00|:-
0000|00|:-
0100|00|:-
0000|00|:-
0000|00|:-
0000|00|:-
0010|00|:-
0000|00|:-
0000|00|:-
0000|00|:-
0001|00|:-
0000|00|:-
0000|00|:-
0000|00|:-
0000|20|:-
0000|00|:-
0000|00|:-
0000|00|:-
0010|00|:-
0000|00|:-
0000|00|:-
0000|00|:-
0100|00|:-
0000|00|:-
0000|00|:-
0000|00|:-
0010|00|:-
0000|00|:-
0000|00|:-
0000|00|:-
fx-r=
0000|01|h-
0000|01|:-
0000|01|:-
0000|01|:-
0000|01|:-
0000|01|:-
0000|01|:-
0000|01|:-
0000|01|:-
0000|01|:-
0000|01|:-
0000|01|:-
0000|01|:-
0000|01|:-
0000|01|:-
0000|01|:-
0000|00|7-
0000|00|:-
0000|00|h-
0000|00|--
0000|00|--
0000|00|--
0000|00|--
0000|00|--
0000|00|--
0000|00|--
0000|00|--
0000|00|--
0000|00|--
0000|00|--
0000|00|--
0000|00|--
--
laserrange_r=2x
0100|00|-h
0000|00|-:
1000|00|-:
0000|00|-:
0100|00|-:
0000|00|-:
1000|00|-:
0000|00|-:
0000|20|-7
0000|00|-:
0100|00|-:
0000|00|-:
0010|00|-:
0000|00|-:
0001|00|-:
0000|00|-:
fx-l=
0000|10|-:
0000|10|-:
0001|10|-:
0000|10|-:
0010|10|-:
0000|10|-:
0100|10|-:
0000|10|-:
1000|00|-:
0000|00|-:
0001|00|-:
0000|00|-:
0010|00|-:
0000|00|-:
0100|00|-:
0000|00|-:
--
1000|00|-7
0000|00|-:
0100|00|-:
0000|00|-:
1000|00|-:
0000|00|-:
0100|00|-:
0000|00|-:
0000|20|-h
0000|00|-:
1000|00|-:
0000|00|-:
0100|00|-:
0000|00|-:
0010|00|-:
0000|00|-:
fx-r=
0000|01|-:
0000|01|-:
0100|01|-:
0000|01|-:
1000|01|-:
0000|01|-:
0100|01|-:
0000|01|-:
0001|00|-:
0000|00|-:
0100|00|-:
0000|00|-:
0010|00|-:
0000|00|-:
1000|00|-:
0000|00|-:
--
0100|00|-h
0000|00|-:
0000|00|-:
0000|00|-:
0000|00|-:
0000|00|-:
1000|00|-:
0000|00|-:
0000|00|-:
0000|00|-:
0000|00|-:
0000|00|-:
0100|00|-:
0000|00|-:
0000|00|-:
0000|00|-:
0000|00|-:
0000|00|-:
1000|00|-:
0000|00|-:
0000|00|-:
0000|00|-:
0000|00|-:
0000|00|-:
0000|20|-7
0000|00|-:
0000|00|-:
0000|00|-:
0000|00|-:
0000|00|-:
1000|00|-:
0000|00|-:
0000|00|-:
0000|00|-:
0000|00|-:
0000|00|-:
0100|00|-:
0000|00|-:
0000|00|-:
0000|00|-:
0000|00|-:
0000|00|-:
0010|00|-:
0000|00|-:
0000|00|-:
0000|00|-:
0000|00|-:
0000|00|-:
fx-l=
fx-r=
0000|11|-:
0000|11|-:
0000|11|-:
0000|11|-:
0000|11|-:
0000|11|-:
0000|11|-:
0000|11|-:
0110|11|-:
0000|11|-:
0000|11|-:
0000|11|-:
0000|11|-:
0000|11|-:
0000|11|-:
0000|11|-:
0110|11|-:
0000|11|-:
0000|11|-:
0000|11|-:
0000|11|-:
0000|11|-:
0000|11|-:
0000|11|-:
0001|00|-:
0000|00|-:
0000|00|-:
0000|00|-:
0000|00|-:
0000|00|-:
0010|00|-:
0000|00|-:
0000|00|-:
0000|00|-:
0000|00|-:
0000|00|-:
0100|00|-:
0000|00|-:
0000|00|-:
0000|00|-:
0000|00|-:
0000|00|-:
1000|00|-:
0000|00|-:
0000|00|-:
0000|00|-:
0000|00|-:
0000|00|-:
--
0000|00|-7
0000|00|-:
0000|00|-U
0000|00|--
0000|00|--
0000|00|--
0000|00|--
0000|00|--
zoom_top=0
zoom_bottom=-75
0000|00|o-@(72
0000|00|:-
0000|00|F-
0000|00|--
0000|00|--
0000|00|--
0000|00|--
0000|00|--
0000|00|--
0000|00|--
0000|00|--
0000|00|--
0000|00|--
0000|00|--
0000|00|--
0000|00|--
0000|00|--
0000|00|--
0000|00|--
0000|00|--
0000|00|--
0000|00|--
0000|00|--
0000|00|--
0000|00|--
0000|00|--
0000|00|--
0000|00|--
0000|00|--
0000|00|--
0000|00|--
0000|00|--
0000|00|--
0000|00|--
0000|00|--
0000|00|--
0000|00|--
0000|00|--
0000|00|--
0000|00|--
zoom_top=50
zoom_bottom=-100
0000|00|--
0000|00|--
0000|00|--
0000|00|--
0000|00|--
0000|00|--
0000|00|--
0000|00|--
0000|00|--
0000|00|--
0000|00|--
0000|00|--
0000|00|--
0000|00|--
0000|00|--
0000|00|--
--
0011|00|--
0000|20|--
0110|00|--
0000|20|--
0000|02|--
1100|00|--
0000|02|--
0110|00|--
0000|00|--
0011|00|--
0110|00|--
0011|00|--
1100|00|--
0011|00|--
0110|00|--
0011|00|--
--
1100|00|--
0000|02|--
0110|00|--
0000|02|--
0000|20|--
0011|00|--
0000|20|--
0110|00|--
0000|00|--
1100|00|--
0110|00|--
1100|00|--
0011|00|--
1100|00|--
0110|00|--
1100|00|--
--
0000|02|--
1100|00|--
0000|02|--
0110|00|--
0011|00|--
0000|20|--
0110|00|--
0000|20|--
0000|00|--
0011|00|--
0110|00|--
1100|00|--
0011|00|--
1100|00|--
0110|00|--
0011|00|--
--
0000|22|--
0000|00|--
1100|00|--
0000|00|--
0000|22|--
0000|00|--
0110|00|--
0000|00|--
0000|22|--
0000|00|--
0011|00|--
0000|00|--
0000|22|--
0000|00|--
0110|00|--
0000|00|--
fx-l=
0001|10|--
0000|10|--
0010|10|--
0000|10|--
0100|10|--
0000|10|--
1000|10|--
0000|10|--
fx-r=
0000|01|--
0000|01|--
0000|01|--
0000|01|--
0000|01|--
0000|01|--
0000|01|--
0000|01|--
--
laserrange_l=2x
0001|00|7-
0000|00|:-
0000|00|M-
0000|00|:-
0010|00|:-
0000|00|:-
0000|00|:-
0000|00|:-
0001|00|M-
0000|00|:-
0000|00|7-
0000|00|--
0010|00|--
0000|00|--
0000|00|--
0000|00|--
1100|00|--
0000|00|--
0000|00|--
0000|00|--
0001|00|--
0000|00|--
0000|00|--
0000|00|--
0110|00|--
0000|00|--
0000|00|--
0000|00|--
0001|00|--
0000|00|--
0000|00|--
0000|00|--
0000|00|--
0000|00|--
0000|00|--
0000|00|--
0100|00|--
0000|00|--
0000|00|--
0000|00|--
laserrange_r=2x
0000|20|-S
0000|00|-:
0000|00|-h
0000|00|-:
0100|00|-:
0000|00|-:
0000|00|-:
0000|00|-:
0000|20|-:
0000|00|-:
0000|00|-:
0000|00|-:
0100|00|-:
0000|00|-:
0000|00|-:
0000|00|-:
fx-l=
0000|10|-S
0000|10|-:
0000|10|-h
0000|10|-:
0000|10|-:
0000|10|-:
0000|10|-:
0000|10|-:
--
1000|00|-h
0000|00|-:
0000|00|-S
0000|00|-:
0100|00|-:
0000|00|-:
0000|00|-:
0000|00|-:
1000|00|-S
0000|00|-:
0000|00|-h
0000|00|--
0100|00|--
0000|00|--
0000|00|--
0000|00|--
0011|00|--
0000|00|--
0000|00|--
0000|00|--
1000|00|--
0000|00|--
0000|00|--
0000|00|--
0110|00|--
0000|00|--
0000|00|--
0000|00|--
1000|00|--
0000|00|--
0000|00|--
0000|00|--
0000|00|--
0000|00|--
0000|00|--
0000|00|--
0010|00|--
0000|00|--
0000|00|--
0000|00|--
laserrange_l=2x
0000|02|M-
0000|00|:-
0000|00|7-
0000|00|:-
0010|00|:-
0000|00|:-
0000|00|:-
0000|00|:-
0000|02|:-
0000|00|:-
0000|00|:-
0000|00|:-
0010|00|:-
0000|00|:-
0000|00|:-
0000|00|:-
fx-r=
0000|01|M-
0000|01|:-
0000|01|7-
0000|01|:-
0000|01|:-
0000|01|:-
0000|01|:-
0000|01|:-
--
0001|00|7-
0000|00|:-
0000|00|h-
0000|00|:-
0010|00|:-
0000|00|:-
0000|00|:-
0000|00|:-
0100|00|:-
0000|00|:-
0000|00|:-
0000|00|:-
1000|00|:-
0000|00|:-
0000|00|:-
0000|00|:-
0010|00|:-
0000|00|:-
0000|00|:-
0000|00|:-
0001|00|:-
0000|00|:-
0000|00|:-
0000|00|:-
0010|00|:-
0000|00|:-
0000|00|:-
0000|00|:-
0100|00|:-
0000|00|:-
0000|00|:-
0000|00|:-
laserrange_r=2x
0000|00|:h
0000|00|::
0000|00|:7
0000|00|::
1000|00|::
0000|00|::
0000|00|::
0000|00|::
0100|00|::
0000|00|::
0000|00|::
0000|00|::
0010|00|::
0000|00|::
0000|00|::
0000|00|::
0001|00|::
0000|00|::
0000|00|::
0000|00|::
0010|00|::
0000|00|::
0000|00|::
0000|00|::
0100|00|::
0000|00|::
0000|00|::
0000|00|::
1000|00|::
0000|00|::
0000|00|::
0000|00|::
--
0000|02|::
0000|00|::
0000|00|::
1000|00|::
0000|00|::
0000|00|::
0100|00|::
0000|00|::
0000|00|::
0010|00|::
0000|00|::
0000|00|::
0000|20|::
0000|00|::
0000|00|::
0100|00|::
0000|00|::
0000|00|::
0010|00|::
0000|00|::
0000|00|::
0001|00|::
0000|00|::
0000|00|::
0000|02|::
0000|00|::
1000|00|::
0000|00|::
0100|00|::
0000|00|::
0000|02|::
0000|00|::
0100|00|::
0000|00|::
0010|00|::
0000|00|::
0000|20|::
0000|00|::
0001|00|::
0000|00|::
0010|00|::
0000|00|::
0000|20|::
0000|00|::
0010|00|::
0000|00|::
0100|00|::
0000|00|::
--
beat=2/4
t=87.5
zoom_top=50
zoom_bottom=-100
1000|00|h7
0000|00|-:
0100|00|-:
0000|00|-:
1000|00|-:
0000|00|-:
0100|00|-:
0000|00|-:
1000|00|-:
0000|00|-:
0000|00|-:
0000|00|-:
0010|00|-:
0000|00|-:
0100|00|-:
0000|00|-:
0010|00|-:
0000|00|-:
0100|00|-:
0000|00|-:
0010|00|-:
0000|00|-:
0000|00|-:
0000|00|-:
1100|00|-:
0000|00|-:
0000|00|-:
0000|00|-:
1100|00|-:
0000|00|-:
0000|00|-:
0000|00|-:
--
0010|00|-:
0100|00|-:
0010|00|-:
0100|00|-:
0010|00|-:
0000|00|-:
1000|00|-:
0100|00|-:
1000|00|-:
0100|00|-:
1000|00|-:
0000|00|-:
0110|00|-:
0000|00|-:
0110|00|-:
0000|00|-:
--
0001|00|-:
0000|00|-:
0010|00|-:
0000|00|-:
0001|00|-:
0000|00|-:
0010|00|-:
0000|00|-:
0001|00|-:
0000|00|-:
0000|00|-:
0000|00|-:
0100|00|-:
0000|00|-:
0010|00|-:
0000|00|-:
0100|00|-:
0000|00|-:
0010|00|-:
0000|00|-:
0100|00|-:
0000|00|-:
0000|00|-:
0000|00|-:
1000|00|-b
0000|00|--
0100|00|--
0000|00|--
0010|00|--
0000|00|--
0001|00|--
0000|00|--
--
0100|00|--
0010|00|--
1000|00|--
0001|00|--
0100|00|--
0010|00|--
0100|00|--
1000|00|--
0000|02|--
0110|00|--
0000|20|--
0110|00|--
0000|02|--
0011|00|--
1100|00|--
0000|00|--
--
t=85
0100|20|--
0010|00|--
0100|20|--
0001|00|--
1000|00|--
0100|00|--
0010|20|--
0001|00|--
0010|20|--
0000|00|--
0000|00|--
0001|00|--
1000|20|--
0010|00|--
1000|20|--
0001|00|--
--
zoom_top=0
zoom_bottom=0
0100|02|--
0000|00|--
0000|02|--
0000|00|--
0001|00|--
0010|00|--
0100|02|--
1000|00|--
0100|02|--
0000|00|--
1000|00|--
0000|00|--
0010|02|--
0100|00|--
0010|02|--
1000|00|--
--
0010|20|--
0001|00|--
0010|20|--
0100|00|--
0010|00|--
0000|00|--
0100|02|--
0010|00|--
0100|02|--
1000|00|--
0100|00|--
0000|00|--
0010|20|--
0001|00|--
0010|20|--
0100|00|--
--
t=82.5
2002|00|--
2002|00|--
2002|00|--
2002|00|--
2002|00|--
2002|00|--
2002|00|--
2002|00|--
2002|00|--
2002|00|--
2012|00|--
2002|00|--
2102|00|--
2002|00|--
2012|00|--
2002|00|--
2102|00|--
2002|00|--
2002|00|--
2002|00|--
2002|02|--
2002|00|--
2002|00|--
2002|00|--
2002|20|--
2002|00|--
2002|00|--
2002|00|--
2112|00|--
2002|00|--
2002|00|--
2002|00|--
--
fx-l=
fx-r=
0000|11|--
0000|11|--
0000|11|--
0000|11|--
0000|11|--
0000|11|--
0000|11|--
0000|11|--
0000|11|--
0000|11|--
0000|11|--
0000|11|--
0000|11|--
0000|11|--
0000|11|--
0000|11|--
0001|11|--
0000|11|--
0100|11|--
0000|11|--
0010|11|--
0000|11|--
1000|11|--
0000|11|--
0001|11|--
0000|11|--
0100|11|--
0000|11|--
0010|11|--
0000|11|--
1000|11|--
0000|11|--
--
0001|11|--
0000|11|--
0010|11|--
0000|11|--
0100|11|--
0000|11|--
1000|11|--
0000|11|--
0001|11|--
0000|11|--
0010|11|--
0000|11|--
0100|11|--
0000|11|--
1000|11|--
0000|11|--
0001|11|--
0000|11|--
0100|11|--
0000|11|--
0010|11|--
0000|11|--
1000|11|--
0000|11|--
0110|00|--
0000|00|--
0000|00|--
0000|00|--
0000|00|--
0000|00|--
0000|00|--
0000|00|--
--
