title=GaLaXyEggPlanT
artist=sasakure.UK
effect=DeNGeKiLoWBooSteR
jacket=mxm.png
illustrator=I meets U
difficulty=infinite
level=18
t=240
m=mxm.ogg
o=0
bg=desert
layer=arrow
po=59000
plength=15000
pfiltergain=0
filtertype=peak
chokkakuautovol=0
chokkakuvol=0
icon=../sdvx05.png
ver=167
--
beat=4/4
0000|00|--
--
fx-r=
1000|01|--
0000|01|--
0100|01|--
0000|01|--
0000|20|--
0000|00|--
0000|02|--
0000|00|--
0010|00|--
0000|00|--
0100|00|--
0000|00|--
0000|02|--
0000|00|--
0000|20|--
0000|00|--
--
fx-r=
0000|01|--
0000|01|--
0100|01|--
0000|01|--
0010|00|--
0000|00|--
0001|00|--
0000|00|--
0010|20|--
0000|00|--
0001|00|--
0000|00|--
0010|20|--
0000|00|--
0001|00|--
0000|00|--
--
fx-l=
0001|10|--
0000|10|--
0010|10|--
0000|10|--
0000|02|--
0000|00|--
0000|20|--
0000|00|--
0100|00|--
0000|00|--
0010|00|--
0000|00|--
0000|20|--
0000|00|--
0000|02|--
0000|00|--
--
fx-l=
0000|10|--
0000|10|--
0000|10|--
0000|10|--
0000|10|--
0000|10|--
0000|10|--
0000|10|--
0010|00|--
0000|00|--
0000|00|--
0000|00|--
1000|00|--
0000|00|--
0000|00|--
0000|00|--
0101|00|--
0000|00|--
0000|00|--
0000|00|--
1000|00|--
0000|00|--
0000|00|--
0000|00|--
0001|00|--
0000|00|--
0010|00|--
0000|00|--
0100|00|--
0000|00|--
0000|00|--
0000|00|--
--
fx-r=
1000|01|--
0000|01|--
0100|01|--
0000|01|--
0000|20|--
0000|00|--
0000|02|--
0000|00|--
0010|00|--
0000|00|--
0100|00|--
0000|00|--
0000|02|--
0000|00|--
0000|20|--
0000|00|--
--
fx-r=
0000|01|--
0000|01|--
0100|01|--
0000|01|--
0010|00|--
0000|00|--
0001|00|--
0000|00|--
0010|20|--
0000|00|--
0001|00|--
0000|00|--
0010|20|--
0000|00|--
0001|00|--
0000|00|--
--
fx-l=
0001|10|--
0000|10|--
0000|10|--
0000|10|--
0010|10|--
0000|10|--
0000|10|--
0000|10|--
0100|10|--
0000|10|--
0000|10|--
0000|10|--
0000|02|--
0000|00|--
0000|00|--
0000|00|--
0000|00|--
0000|00|--
0000|20|--
0000|00|--
0000|00|--
0000|00|--
0000|00|--
0000|00|--
0100|00|--
0000|00|--
0000|00|--
0000|00|--
0000|00|--
0000|00|--
0010|00|--
0000|00|--
0000|00|--
0000|00|--
0000|00|--
0000|00|--
0010|00|--
0000|00|--
0000|00|--
0000|00|--
0000|00|--
0000|00|--
0100|00|--
0000|00|--
0000|00|--
0000|00|--
0000|00|--
0000|00|--
--
0000|02|--
0000|00|--
1000|02|--
0000|00|--
0100|02|--
0000|00|--
0010|20|--
0000|00|--
0001|00|--
0000|00|--
0010|20|--
0000|00|--
0001|00|--
0010|00|--
0100|00|--
0000|00|--
--
fx-l=
1000|10|-o
0000|10|-:
0100|10|-:
0000|10|-:
1000|10|-:
0000|10|-:
0100|10|-:
0000|10|-:
1000|00|-:
0000|00|-:
0100|00|-:
0000|00|-:
0100|00|-0
0000|00|-:
1000|00|-U
0000|00|-:
--
0000|00|-0
0000|00|--
0100|00|--
0000|00|--
0010|00|--
0000|00|--
0001|00|--
0000|00|--
1100|00|--
0000|00|--
0001|00|--
0000|00|--
0100|00|--
0000|00|--
0010|00|--
0000|00|--
--
fx-r=
0001|01|0-
0000|01|:-
0010|01|:-
0000|01|:-
0001|01|:-
0000|01|:-
0010|01|:-
0000|01|:-
0001|00|:-
0000|00|:-
0010|00|:-
0000|00|:-
0010|00|o-
0000|00|:-
0001|00|K-
0000|00|:-
--
0000|00|o-
0000|00|:-
0000|00|:-
0000|00|:-
0000|00|:-
0000|00|:-
0000|00|:-
0000|00|:-
0000|00|K-
0000|00|:-
0000|00|:-
0000|00|:-
0000|00|:-
0000|00|:-
0000|00|:-
0000|00|:-
0000|00|oo
0000|00|::
0000|00|::
0000|00|::
0000|00|::
0000|00|::
0000|00|::
0000|00|::
0000|00|:K
0000|00|::
0000|00|::
0000|00|::
0000|00|::
0000|00|::
0000|00|::
0000|00|::
0000|00|oo
0000|00|::
0000|00|::
0000|00|::
0000|00|::
0000|00|::
0000|00|::
0000|00|::
0000|00|K:
0000|00|::
0000|00|::
0000|00|::
0000|00|::
0000|00|::
0000|00|::
0000|00|::
0000|00|oo
0000|00|::
0000|00|00
0000|00|::
0000|00|::
0000|00|::
0000|00|::
0000|00|::
0000|00|::
0000|00|::
0000|00|::
0000|00|::
0000|00|::
0000|00|::
0000|00|::
0000|00|::
--
zoom_top=0
zoom_bottom=0
1000|00|:0
0000|00|::
0100|00|::
0000|00|::
0100|00|::
0000|00|::
1000|00|::
0000|00|::
0100|00|:o
0000|00|::
0100|00|::
0000|00|::
1000|00|::
0000|00|::
0100|00|:0
0000|00|:-
--
0000|00|0-
0000|00|:-
0001|00|0-
0000|00|:-
0010|00|:-
0000|00|:-
0001|00|:-
0000|00|:-
0010|00|o-
0000|00|:-
0001|00|:-
0000|00|:-
0100|00|:-
0000|00|:-
0001|00|:-
0000|00|:-
--
0010|00|0-
0000|00|--
0001|00|--
0000|00|--
0001|00|--
0000|00|--
0100|00|--
0000|00|--
0010|00|--
0000|00|--
0010|00|--
0000|00|--
1000|00|--
0000|00|--
0001|00|--
0000|00|--
--
0000|00|--
0000|00|--
1100|00|--
0000|00|--
0011|00|--
0000|00|--
0110|00|--
0000|00|--
0011|00|--
0000|00|--
1100|00|--
0000|00|--
0000|02|--
0010|00|--
0100|00|--
0000|00|--
--
zoom_top=50
zoom_bottom=-50
0000|20|--
0101|00|--
0101|00|--
0000|02|--
1010|00|--
1010|00|--
0000|20|--
0000|02|--
--
0000|00|0-
0000|00|:-
0000|00|Z-
0000|00|:-
0000|00|:-
0000|00|:-
0000|00|:-
0000|00|:-
0001|00|:-
0000|00|:-
0000|00|:-
0000|00|:-
0000|00|:-
0000|00|:-
0000|00|:-
0000|00|:-
0010|00|Z-
0000|00|:-
0000|00|F-
0000|00|:-
0000|00|:-
0000|00|:-
0000|00|:-
0000|00|:-
0010|00|:-
0000|00|:-
0000|00|:-
0000|00|:-
0000|00|:-
0000|00|:-
0000|00|:-
0000|00|:-
0001|00|F-
0000|00|:-
0000|00|o-
0000|00|:-
0000|00|:-
0000|00|:-
0000|00|:-
0000|00|:-
0010|00|:-
0000|00|:-
0000|00|:-
0000|00|:-
0000|00|:-
0000|00|:-
0000|00|:-
0000|00|:-
0001|00|o-
0000|00|:-
0000|00|P-
0000|00|--
0000|00|--
0000|00|--
0000|00|--
0000|00|--
0010|00|--
0000|00|--
0000|00|--
0000|00|--
0000|00|--
0000|00|--
0000|00|--
0000|00|--
--
0000|02|--
1010|00|--
1010|00|--
0000|20|--
0101|00|--
0101|00|--
0000|02|--
0000|20|--
--
0000|00|-o
0000|00|-:
0000|00|-F
0000|00|-:
0000|00|-:
0000|00|-:
0000|00|-:
0000|00|-:
1000|00|-:
0000|00|-:
0000|00|-:
0000|00|-:
0000|00|-:
0000|00|-:
0000|00|-:
0000|00|-:
0100|00|-F
0000|00|-:
0000|00|-Z
0000|00|-:
0000|00|-:
0000|00|-:
0000|00|-:
0000|00|-:
0100|00|-:
0000|00|-:
0000|00|-:
0000|00|-:
0000|00|-:
0000|00|-:
0000|00|-:
0000|00|-:
1000|00|-Z
0000|00|-:
0000|00|-0
0000|00|-:
0000|00|-:
0000|00|-:
0000|00|-:
0000|00|-:
0100|00|-:
0000|00|-:
0000|00|-:
0000|00|-:
0000|00|-:
0000|00|-:
0000|00|-:
0000|00|-:
1000|00|-0
0000|00|-:
0000|00|-P
0000|00|--
0000|00|--
0000|00|--
0000|00|--
0000|00|--
0100|00|--
0000|00|--
0000|00|--
0000|00|--
0000|00|--
0000|00|--
0000|00|--
0000|00|--
--
0000|20|--
0101|00|--
0101|00|--
0000|02|--
1010|00|--
1010|00|--
0000|20|--
0000|02|--
--
0000|00|0-
0000|00|:-
0000|00|P-
0000|00|:-
0000|00|:-
0000|00|:-
0000|00|:-
0000|00|:-
0001|00|P-
0000|00|:-
0000|00|o-
0000|00|:-
0000|00|:-
0000|00|:-
0000|00|:-
0000|00|:-
0010|00|o-
0000|00|:-
0000|00|0-
0000|00|:-
0000|00|:-
0000|00|:-
0000|00|:-
0000|00|:-
0010|00|:-
0000|00|:-
0000|00|:-
0000|00|:-
0000|00|:-
0000|00|:-
0000|00|:-
0000|00|:-
0001|00|0-
0000|00|:-
0000|00|P-
0000|00|:-
0000|00|:-
0000|00|:-
0000|00|:-
0000|00|:-
0010|00|P-
0000|00|:-
0000|00|o-
0000|00|:-
0000|00|:-
0000|00|:-
0000|00|:-
0000|00|:-
0001|00|o-
0000|00|:-
0000|00|0-
0000|00|--
0000|00|--
0000|00|--
0000|00|--
0000|00|--
0010|00|--
0000|00|--
0000|00|--
0000|00|--
0000|00|--
0000|00|--
0000|00|--
0000|00|--
--
0000|02|--
1010|00|--
1010|00|--
0000|20|--
0101|00|--
0101|00|--
0000|02|--
0000|20|--
--
0010|00|--
0000|00|--
1000|00|--
0000|00|--
0010|00|--
0000|00|--
1000|00|--
0000|00|--
fx-l=
fx-r=
0000|11|--
0000|11|--
0000|11|--
0000|11|--
0000|11|--
0000|11|--
0000|11|--
0000|11|--
0001|00|--
0000|00|--
0100|00|--
0000|00|--
0001|00|--
0000|00|--
0100|00|--
0000|00|--
0000|22|--
0000|00|--
0000|00|--
0000|00|--
0000|00|--
0000|00|--
0000|00|--
0000|00|--
--
1000|00|--
0100|00|--
0010|00|--
0001|00|--
1000|00|--
0100|00|--
0010|00|--
0001|00|--
1000|00|--
0100|00|--
0010|00|--
0001|00|--
1000|00|--
0100|00|--
0010|00|--
0001|00|--
--
fx-r=
1000|01|--
0000|01|--
0000|01|--
0000|01|--
0000|01|--
0000|01|--
0000|01|--
0000|01|--
0010|01|--
0000|01|--
0000|01|--
0000|01|--
0000|01|--
0000|01|--
0000|01|--
0000|01|--
0001|00|P-
0000|00|:-
0000|00|0-
0000|00|--
0000|00|--
0000|00|--
0000|00|--
0000|00|--
0010|00|--
0000|00|--
0000|00|--
0000|00|--
0000|00|--
0000|00|--
0000|00|--
0000|00|--
fx-l=
0001|10|--
0000|10|--
0000|10|--
0000|10|--
0000|10|--
0000|10|--
0000|10|--
0000|10|--
0100|10|--
0000|10|--
0000|10|--
0000|10|--
0000|10|--
0000|10|--
0000|10|--
0000|10|--
1000|00|-P
0000|00|-:
0000|00|-o
0000|00|--
0000|00|--
0000|00|--
0000|00|--
0000|00|--
0100|00|--
0000|00|--
0000|00|--
0000|00|--
0000|00|--
0000|00|--
0000|00|--
0000|00|--
--
0001|00|--
0010|00|--
0100|00|--
1000|00|--
0001|00|--
0010|00|--
0100|00|--
1000|00|--
0001|00|--
0010|00|--
0100|00|--
1000|00|--
0001|00|--
0010|00|--
0100|00|--
1000|00|--
--
fx-l=
0001|10|--
0000|10|--
0000|10|--
0000|10|--
0000|10|--
0000|10|--
0000|10|--
0000|10|--
0100|10|--
0000|10|--
0000|10|--
0000|10|--
0000|10|--
0000|10|--
0000|10|--
0000|10|--
0000|00|-P
0000|00|-:
0000|00|-o
0000|00|-:
0000|00|-:
0000|00|-:
0000|00|-:
0000|00|-:
0000|00|-:
0000|00|-:
0000|00|-:
0000|00|-:
0000|00|-:
0000|00|-:
0000|00|-:
0000|00|-:
0000|00|Po
0000|00|::
0000|00|::
0000|00|::
0000|00|::
0000|00|::
0000|00|::
0000|00|::
0000|00|0P
0000|00|::
0000|00|::
0000|00|::
0000|00|::
0000|00|::
0000|00|::
0000|00|::
0000|00|Po
0000|00|::
0000|00|0P
0000|00|--
0000|00|--
0000|00|--
0000|00|--
0000|00|--
0000|00|--
0000|00|--
0000|00|--
0000|00|--
0000|00|--
0000|00|--
0000|00|--
0000|00|--
--
1000|00|--
0100|00|--
0001|00|--
0010|00|--
1000|00|--
0100|00|--
0001|00|--
0010|00|--
1000|00|--
0100|00|--
0001|00|--
0010|00|--
1000|00|--
0100|00|--
0001|00|--
0010|00|--
--
fx-r=
0100|01|--
0000|01|--
0000|01|--
0000|01|--
0000|01|--
0000|01|--
0000|01|--
0000|01|--
0001|01|--
0000|01|--
0000|01|--
0000|01|--
0000|01|--
0000|01|--
0000|01|--
0000|01|--
0010|00|P-
0000|00|:-
0000|00|0-
0000|00|--
0000|00|--
0000|00|--
0000|00|--
0000|00|--
0001|00|--
0000|00|--
0000|00|--
0000|00|--
0000|00|--
0000|00|--
0000|00|--
0000|00|--
fx-l=
0010|10|--
0000|10|--
0000|10|--
0000|10|--
0000|10|--
0000|10|--
0000|10|--
0000|10|--
1000|10|--
0000|10|--
0000|10|--
0000|10|--
0000|10|--
0000|10|--
0000|10|--
0000|10|--
0100|00|-P
0000|00|-:
0000|00|-o
0000|00|--
0000|00|--
0000|00|--
0000|00|--
0000|00|--
1000|00|--
0000|00|--
0000|00|--
0000|00|--
0000|00|--
0000|00|--
0000|00|--
0000|00|--
--
zoom_top=50
zoom_bottom=-50
0001|00|--
0010|00|--
1000|00|--
0100|00|--
0001|00|--
0010|00|--
1000|00|--
0100|00|--
0001|00|--
0010|00|--
1000|00|--
0100|00|--
0001|00|--
0010|00|--
1000|00|--
0100|00|--
--
0010|00|--
0000|00|--
1000|00|--
0000|00|--
0010|00|--
0000|00|--
1000|00|--
0000|00|--
fx-l=
fx-r=
0000|11|--
0000|11|--
0000|11|--
0000|11|--
0000|11|--
0000|11|--
0000|11|--
0000|11|--
0001|00|--
0000|00|--
0100|00|--
0000|00|--
0001|00|--
0000|00|--
0100|00|--
0000|00|--
0000|22|--
0000|00|--
0000|00|--
0000|00|--
0000|00|--
0000|00|--
0000|00|--
0000|00|--
--
zoom_top=0
zoom_bottom=0
0011|00|0-
0000|00|:-
0000|00|P-
0000|00|:-
0000|00|:-
0000|00|:-
0000|00|:-
0000|00|:-
0000|00|:-
0000|00|:-
0000|00|:-
0000|00|:-
0000|00|:-
0000|00|:-
0000|00|:-
0000|00|:-
0000|00|:-
0000|00|:-
0000|00|:-
0000|00|:-
0000|00|:-
0000|00|:-
0000|00|:-
0000|00|:-
1100|00|:o
0000|00|::
0000|00|:P
0000|00|::
0000|00|::
0000|00|::
0000|00|::
0000|00|::
0000|00|::
0000|00|::
0000|00|::
0000|00|::
0000|00|::
0000|00|::
0000|00|::
0000|00|::
0000|00|::
0000|00|::
0000|00|::
0000|00|::
0000|00|::
0000|00|::
0000|00|::
0000|00|::
0000|02|P:
0000|00|::
0000|00|o:
0000|00|::
0000|00|::
0000|00|::
0000|00|::
0000|00|::
0000|00|::
0000|00|::
0000|00|::
0000|00|::
0000|00|::
0000|00|::
0000|00|::
0000|00|::
--
0000|00|::
0000|00|::
0000|00|::
0000|00|::
0000|00|::
0000|00|::
0000|00|::
0000|00|::
0000|20|:P
0000|00|::
0000|00|:0
0000|00|::
0000|00|::
0000|00|::
0000|00|::
0000|00|::
0000|00|::
0000|00|::
0000|00|::
0000|00|::
0000|00|::
0000|00|::
0000|00|::
0000|00|::
0000|00|::
0000|00|::
0000|00|::
0000|00|::
0000|00|::
0000|00|::
0000|00|::
0000|00|::
0000|22|o0
0000|00|:-
0000|00|0-
0000|00|:-
0000|00|:-
0000|00|:-
0000|00|:-
0000|00|:-
0000|22|0-
0000|00|:-
0000|00|o-
0000|00|:-
0000|00|:-
0000|00|:-
0000|00|:-
0000|00|:-
0000|00|:-
0000|00|:-
0000|00|:-
0000|00|:-
0000|00|:-
0000|00|:-
0000|00|:-
0000|00|:-
0200|00|o-
0200|00|:-
0200|00|:-
0200|00|:-
0200|00|:-
0200|00|:-
0200|00|:-
0200|00|:-
--
0200|00|:-
0200|00|:-
0200|00|:-
0200|00|:-
0200|00|:-
0200|00|:-
0200|00|:-
0200|00|:-
0200|00|:-
0200|00|:-
0200|00|:-
0200|00|:-
0200|00|:-
0200|00|:-
0200|00|:-
0200|00|:-
0010|00|:-
0000|00|:-
0000|00|:-
0000|00|:-
0000|00|:-
0000|00|:-
0000|00|:-
0000|00|:-
0000|00|:-
0000|00|:-
0000|00|:-
0000|00|:-
0000|00|:-
0000|00|:-
0000|00|:-
0000|00|:-
0000|20|0-
0000|00|:-
0000|00|o-
0000|00|:-
0000|00|:-
0000|00|:-
0000|00|:-
0000|00|:-
0100|00|:-
0000|00|:-
0000|00|:-
0000|00|:-
0000|00|:-
0000|00|:-
0000|00|:-
0000|00|:-
0000|00|:-
0000|00|:-
0000|00|:-
0000|00|:-
0000|00|:-
0000|00|:-
0000|00|:-
0000|00|:-
0001|00|:-
0000|00|:-
0000|00|:-
0000|00|:-
0000|00|:-
0000|00|:-
0000|00|:-
0000|00|:-
--
0000|20|:-
0000|00|:-
0010|00|:-
0000|00|:-
0000|20|:-
0000|00|:-
0001|00|:-
0000|00|:-
0010|00|o-
0000|00|:-
0001|00|P-
0000|00|:-
fx-r=
0000|01|o-
0000|01|:-
0000|01|:-
0000|01|:-
--
0001|00|P-
0000|00|--
0010|00|--
0000|00|--
0100|00|--
0000|00|--
0001|00|--
0000|00|--
0010|22|--
0000|00|--
0100|00|--
0000|00|--
0001|00|--
0000|00|--
1100|00|--
0000|00|--
--
0001|00|--
0100|00|--
0011|00|--
1000|00|--
0100|22|--
0010|00|--
0100|00|--
1010|00|--
--
0001|00|--
0100|00|--
0010|00|--
1000|00|--
0001|22|--
0100|00|--
0010|00|--
1000|00|--
--
0100|00|--
0001|00|--
1000|00|--
0010|00|--
0100|22|--
0010|00|--
1000|00|--
0100|00|--
--
0000|20|-o
0000|00|-:
0000|00|-P
0000|00|-:
0000|00|-:
0000|00|-:
0000|00|-:
0000|00|-:
0000|00|-:
0000|00|-:
0000|00|-:
0000|00|-:
0000|00|-:
0000|00|-:
0000|00|-:
0000|00|-:
0000|00|-:
0000|00|-:
0000|00|-:
0000|00|-:
0000|00|-:
0000|00|-:
0000|00|-:
0000|00|-:
0000|02|0:
0000|00|::
0000|00|P:
0000|00|::
0000|00|::
0000|00|::
0000|00|::
0000|00|::
0000|00|::
0000|00|::
0000|00|::
0000|00|::
0000|00|::
0000|00|::
0000|00|::
0000|00|::
0000|00|::
0000|00|::
0000|00|::
0000|00|::
0000|00|::
0000|00|::
0000|00|::
0000|00|::
0110|00|:P
0000|00|::
0000|00|:0
0000|00|::
0000|00|::
0000|00|::
0000|00|::
0000|00|::
0000|00|::
0000|00|::
0000|00|::
0000|00|::
0000|00|::
0000|00|::
0000|00|::
0000|00|::
--
0000|00|::
0000|00|::
0000|00|::
0000|00|::
0000|00|::
0000|00|::
0000|00|::
0000|00|::
0110|00|P:
0000|00|::
0000|00|o:
0000|00|::
0000|00|::
0000|00|::
0000|00|::
0000|00|::
0000|00|::
0000|00|::
0000|00|::
0000|00|::
0000|00|::
0000|00|::
0000|00|::
0000|00|::
0000|00|::
0000|00|::
0000|00|::
0000|00|::
0000|00|::
0000|00|::
0000|00|::
0000|00|::
0000|22|o0
0000|00|-:
0000|00|-o
0000|00|-:
0000|00|-:
0000|00|-:
0000|00|-:
0000|00|-:
0000|22|-o
0000|00|-:
0000|00|-0
0000|00|-:
0000|00|-:
0000|00|-:
0000|00|-:
0000|00|-:
0000|00|-:
0000|00|-:
0000|00|-:
0000|00|-:
0000|00|-:
0000|00|-:
0000|00|-:
0000|00|-:
0020|00|-0
0020|00|-:
0020|00|-:
0020|00|-:
0020|00|-:
0020|00|-:
0020|00|-:
0020|00|-:
--
0020|00|-:
0020|00|-:
0020|00|-:
0020|00|-:
0020|00|-:
0020|00|-:
0020|00|-:
0020|00|-:
0020|00|-:
0020|00|-:
0020|00|-:
0020|00|-:
0020|00|-:
0020|00|-:
0020|00|-:
0020|00|-:
0100|00|-:
0000|00|-:
0000|00|-:
0000|00|-:
0000|00|-:
0000|00|-:
0000|00|-:
0000|00|-:
0000|00|-:
0000|00|-:
0000|00|-:
0000|00|-:
0000|00|-:
0000|00|-:
0000|00|-:
0000|00|-:
0000|02|-o
0000|00|-:
0000|00|-0
0000|00|-:
0000|00|-:
0000|00|-:
0000|00|-:
0000|00|-:
0010|00|-:
0000|00|-:
0000|00|-:
0000|00|-:
0000|00|-:
0000|00|-:
0000|00|-:
0000|00|-:
0000|00|-:
0000|00|-:
0000|00|-:
0000|00|-:
0000|00|-:
0000|00|-:
0000|00|-:
0000|00|-:
1000|00|-:
0000|00|-:
0000|00|-:
0000|00|-:
0000|00|-:
0000|00|-:
0000|00|-:
0000|00|-:
--
0000|02|-:
0000|00|-:
0100|00|-:
0000|00|-:
0000|02|-:
0000|00|-:
1000|00|-:
0000|00|-:
fx-l=
0100|10|-0
0000|10|-:
1000|10|-P
0000|10|-:
0100|00|-0
0000|00|-:
0000|00|-:
0000|00|-:
--
zoom_top=0
zoom_bottom=0
0000|20|-o
0000|00|-:
0000|00|-0
0000|00|--
0000|00|--
0000|00|--
0000|00|--
0000|00|--
0000|00|--
0000|00|--
0000|00|--
0000|00|--
0000|00|--
0000|00|--
0000|00|--
0000|00|--
0010|00|--
0000|00|--
0000|00|--
0000|00|--
0001|00|--
0000|00|--
0000|00|--
0000|00|--
laserrange_l=2x
fx-r=
0000|01|C-
0000|01|:-
0000|01|P-
0000|01|:-
0000|01|:-
0000|01|:-
0000|01|:-
0000|01|:-
0000|01|:-
0000|01|:-
0000|01|:-
0000|01|:-
0000|01|:-
0000|01|:-
0000|01|:-
0000|01|:-
0001|00|:-
0000|00|:-
0000|00|:-
0000|00|:-
0010|00|:-
0000|00|:-
0000|00|:-
0000|00|:-
0100|00|:-
0000|00|:-
0000|00|:-
0000|00|:-
1000|00|:-
0000|00|:-
0000|00|:-
0000|00|:-
laserrange_r=2x
fx-l=
0000|10|:b
0000|10|::
0000|10|:C
0000|10|::
0000|10|::
0000|10|::
0000|10|::
0000|10|::
--
0000|10|::
0000|10|::
0000|10|::
0000|10|::
0000|10|::
0000|10|::
0000|10|::
0000|10|::
1000|00|::
0000|00|::
0000|00|::
0000|00|::
0100|00|::
0000|00|::
0000|00|::
0000|00|::
0010|00|::
0000|00|::
0000|00|::
0000|00|::
0001|00|::
0000|00|::
0000|00|::
0000|00|::
fx-r=
0000|01|P:
0000|01|::
0000|01|C:
0000|01|::
0000|01|::
0000|01|::
0000|01|::
0000|01|::
0000|01|::
0000|01|::
0000|01|::
0000|01|::
0000|01|::
0000|01|::
0000|01|::
0000|01|::
fx-l=
0000|10|::
0000|10|::
0000|10|::
0000|10|::
0000|10|::
0000|10|::
0000|10|::
0000|10|::
fx-r=
0000|01|::
0000|01|::
0000|01|::
0000|01|::
0000|01|::
0000|01|::
0000|01|::
0000|01|::
0000|01|::
0000|01|::
0000|01|::
0000|01|::
0000|01|::
0000|01|::
0000|01|::
0000|01|::
--
0011|00|C:
0000|00|::
0000|00|P:
0000|00|::
0000|00|::
0000|00|::
0000|00|::
0000|00|::
0000|00|::
0000|00|::
0000|00|::
0000|00|::
0000|00|::
0000|00|::
0000|00|::
0000|00|::
0100|00|::
0000|00|::
0000|00|::
0000|00|::
1000|00|::
0000|00|::
0000|00|::
0000|00|::
fx-l=
0000|10|:C
0000|10|::
0000|10|:h
0000|10|::
0000|10|::
0000|10|::
0000|10|::
0000|10|::
0000|10|::
0000|10|::
0000|10|::
0000|10|::
0000|10|::
0000|10|::
0000|10|::
0000|10|::
1000|00|::
0000|00|::
0000|00|::
0000|00|::
0100|00|::
0000|00|::
0000|00|::
0000|00|::
0010|00|::
0000|00|::
0000|00|::
0000|00|::
0001|00|::
0000|00|::
0000|00|::
0000|00|::
fx-r=
0000|01|P:
0000|01|::
0000|01|h:
0000|01|::
0000|01|::
0000|01|::
0000|01|::
0000|01|::
--
0000|01|::
0000|01|::
0000|01|::
0000|01|::
0000|01|::
0000|01|::
0000|01|::
0000|01|::
0001|00|::
0000|00|::
0000|00|::
0000|00|::
0010|00|::
0000|00|::
0000|00|::
0000|00|::
0100|00|::
0000|00|::
0000|00|::
0000|00|::
1000|00|::
0000|00|::
0000|00|::
0000|00|::
fx-l=
0000|10|:h
0000|10|::
0000|10|:7
0000|10|::
0000|10|::
0000|10|::
0000|10|::
0000|10|::
0000|10|::
0000|10|::
0000|10|::
0000|10|::
0000|10|::
0000|10|::
0000|10|::
0000|10|::
0000|00|::
0000|00|::
0000|00|::
0000|00|::
0000|00|::
0000|00|::
0000|00|::
0000|00|::
fx-r=
0000|01|::
0000|01|::
0000|01|::
0000|01|::
0000|01|::
0000|01|::
0000|01|::
0000|01|::
0000|01|::
0000|01|::
0000|01|::
0000|01|::
0000|01|::
0000|01|::
0000|01|::
0000|01|::
--
0000|00|h:
0000|00|::
0000|00|7:
0000|00|-:
0000|00|-:
0000|00|-:
0000|00|-:
0000|00|-:
0000|00|-:
0000|00|-:
0000|00|-:
0000|00|-:
0000|00|-:
0000|00|-:
0000|00|-:
0000|00|-:
1000|00|-:
0000|00|-:
0000|00|-:
0000|00|-:
0100|00|-:
0000|00|-:
0000|00|-:
0000|00|-:
fx-l=
0000|10|-7
0000|10|-:
0000|10|-h
0000|10|--
0000|10|--
0000|10|--
0000|10|--
0000|10|--
0000|10|--
0000|10|--
0000|10|--
0000|10|--
0000|10|--
0000|10|--
0000|10|--
0000|10|--
0001|00|--
0000|00|--
0000|00|--
0000|00|--
0010|00|--
0000|00|--
0000|00|--
0000|00|--
0100|00|--
0000|00|--
0000|00|--
0000|00|--
1000|00|--
0000|00|--
0000|00|--
0000|00|--
fx-l=
0000|10|--
0000|10|--
0000|10|--
0000|10|--
0000|10|--
0000|10|--
0000|10|--
0000|10|--
--
fx-r=
0000|11|--
0000|11|--
0000|11|--
0000|11|--
0000|11|--
0000|11|--
0000|11|--
0000|11|--
1000|00|--
0000|00|--
0010|00|--
0000|00|--
1000|00|--
0000|00|--
0010|00|--
0000|00|--
fx-l=
fx-r=
0000|11|--
0000|11|--
0000|11|--
0000|11|--
0000|11|--
0000|11|--
0000|11|--
0000|11|--
0100|00|--
0000|00|--
0001|00|--
0000|00|--
0100|00|--
0000|00|--
0001|00|--
0000|00|--
--
zoom_top=-50
zoom_bottom=-50
fx-r=
1000|01|--
0000|01|--
1000|01|--
0000|01|--
1000|01|--
0000|01|--
1000|01|--
0000|01|--
1000|01|--
0000|01|--
1000|01|--
0000|01|--
1000|01|--
0000|01|--
1000|01|--
0000|01|--
--
1000|01|--
1000|01|--
1000|01|--
1000|01|--
1000|01|--
1000|01|--
1000|01|--
1000|01|--
--
1000|00|--
0000|00|--
0100|00|--
0000|00|--
0010|00|--
0000|00|--
0001|00|--
0000|00|--
fx-l=
0000|10|--
0000|10|--
0000|10|--
0000|10|--
0100|10|--
0000|10|--
0010|10|--
0000|10|--
0001|00|--
0000|00|--
0010|00|--
0000|00|--
0100|00|--
0000|00|--
1000|00|--
0000|00|--
fx-r=
0000|01|--
0000|01|--
0000|01|--
0000|01|--
0010|01|--
0000|01|--
0100|01|--
0000|01|--
--
1000|00|--
0000|00|--
0100|00|--
0000|00|--
0010|00|--
0000|00|--
0001|00|--
0000|00|--
fx-l=
0000|10|--
0000|10|--
0000|10|--
0000|10|--
0100|10|--
0000|10|--
0010|10|--
0000|10|--
0001|00|--
0000|00|--
0010|00|--
0000|00|--
0100|00|--
0000|00|--
1000|00|--
0000|00|--
fx-r=
0000|01|--
0000|01|--
0000|01|--
0000|01|--
0010|01|--
0000|01|--
0100|01|--
0000|01|--
--
zoom_top=-50
zoom_bottom=-50
fx-l=
0001|10|--
0000|10|--
0001|10|--
0000|10|--
0001|10|--
0000|10|--
0001|10|--
0000|10|--
0001|10|--
0000|10|--
0001|10|--
0000|10|--
0001|10|--
0000|10|--
0001|10|--
0000|10|--
--
0001|10|--
0001|10|--
0001|10|--
0001|10|--
0001|10|--
0001|10|--
0001|10|--
0001|10|--
--
zoom_top=0
zoom_bottom=0
0001|00|--
0000|00|--
0010|00|--
0000|00|--
0100|00|--
0000|00|--
1000|00|--
0000|00|--
fx-r=
0000|01|--
0000|01|--
0000|01|--
0000|01|--
0100|01|--
0000|01|--
0010|01|--
0000|01|--
0001|00|--
0000|00|--
0010|00|--
0000|00|--
0100|00|--
0000|00|--
1000|00|--
0000|00|--
0010|00|--
0000|00|--
0000|00|--
0000|00|--
zoom_top=0
zoom_bottom=0
0000|22|--
0000|00|--
0000|00|--
0000|00|--
--
zoom_top=25
zoom_bottom=25
0000|00|--
0000|00|--
0000|00|--
0000|00|--
0000|00|--
0000|00|--
0000|00|--
0000|00|--
zoom_top=0
0000|00|-o
0000|00|-:
0000|00|-A
0000|00|-:
0000|00|PP
0000|00|:-
0000|00|e-
0000|00|:-
--
zoom_top=50
zoom_bottom=-50
0001|00|0-
0000|00|--
0010|00|--
0000|00|--
0001|20|--
0000|00|--
0010|00|--
0000|00|--
0100|00|--
0000|00|--
0001|00|--
0000|00|--
0010|20|--
0000|00|--
0100|00|--
0000|00|--
--
1000|00|--
0010|00|--
1000|02|--
0100|00|--
0010|00|--
1000|00|--
0100|02|--
0010|00|--
--
fx-l=
1000|10|--
0000|10|--
0010|10|--
0000|10|--
0101|00|--
0000|00|--
1000|00|--
0000|00|--
fx-r=
0001|01|--
0000|01|--
0010|01|--
0000|01|--
1100|00|--
0000|00|--
0022|00|--
0022|00|--
--
0022|00|--
0022|00|--
0022|00|--
0022|00|--
0022|00|--
0022|00|--
0022|00|--
0022|00|--
0100|00|--
0000|00|--
0000|00|--
0000|00|--
1000|00|--
0000|00|--
0000|00|--
0000|00|--
0100|00|--
0000|00|--
0000|00|--
0000|00|--
0000|00|--
0000|00|--
0000|00|--
0000|00|--
0010|00|--
0000|00|--
0000|00|--
0000|00|--
0000|00|--
0000|00|--
0000|00|--
0000|00|--
0000|02|P-
0000|00|:-
0000|00|0-
0000|00|--
0000|00|--
0000|00|--
0000|00|--
0000|00|--
0001|00|--
0000|00|--
0000|00|--
0000|00|--
0000|00|--
0000|00|--
0000|00|--
0000|00|--
fx-l=
0000|10|-P
0000|10|-:
0000|10|-o
0000|10|--
0000|10|--
0000|10|--
0000|10|--
0000|10|--
0000|10|--
0000|10|--
0000|10|--
0000|10|--
0000|10|--
0000|10|--
0000|10|--
0000|10|--
--
0001|00|--
0000|00|--
0010|00|--
0000|00|--
1000|00|--
0000|00|--
0100|00|--
0000|00|--
0001|00|--
0000|00|--
0010|00|--
0000|00|--
1000|00|--
0000|00|--
0100|00|--
0000|00|--
0001|00|--
0000|00|--
0010|00|--
0000|00|--
1000|00|--
0000|00|--
0100|00|--
0000|00|--
0001|00|--
0000|00|--
0010|00|--
0000|00|--
1000|00|--
0000|00|--
0100|00|--
0000|00|--
--
0010|00|--
0001|00|--
0100|00|--
1000|00|--
0010|00|--
0001|00|--
0100|00|--
1000|00|--
0010|00|--
0001|00|--
0100|00|--
1000|00|--
0010|00|--
0001|00|--
0100|00|--
1000|00|--
--
fx-r=
0000|01|--
0000|01|--
0110|01|--
0000|01|--
fx-l=
0000|10|--
0000|10|--
0110|10|--
0000|10|--
0000|02|--
0000|00|--
1100|00|--
0000|00|--
0011|00|--
0000|00|--
2200|00|--
2200|00|--
--
2200|00|--
2200|00|--
2200|00|--
2200|00|--
2200|00|--
2200|00|--
2200|00|--
2200|00|--
0001|00|--
0000|00|--
0000|00|--
0000|00|--
0010|00|--
0000|00|--
0000|00|--
0000|00|--
0001|00|--
0000|00|--
0000|00|--
0000|00|--
0000|00|--
0000|00|--
0000|00|--
0000|00|--
1100|00|--
0000|00|--
0000|00|--
0000|00|--
0000|00|--
0000|00|--
0000|00|--
0000|00|--
0000|20|-P
0000|00|-:
0000|00|-o
0000|00|--
0000|00|--
0000|00|--
0000|00|--
0000|00|--
1000|00|--
0000|00|--
0000|00|--
0000|00|--
0000|00|--
0000|00|--
0000|00|--
0000|00|--
0000|02|P-
0000|00|:-
0000|00|0-
0000|00|:-
0000|00|:-
0000|00|:-
0000|00|:-
0000|00|:-
0001|00|:-
0000|00|:-
0000|00|:-
0000|00|:-
0000|00|:-
0000|00|:-
0000|00|:-
0000|00|:-
--
0000|02|0-
0000|00|:-
0000|00|o-
0000|00|--
0000|00|--
0000|00|--
0000|00|--
0000|00|--
0010|00|--
0000|00|--
0000|00|--
0000|00|--
0000|00|--
0000|00|--
0000|00|--
0000|00|--
0100|00|--
0000|00|--
0000|00|--
0000|00|--
0000|00|--
0000|00|--
0000|00|--
0000|00|--
laserrange_r=2x
0000|20|-h
0000|00|-:
0000|00|-K
0000|00|-:
0000|00|-:
0000|00|-:
0000|00|-:
0000|00|-:
0000|00|-:
0000|00|-:
0000|00|-:
0000|00|-:
0000|00|-:
0000|00|-:
0000|00|-:
0000|00|-:
0000|20|-b
0000|00|-:
0000|00|-C
0000|00|-:
0000|00|-:
0000|00|-:
0000|00|-:
0000|00|-:
0000|00|-:
0000|00|-:
0000|00|-:
0000|00|-:
0000|00|-:
0000|00|-:
0000|00|-:
0000|00|-:
0000|20|-U
0000|00|-:
0000|00|-7
0000|00|--
0000|00|--
0000|00|--
0000|00|--
0000|00|--
--
1000|00|--
0000|00|--
0010|00|--
0000|00|--
1000|00|--
0000|00|--
0010|00|--
0000|00|--
fx-l=
fx-r=
0000|11|--
0000|11|--
0000|11|--
0000|11|--
0000|11|--
0000|11|--
0000|11|--
0000|11|--
0100|00|--
0000|00|--
0001|00|--
0000|00|--
0100|00|--
0000|00|--
0001|00|--
0000|00|--
fx-l=
fx-r=
0000|11|--
0000|11|--
0000|11|--
0000|11|--
0000|11|--
0000|11|--
0000|11|--
0000|11|--
--
0010|00|--
0000|00|--
0100|00|--
0000|00|--
1010|00|--
0000|00|--
0001|00|--
0000|00|--
fx-l=
1000|10|--
0000|10|--
0100|10|--
0000|10|--
0011|00|--
0000|00|--
2200|00|--
2200|00|--
--
2200|00|--
2200|00|--
2200|00|--
2200|00|--
2200|00|--
2200|00|--
2200|00|--
2200|00|--
0010|00|--
0000|00|--
0000|00|--
0000|00|--
0001|00|--
0000|00|--
0000|00|--
0000|00|--
0010|00|--
0000|00|--
0000|00|--
0000|00|--
0000|00|--
0000|00|--
0000|00|--
0000|00|--
0100|00|--
0000|00|--
0000|00|--
0000|00|--
0000|00|--
0000|00|--
0000|00|--
0000|00|--
laserrange_r=2x
0000|20|-U
0000|00|-:
0000|00|-h
0000|00|--
0000|00|--
0000|00|--
0000|00|--
0000|00|--
1000|00|--
0000|00|--
0000|00|--
0000|00|--
0000|00|--
0000|00|--
0000|00|--
0000|00|--
laserrange_l=2x
fx-r=
0000|01|K-
0000|01|:-
0000|01|7-
0000|01|--
0000|01|--
0000|01|--
0000|01|--
0000|01|--
0000|01|--
0000|01|--
0000|01|--
0000|01|--
0000|01|--
0000|01|--
0000|01|--
0000|01|--
--
1000|00|--
0000|00|--
0100|00|--
0000|00|--
0001|00|--
0000|00|--
0010|00|--
0000|00|--
1000|00|--
0000|00|--
0100|00|--
0000|00|--
0001|00|--
0000|00|--
0010|00|--
0000|00|--
1000|00|--
0000|00|--
0100|00|--
0000|00|--
0001|00|--
0000|00|--
0010|00|--
0000|00|--
1000|00|--
0000|00|--
0100|00|--
0000|00|--
0001|00|--
0000|00|--
0010|00|--
0000|00|--
--
0100|00|--
1000|00|--
0010|00|--
0001|00|--
0100|00|--
1000|00|--
0010|00|--
0001|00|--
0100|00|--
1000|00|--
0010|00|--
0001|00|--
0100|00|--
1000|00|--
0010|00|--
0001|00|--
--
fx-l=
0000|10|--
0000|10|--
0110|10|--
0000|10|--
fx-r=
0000|01|--
0000|01|--
0110|01|--
0000|01|--
0000|20|--
0000|00|--
0011|00|--
0000|00|--
1100|00|--
0000|00|--
0022|00|--
0022|00|--
--
zoom_top=50
zoom_bottom=-50
0022|00|--
0022|00|--
0022|00|--
0022|00|--
0022|00|--
0022|00|--
0022|00|--
0022|00|--
1000|00|--
0000|00|--
0000|00|--
0000|00|--
0100|00|--
0000|00|--
0000|00|--
0000|00|--
1000|00|--
0000|00|--
0000|00|--
0000|00|--
0000|00|--
0000|00|--
0000|00|--
0000|00|--
0011|00|--
0000|00|--
0000|00|--
0000|00|--
0000|00|--
0000|00|--
0000|00|--
0000|00|--
laserrange_l=2x
0000|02|K-
0000|00|:-
0000|00|7-
0000|00|--
0000|00|--
0000|00|--
0000|00|--
0000|00|--
0001|00|--
0000|00|--
0000|00|--
0000|00|--
0000|00|--
0000|00|--
0000|00|--
0000|00|--
laserrange_r=2x
0000|20|-U
0000|00|-:
0000|00|-h
0000|00|--
0000|00|--
0000|00|--
0000|00|--
0000|00|--
1000|00|--
0000|00|--
0000|00|--
0000|00|--
0000|00|--
0000|00|--
0000|00|--
0000|00|--
--
zoom_top=25
zoom_bottom=-75
0100|02|--
1000|00|--
0010|20|--
0001|00|--
0100|02|--
1000|00|--
0010|20|--
0001|00|--
--
1000|02|--
0100|00|--
0001|20|--
0010|00|--
1000|02|--
0100|00|--
0001|20|--
0010|00|--
--
laserrange_l=2x
0000|02|P-
0000|00|:-
0000|00|7-
0000|00|:-
0000|00|:-
0000|00|:-
0000|00|:-
0000|00|:-
0010|00|:-
0000|00|:-
0000|00|:-
0000|00|:-
0000|00|:-
0000|00|:-
0000|00|:-
0000|00|:-
0000|02|7-
0000|00|:-
0000|00|P-
0000|00|--
0000|00|--
0000|00|--
0000|00|--
0000|00|--
0001|00|--
0000|00|--
0000|00|--
0000|00|--
0000|00|--
0000|00|--
0000|00|--
0000|00|--
laserrange_r=2x
1000|00|-h
0000|00|-:
0000|00|-P
0000|00|-:
0000|00|-:
0000|00|-:
0000|00|-:
0000|00|-:
0100|00|-P
0000|00|-:
0000|00|-7
0000|00|-:
0000|00|-:
0000|00|-:
0000|00|-:
0000|00|-:
1000|00|-7
0000|00|-:
0000|00|-P
0000|00|-:
0000|00|-:
0000|00|-:
0000|00|-:
0000|00|-:
0200|00|-P
0200|00|-:
0200|00|-h
0200|00|-:
0200|00|-:
0200|00|-:
0200|00|-:
0200|00|-:
--
0200|00|-:
0200|00|-:
1000|00|-h
0000|00|-:
0100|00|-P
0000|00|-:
1000|00|-h
0000|00|-:
0100|00|-P
0000|00|-:
1000|00|-h
0000|00|-:
fx-l=
0000|10|-P
0000|10|-:
0000|10|-:
0000|10|-:
--
1000|00|-h
0000|00|--
0100|00|--
0000|00|--
0001|00|--
0000|00|--
0010|00|--
0000|00|--
1000|00|--
0000|00|--
0100|00|--
0000|00|--
0001|00|--
0000|00|--
0010|00|--
0000|00|--
1000|00|--
0000|00|--
0100|00|--
0000|00|--
0001|00|--
0000|00|--
0010|00|--
0000|00|--
1000|00|--
0000|00|--
0100|00|--
0000|00|--
0001|00|--
0000|00|--
0010|00|--
0000|00|--
--
0100|00|--
1000|00|--
0010|00|--
0001|00|--
0100|00|--
1000|00|--
0010|00|--
0001|00|--
0100|00|--
1000|00|--
0010|00|--
0001|00|--
0100|00|--
1000|00|--
0010|00|--
0001|00|--
--
1000|20|--
0000|00|--
0010|00|--
0000|00|--
0100|20|--
0000|00|--
0001|00|--
0000|00|--
0010|02|--
0000|00|--
1000|00|--
0000|00|--
0001|02|--
0000|00|--
0200|00|--
0200|00|--
--
0200|00|--
0200|00|--
0200|00|--
0200|00|--
fx-l=
0001|10|--
0000|10|--
0010|10|--
0000|10|--
0100|10|--
0000|10|--
1000|10|--
0000|10|--
0010|00|--
0000|00|--
0000|00|--
0000|00|--
fx-r=
0100|01|--
0000|01|--
0000|01|--
0000|01|--
0010|01|--
0000|01|--
0000|01|--
0000|01|--
fx-l=
0001|10|--
0000|10|--
0100|10|--
0000|10|--
0001|10|--
0000|10|--
0100|10|--
0000|10|--
--
0000|02|--
0000|00|--
0010|00|--
0000|00|--
1000|02|--
0000|00|--
0100|00|--
0000|00|--
0001|20|--
0000|00|--
0010|00|--
0000|00|--
1000|02|--
0000|00|--
0100|00|--
0000|00|--
--
0010|20|--
0001|00|--
0100|02|--
1000|00|--
0010|20|--
0001|00|--
0100|02|--
1000|00|--
--
laserrange_r=2x
0000|20|-P
0000|00|-:
0000|00|-h
0000|00|-:
0000|00|-:
0000|00|-:
0000|00|-:
0000|00|-:
0100|00|-:
0000|00|-:
0000|00|-:
0000|00|-:
0000|00|-:
0000|00|-:
0000|00|-:
0000|00|-:
0000|20|-h
0000|00|-:
0000|00|-P
0000|00|--
0000|00|--
0000|00|--
0000|00|--
0000|00|--
1000|00|--
0000|00|--
0000|00|--
0000|00|--
0000|00|--
0000|00|--
0000|00|--
0000|00|--
laserrange_l=2x
0001|00|7-
0000|00|:-
0000|00|P-
0000|00|:-
0000|00|:-
0000|00|:-
0000|00|:-
0000|00|:-
0010|00|P-
0000|00|:-
0000|00|h-
0000|00|:-
0000|00|:-
0000|00|:-
0000|00|:-
0000|00|:-
0001|00|h-
0000|00|:-
0000|00|P-
0000|00|:-
0000|00|:-
0000|00|:-
0000|00|:-
0000|00|:-
0020|00|P-
0020|00|:-
0020|00|7-
0020|00|:-
0020|00|:-
0020|00|:-
0020|00|:-
0020|00|:-
--
0020|00|:-
0020|00|:-
0001|00|7-
0000|00|:-
0010|00|P-
0000|00|:-
0001|00|7-
0000|00|:-
0010|00|P-
0000|00|:-
0001|00|7-
0000|00|:-
fx-r=
0000|01|P-
0000|01|:-
0000|01|:-
0000|01|:-
--
zoom_top=25
zoom_bottom=-75
0011|00|7-
0000|00|--
0011|00|--
0000|00|--
0110|00|--
0000|00|--
0110|00|--
0000|00|--
1100|00|--
0000|00|--
1100|00|--
0000|00|--
0110|00|--
0000|00|--
0110|00|--
0000|00|--
--
0001|02|--
0001|02|--
0100|20|--
0100|20|--
0010|02|--
0010|02|--
1000|20|--
1000|20|--
--
0001|00|--
0000|00|--
0010|00|--
0000|00|--
0100|00|--
0000|00|--
1000|00|--
0000|00|--
0001|00|--
0000|00|--
0010|00|--
0000|00|--
0100|00|--
0000|00|--
1000|00|--
0000|00|--
0001|00|--
0000|00|--
0010|00|--
0000|00|--
0100|00|--
0000|00|--
1000|00|--
0000|00|--
fx-r=
0000|01|--
0000|01|--
0000|01|--
0000|01|--
fx-l=
0000|11|--
0000|11|--
0000|11|--
0000|11|--
--
0000|11|--
0000|11|--
0000|11|--
0000|11|--
0010|00|--
0000|00|--
0001|00|--
0000|00|--
0100|00|--
0000|00|--
0001|00|--
0000|00|--
0100|00|--
0000|00|--
0001|00|--
0000|00|--
fx-l=
fx-r=
0000|11|--
0000|11|--
0000|11|--
0000|11|--
0000|11|--
0000|11|--
0000|11|--
0000|11|--
1000|00|--
0000|00|--
0010|00|--
0000|00|--
1000|00|--
0000|00|--
0010|00|--
0000|00|--
--
zoom_top=0
zoom_bottom=0
fx-r=
1000|01|--
0000|01|--
0100|01|--
0000|01|--
0010|01|--
0000|01|--
0001|01|--
0000|01|--
0010|01|--
0000|01|--
0100|01|--
0000|01|--
0000|21|--
0000|01|--
0100|01|--
0000|01|--
0010|01|--
0000|01|--
1000|01|--
0000|01|--
0100|01|--
0000|01|--
0010|01|--
0000|01|--
--
fx-l=
0001|10|--
0000|10|--
0010|10|--
0000|10|--
0100|10|--
0000|10|--
1000|10|--
0000|10|--
0100|10|--
0000|10|--
0010|10|--
0000|10|--
0000|12|--
0000|10|--
0100|10|--
0000|10|--
0010|10|--
0000|10|--
1000|10|--
0000|10|--
0100|10|--
0000|10|--
0010|10|--
0000|10|--
--
fx-r=
0100|01|--
0000|01|--
0100|01|--
0000|01|--
0100|01|--
0000|01|--
0010|20|--
0000|00|--
0000|00|--
0000|00|--
0000|20|--
0000|00|--
0000|02|--
0000|00|--
0000|20|--
0000|00|--
--
0010|00|--
0000|00|--
0000|00|--
0000|00|--
0100|00|--
0000|00|--
0010|00|--
0000|00|--
0100|00|--
0000|00|--
0000|00|--
0000|00|--
0010|00|--
0000|00|--
0000|00|--
0000|00|--
fx-l=
0000|10|--
0000|10|--
0000|10|--
0000|10|--
0000|10|--
0000|10|--
0000|10|--
0000|10|--
fx-r=
0000|01|--
0000|01|--
0000|01|--
0000|01|--
0000|01|--
0000|01|--
0000|01|--
0000|01|--
--
0001|00|0-
0000|00|:-
0000|00|P-
0000|00|:-
0000|00|:-
0000|00|:-
0000|00|:-
0000|00|:-
0000|00|:-
0000|00|:-
0000|00|:-
0000|00|:-
0000|00|:-
0000|00|:-
0000|00|:-
0000|00|:-
0110|00|P-
0000|00|:-
0000|00|:-
0000|00|:-
0000|00|:-
0000|00|:-
0000|00|:-
0000|00|:-
0000|00|o-
0000|00|:-
0000|00|:-
0000|00|:-
0000|00|:-
0000|00|:-
0000|00|:-
0000|00|:-
0110|00|P-
0000|00|:-
0000|00|:-
0000|00|:-
0000|00|:-
0000|00|:-
0000|00|:-
0000|00|:-
0000|00|:-
0000|00|:-
0000|00|:-
0000|00|:-
0000|00|:-
0000|00|:-
0000|00|:-
0000|00|:-
0011|00|o-
0000|00|:-
0000|00|0-
0000|00|:-
0000|00|:-
0000|00|:-
0000|00|:-
0000|00|:-
0011|00|0-
0000|00|:-
0000|00|o-
0000|00|--
0000|00|--
0000|00|--
0000|00|--
0000|00|--
--
fx-r=
0000|01|--
0000|01|--
0010|01|--
0000|01|--
0100|01|--
0000|01|--
0011|00|--
0000|00|--
0110|00|--
0000|00|--
1100|00|--
0000|00|--
fx-l=
0010|10|--
0000|10|--
0100|10|--
0000|10|--
--
1000|00|-o
0000|00|-:
0000|00|-P
0000|00|-:
0000|00|-:
0000|00|-:
0000|00|-:
0000|00|-:
0000|00|-:
0000|00|-:
0000|00|-:
0000|00|-:
0000|00|-:
0000|00|-:
0000|00|-:
0000|00|-:
0110|00|-P
0000|00|-:
0000|00|-:
0000|00|-:
0000|00|-:
0000|00|-:
0000|00|-:
0000|00|-:
0000|00|-0
0000|00|-:
0000|00|-:
0000|00|-:
0000|00|-:
0000|00|-:
0000|00|-:
0000|00|-:
0110|00|-P
0000|00|-:
0000|00|-:
0000|00|-:
0000|00|-:
0000|00|-:
0000|00|-:
0000|00|-:
0000|00|-:
0000|00|-:
0000|00|-:
0000|00|-:
0000|00|-:
0000|00|-:
0000|00|-:
0000|00|-:
1100|00|-0
0000|00|-:
0000|00|-o
0000|00|-:
0000|00|-:
0000|00|-:
0000|00|-:
0000|00|-:
1100|00|-o
0000|00|-:
0000|00|-0
0000|00|-:
0000|00|-:
0000|00|-:
0000|00|-:
0000|00|-:
--
0000|00|-0
0000|00|-:
0000|00|-:
0000|00|-:
0000|00|-:
0000|00|-:
0000|00|-:
0000|00|-:
0000|00|-P
0000|00|-:
0000|00|-:
0000|00|-:
0000|00|-:
0000|00|-:
0000|00|-:
0000|00|-:
0000|00|00
0000|00|::
0000|00|::
0000|00|::
0000|00|::
0000|00|::
0000|00|::
0000|00|::
0000|00|P:
0000|00|::
0000|00|::
0000|00|::
0000|00|::
0000|00|::
0000|00|::
0000|00|::
0000|00|00
0000|00|::
0000|00|::
0000|00|::
0000|00|::
0000|00|::
0000|00|::
0000|00|::
0000|00|:P
0000|00|::
0000|00|::
0000|00|::
0000|00|::
0000|00|::
0000|00|::
0000|00|::
0000|00|00
0000|00|::
0000|00|oo
0000|00|--
0000|00|--
0000|00|--
0000|00|--
0000|00|--
0000|00|--
0000|00|--
0000|00|--
0000|00|--
0000|00|--
0000|00|--
0000|00|--
0000|00|--
--
zoom_top=0
zoom_bottom=0
0001|00|0-
0000|00|:-
0000|00|P-
0000|00|:-
0000|00|:-
0000|00|:-
0000|00|:-
0000|00|:-
0000|00|:-
0000|00|:-
0000|00|:-
0000|00|:-
0000|00|:-
0000|00|:-
0000|00|:-
0000|00|:-
0110|00|P-
0000|00|:-
0000|00|:-
0000|00|:-
0000|00|:-
0000|00|:-
0000|00|:-
0000|00|:-
0000|00|o-
0000|00|:-
0000|00|:-
0000|00|:-
0000|00|:-
0000|00|:-
0000|00|:-
0000|00|:-
0110|00|P-
0000|00|:-
0000|00|:-
0000|00|:-
0000|00|:-
0000|00|:-
0000|00|:-
0000|00|:-
0000|00|:-
0000|00|:-
0000|00|:-
0000|00|:-
0000|00|:-
0000|00|:-
0000|00|:-
0000|00|:-
0011|00|o-
0000|00|:-
0000|00|0-
0000|00|:-
0000|00|:-
0000|00|:-
0000|00|:-
0000|00|:-
0011|00|0-
0000|00|:-
0000|00|o-
0000|00|--
0000|00|--
0000|00|--
0000|00|--
0000|00|--
--
fx-r=
0000|01|--
0000|01|--
0010|01|--
0000|01|--
0100|01|--
0000|01|--
0011|00|--
0000|00|--
0110|00|--
0000|00|--
1100|00|--
0000|00|--
fx-l=
0010|10|--
0000|10|--
0100|10|--
0000|10|--
--
1000|00|-o
0000|00|-:
0000|00|-P
0000|00|-:
0000|00|-:
0000|00|-:
0000|00|-:
0000|00|-:
0000|00|-:
0000|00|-:
0000|00|-:
0000|00|-:
0000|00|-:
0000|00|-:
0000|00|-:
0000|00|-:
0110|00|-P
0000|00|-:
0000|00|-:
0000|00|-:
0000|00|-:
0000|00|-:
0000|00|-:
0000|00|-:
0000|00|-0
0000|00|-:
0000|00|-:
0000|00|-:
0000|00|-:
0000|00|-:
0000|00|-:
0000|00|-:
0110|00|-P
0000|00|-:
0000|00|-:
0000|00|-:
0000|00|-:
0000|00|-:
0000|00|-:
0000|00|-:
0000|00|-:
0000|00|-:
0000|00|-:
0000|00|-:
0000|00|-:
0000|00|-:
0000|00|-:
0000|00|-:
0000|20|-0
0000|00|-:
0000|00|-o
0000|00|-:
0000|00|-:
0000|00|-:
0000|00|-:
0000|00|-:
0000|20|-o
0000|00|-:
0000|00|-0
0000|00|--
0000|00|--
0000|00|--
0000|00|--
0000|00|--
--
1000|00|--
0000|00|--
0010|00|--
0000|00|--
1000|00|--
0000|00|--
0010|00|--
0000|00|--
fx-l=
fx-r=
0000|11|--
0000|11|--
0000|11|--
0000|11|--
0000|11|--
0000|11|--
0000|11|--
0000|11|--
0100|00|--
0000|00|--
0001|00|--
0000|00|--
0100|00|--
0000|00|--
0001|00|--
0000|00|--
0000|22|--
0000|00|--
0000|00|--
0000|00|--
0000|00|--
0000|00|--
0000|00|--
0000|00|--
--
zoom_top=25
zoom_bottom=-75
laserrange_l=2x
0010|00|C-
0000|00|:-
0000|00|P-
0000|00|:-
0000|00|:-
0000|00|:-
0000|00|:-
0000|00|:-
0001|00|:-
0000|00|:-
0000|00|:-
0000|00|:-
0000|00|:-
0000|00|:-
0000|00|:-
0000|00|:-
0001|00|P-
0000|00|:-
0000|00|b-
0000|00|:-
0000|00|:-
0000|00|:-
0000|00|:-
0000|00|:-
0010|00|:-
0000|00|:-
0000|00|:-
0000|00|:-
0000|00|:-
0000|00|:-
0000|00|:-
0000|00|:-
0001|00|b-
0000|00|:-
0000|00|o-
0000|00|:-
0000|00|:-
0000|00|:-
0000|00|:-
0000|00|:-
0010|00|:-
0000|00|:-
0000|00|:-
0000|00|:-
0000|00|:-
0000|00|:-
0000|00|:-
0000|00|:-
0000|02|o-
0000|00|:-
0000|00|P-
0000|00|:-
0000|00|:-
0000|00|:-
0000|00|:-
0000|00|:-
0000|02|P-
0000|00|:-
0000|00|o-
0000|00|:-
0000|00|:-
0000|00|:-
0000|00|:-
0000|00|:-
--
0000|00|:-
0000|00|:-
0000|00|:-
0000|00|:-
0000|00|:-
0000|00|:-
0000|00|:-
0000|00|:-
0001|00|:-
0000|00|:-
0000|00|:-
0000|00|:-
0000|00|:-
0000|00|:-
0000|00|:-
0000|00|:-
0010|00|o-
0000|00|:-
0000|00|b-
0000|00|:-
0000|00|:-
0000|00|:-
0000|00|:-
0000|00|:-
0100|00|:-
0000|00|:-
0000|00|:-
0000|00|:-
0000|00|:-
0000|00|:-
0000|00|:-
0000|00|:-
0010|00|b-
0000|00|:-
0000|00|C-
0000|00|:-
0000|00|:-
0000|00|:-
0000|00|:-
0000|00|:-
0001|00|:-
0000|00|:-
0000|00|:-
0000|00|:-
0000|00|:-
0000|00|:-
0000|00|:-
0000|00|:-
0010|00|C-
0000|00|:-
0000|00|b-
0000|00|:-
0000|00|:-
0000|00|:-
0000|00|:-
0000|00|:-
0001|00|:-
0000|00|:-
0000|00|:-
0000|00|:-
0000|00|:-
0000|00|:-
0000|00|:-
0000|00|:-
--
laserrange_r=2x
0100|00|bb
0000|00|-:
0000|00|-P
0000|00|-:
0000|00|-:
0000|00|-:
0000|00|-:
0000|00|-:
1000|00|-:
0000|00|-:
0000|00|-:
0000|00|-:
0000|00|-:
0000|00|-:
0000|00|-:
0000|00|-:
1000|00|-P
0000|00|-:
0000|00|-D
0000|00|-:
0000|00|-:
0000|00|-:
0000|00|-:
0000|00|-:
0100|00|-:
0000|00|-:
0000|00|-:
0000|00|-:
0000|00|-:
0000|00|-:
0000|00|-:
0000|00|-:
1000|00|-D
0000|00|-:
0000|00|-0
0000|00|-:
0000|00|-:
0000|00|-:
0000|00|-:
0000|00|-:
0100|00|-:
0000|00|-:
0000|00|-:
0000|00|-:
0000|00|-:
0000|00|-:
0000|00|-:
0000|00|-:
0000|20|-0
0000|00|-:
0000|00|-P
0000|00|-:
0000|00|-:
0000|00|-:
0000|00|-:
0000|00|-:
0000|20|-P
0000|00|-:
0000|00|-0
0000|00|-:
0000|00|-:
0000|00|-:
0000|00|-:
0000|00|-:
--
0000|00|-:
0000|00|-:
0000|00|-:
0000|00|-:
0000|00|-:
0000|00|-:
0000|00|-:
0000|00|-:
1000|00|-:
0000|00|-:
0000|00|-:
0000|00|-:
0000|00|-:
0000|00|-:
0000|00|-:
0000|00|-:
0100|00|-0
0000|00|-:
0000|00|-D
0000|00|-:
0000|00|-:
0000|00|-:
0000|00|-:
0000|00|-:
0010|00|-:
0000|00|-:
0000|00|-:
0000|00|-:
0000|00|-:
0000|00|-:
0000|00|-:
0000|00|-:
0100|00|-D
0000|00|-:
0000|00|-c
0000|00|-:
0000|00|-:
0000|00|-:
0000|00|-:
0000|00|-:
1000|00|-:
0000|00|-:
0000|00|-:
0000|00|-:
0000|00|-:
0000|00|-:
0000|00|-:
0000|00|-:
0100|00|-c
0000|00|-:
0000|00|-D
0000|00|-:
0000|00|-:
0000|00|-:
0000|00|-:
0000|00|-:
1000|00|-:
0000|00|-:
0000|00|-:
0000|00|-:
0000|00|-:
0000|00|-:
0000|00|-:
0000|00|-:
--
0001|02|-D
0000|00|--
0001|02|--
0000|00|--
1000|20|--
0000|00|--
1000|20|--
0000|00|--
0010|02|--
0000|00|--
0010|02|--
0000|00|--
0100|20|--
0000|00|--
0100|20|--
0000|00|--
--
0010|02|--
0000|00|--
0001|02|--
0000|00|--
1000|20|--
0000|00|--
0100|20|--
0000|00|--
0001|02|--
0000|00|--
0010|02|--
0000|00|--
fx-l=
0000|10|--
0000|10|--
0000|10|--
0000|10|--
--
0001|00|--
0000|00|--
0010|00|--
0000|00|--
0100|00|--
0000|00|--
1000|00|--
0000|00|--
0001|00|--
0000|00|--
0010|00|--
0000|00|--
0100|00|--
0000|00|--
1000|00|--
0000|00|--
0001|00|--
0000|00|--
0010|00|--
0000|00|--
0100|00|--
0000|00|--
1000|00|--
0000|00|--
0001|00|--
0000|00|--
0010|00|--
0000|00|--
fx-l=
fx-r=
0000|11|--
0000|11|--
0000|11|--
0000|11|--
--
0000|11|--
0000|11|--
0000|11|--
0000|11|--
1000|00|--
0000|00|--
0100|00|--
0000|00|--
0010|00|--
0000|00|--
0001|00|--
0000|00|--
1000|00|--
0000|00|--
0100|00|--
0000|00|--
0010|00|--
0000|00|--
0001|00|--
0000|00|--
1000|00|--
0000|00|--
0100|00|--
0000|00|--
0010|00|--
0000|00|--
0001|00|--
0000|00|--
1000|00|--
0000|00|--
0100|00|--
0000|00|--
--
0000|20|-o
0000|00|-:
0000|00|-0
0000|00|-:
0000|00|-:
0000|00|-:
0000|00|-:
0000|00|-:
1100|00|-0
0000|00|-:
0000|00|-o
0000|00|--
0000|00|--
0000|00|--
0000|00|--
0000|00|--
0000|00|--
0000|00|--
0000|00|--
0000|00|--
0000|00|--
0000|00|--
0000|00|--
0000|00|--
0000|02|0-
0000|00|:-
0000|00|o-
0000|00|:-
0000|00|:-
0000|00|:-
0000|00|:-
0000|00|:-
0011|00|o-
0000|00|:-
0000|00|0-
0000|00|--
0000|00|--
0000|00|--
0000|00|--
0000|00|--
0000|00|--
0000|00|--
0000|00|--
0000|00|--
0000|00|--
0000|00|--
0000|00|--
0000|00|--
0000|20|-o
0000|00|-:
0000|00|-0
0000|00|-:
0000|00|-:
0000|00|-:
0000|00|-:
0000|00|-:
0110|00|-0
0000|00|-:
0000|00|-o
0000|00|--
0000|00|--
0000|00|--
0000|00|--
0000|00|--
--
0000|00|--
0000|00|--
0000|00|--
0000|00|--
0000|00|--
0000|00|--
0000|00|--
0000|00|--
0000|02|0-
0000|00|:-
0000|00|o-
0000|00|:-
0000|00|:-
0000|00|:-
0000|00|:-
0000|00|:-
0110|00|o-
0000|00|:-
0000|00|0-
0000|00|--
0000|00|--
0000|00|--
0000|00|--
0000|00|--
0000|00|--
0000|00|--
0000|00|--
0000|00|--
0000|00|--
0000|00|--
0000|00|--
0000|00|--
laserrange_r=2x
0000|22|-b
0000|00|-:
0000|00|-o
0000|00|-:
0000|00|-:
0000|00|-:
0000|00|-:
0000|00|-:
0110|00|-o
0000|00|-:
0000|00|-b
0000|00|-:
0000|00|-:
0000|00|-:
0000|00|-:
0000|00|-:
0000|00|-:
0000|00|-:
0000|00|-:
0000|00|-:
0000|00|-:
0000|00|-:
0000|00|-:
0000|00|-:
laserrange_l=2x
0000|22|C:
0000|00|::
0000|00|0:
0000|00|::
0000|00|::
0000|00|::
0000|00|::
0000|00|::
--
0110|00|0:
0000|00|::
0000|00|C:
0000|00|::
0000|00|::
0000|00|::
0000|00|::
0000|00|::
0000|00|::
0000|00|::
0000|00|::
0000|00|::
0000|00|::
0000|00|::
0000|00|::
0000|00|::
0000|22|:b
0000|00|::
0000|00|:o
0000|00|::
0000|00|::
0000|00|::
0000|00|::
0000|00|::
0110|00|:o
0000|00|::
0000|00|:b
0000|00|::
0000|00|::
0000|00|::
0000|00|::
0000|00|::
0000|00|::
0000|00|::
0000|00|::
0000|00|::
0000|00|::
0000|00|::
0000|00|::
0000|00|::
0011|00|C:
0000|00|::
0000|00|b:
0000|00|-:
0000|00|-:
0000|00|-:
0000|00|-:
0000|00|-:
0000|00|-:
0000|00|-:
0000|00|-:
0000|00|-:
0000|00|-:
0000|00|-:
0000|00|-:
0000|00|-:
zoom_top=25
zoom_bottom=-75
1100|00|-b
0000|00|-:
0000|00|-C
0000|00|--
0000|00|--
0000|00|--
0000|00|--
0000|00|--
--
zoom_top=-25
0000|00|--
zoom_top=0
zoom_bottom=0
0000|00|--
0000|00|--
0000|00|--
0000|00|--
0000|00|--
0000|00|--
0000|00|--
--
