title=Ethereal Lotus
artist=wa. + 杠葉えりか
effect=EIVY
jacket=mxm.png
illustrator=海夜
difficulty=infinite
level=18
t=218
m=mxm.ogg
mvol=75
o=0
bg=desert
layer=arrow
po=73761
plength=6605
pfiltergain=0
filtertype=peak
chokkakuautovol=0
chokkakuvol=0
icon=../sdvx05.png
ver=171
--
beat=4/4
zoom_top=-50
zoom_bottom=-50
0000|00|--
--
fx-l_se=clap;0
fx-r_se=clap;0
zoom_top=-50
zoom_bottom=-50
0000|22|--
--
zoom_top=0
zoom_bottom=-25
0000|00|0o
0000|00|::
0000|00|o:
0000|00|-:
0000|00|-U
0000|00|-:
0000|00|-:
0000|00|-:
0000|00|-K
0000|00|-:
0000|00|-:
0000|00|-:
0000|00|-:
0000|00|-:
0000|00|-:
0000|00|-:
0000|00|-F
0000|00|-:
0000|00|-:
0000|00|-:
0000|00|-:
0000|00|-:
0000|00|-:
0000|00|-:
0000|00|-K
0000|00|-:
0000|00|-:
0000|00|-:
0000|00|-:
0000|00|-:
0000|00|-:
0000|00|-:
0000|00|0o
0000|00|::
0000|00|::
0000|00|::
0000|00|::
0000|00|::
0000|00|::
0000|00|::
0000|00|::
0000|00|::
0000|00|::
0000|00|::
0000|00|::
0000|00|::
0000|00|::
0000|00|::
0000|00|o0
0000|00|:-
0000|00|:-
0000|00|:-
0000|00|:-
0000|00|:-
0000|00|:-
0000|00|:-
0000|00|P-
0000|00|:-
0000|00|:-
0000|00|:-
0000|00|:-
0000|00|:-
0000|00|:-
0000|00|:-
--
0000|00|o-
0000|00|:-
0000|00|U-
0000|00|:-
0000|00|K-
0000|00|:-
0000|00|:-
0000|00|:-
0000|00|F-
0000|00|:-
0000|00|:-
0000|00|:-
0000|00|K-
0000|00|:-
0000|00|:-
0000|00|:-
0000|00|o0
0000|00|::
0000|00|::
0000|00|::
0000|00|::
0000|00|::
0000|00|::
0000|00|::
0000|00|0o
0000|00|::
0000|00|::
0000|00|::
0000|00|:P
0000|00|::
0000|00|::
0000|00|::
--
0000|00|0o
0000|00|::
0000|00|KU
0000|00|::
0000|00|PP
0000|00|::
0000|00|KU
0000|00|::
0000|00|0o
0000|00|-:
0000|00|-:
0000|00|-:
0000|00|o0
0000|00|::
0000|00|PP
0000|00|::
--
0000|00|o0
0000|00|::
0000|00|UK
0000|00|::
0000|00|PP
0000|00|::
0000|00|UK
0000|00|::
0000|00|o0
0000|00|:-
0000|00|:-
0000|00|:-
0000|00|0o
0000|00|-:
0000|00|-:
0000|00|-:
--
0110|00|-0
0000|00|-:
0000|00|-o
0000|00|-:
0000|00|-:
0000|00|-:
0000|00|-:
0000|00|-:
0110|00|-o
0000|00|-:
0000|00|-0
0000|00|-:
0000|00|-:
0000|00|-:
0000|00|-:
0000|00|-:
0000|00|-:
0000|00|-:
0000|00|-:
0000|00|-:
0000|00|-:
0000|00|-:
0000|00|-:
0000|00|-:
0000|02|-:
0000|00|-:
0000|00|-:
0000|00|-:
0000|00|-:
0000|00|-:
0000|00|-:
0000|00|-:
0000|00|-:
0000|00|-:
0000|00|-:
0000|00|-:
0000|00|-:
0000|00|-:
0000|00|-:
0000|00|-:
0000|00|-:
0000|00|-:
0000|00|-:
0000|00|-:
0000|00|-:
0000|00|-:
0000|00|-:
0000|00|-:
0100|00|-:
0000|00|-:
0000|00|-:
0000|00|-:
0000|00|-:
0000|00|-:
0000|00|-:
0000|00|-:
0010|00|-:
0000|00|-:
0000|00|-:
0000|00|-:
0000|00|-:
0000|00|-:
0000|00|-:
0000|00|-:
--
0000|00|-o
0000|00|--
0100|00|--
0000|00|--
1000|00|--
0000|00|--
0000|02|--
0000|00|--
0000|20|--
0000|00|--
0000|02|--
0000|00|--
0100|00|--
0000|00|--
0010|00|--
0000|00|--
--
0000|00|K-
0000|00|:-
0001|00|:-
0000|00|:-
0010|00|:-
0000|00|:-
0001|00|:-
0000|00|:-
0100|00|:-
0000|00|:-
0001|00|:-
0000|00|:-
0010|00|:-
0000|00|:-
0001|00|:-
0000|00|:-
--
0000|00|0-
0000|00|:-
0000|00|:-
0000|00|:-
0000|00|:-
0000|00|:-
0000|00|:-
0000|00|:-
0010|00|:-
0000|00|:-
0000|00|:-
0000|00|:-
0000|00|P-
0000|00|:-
0000|00|:-
0000|00|:-
0100|00|:-
0000|00|:-
0000|00|:-
0000|00|:-
0000|00|e-
0000|00|:-
0000|00|:-
0000|00|:-
0010|00|:-
0000|00|:-
0000|00|:-
0000|00|:-
0000|00|:-
0000|00|:-
0000|00|:-
0000|00|:-
fx-l=
fx-r=
0000|11|o-
0000|11|:-
0000|11|:-
0000|11|:-
0000|11|:-
0000|11|:-
0000|11|:-
0000|11|:-
0000|11|:-
0000|11|:-
0000|11|:-
0000|11|:-
0000|11|:-
0000|11|:-
0000|11|:-
0000|11|:-
zoom_bottom=-25
0000|00|0-
0000|00|:-
0000|00|o-
0000|00|--
0000|00|--
0000|00|--
0000|00|--
0000|00|--
0000|00|--
0000|00|--
0000|00|--
0000|00|--
0000|00|--
0000|00|--
0000|00|--
0000|00|--
--
zoom_bottom=0
0001|00|--
1100|00|--
0001|00|--
1100|00|--
0011|00|--
0100|00|--
0011|00|--
0100|00|--
0010|00|--
1100|00|--
0010|00|--
1100|00|--
0011|00|--
1000|00|--
0011|00|--
1000|00|--
--
0001|00|--
0000|00|--
0100|00|--
0000|00|--
fx-r=
0000|01|--
0000|01|--
0000|01|--
0000|01|--
1000|00|--
0000|00|--
0010|00|--
0000|00|--
fx-l=
0000|10|--
0000|10|--
0000|10|--
0000|10|--
0001|00|--
0000|00|--
0100|00|--
0000|00|--
fx-r=
0000|01|--
0000|01|--
0000|01|--
0000|01|--
zoom_bottom=-50
fx-l=
0000|11|--
0000|11|--
0000|11|--
0000|11|--
0000|11|--
0000|11|--
0000|11|--
0000|11|--
--
zoom_bottom=0
0011|00|--
0000|00|--
0100|00|--
0000|00|--
1001|00|--
0000|00|--
0010|00|--
0000|00|--
1100|00|--
0000|00|--
0010|00|--
0000|00|--
0101|02|--
0000|00|--
0010|00|--
0000|00|--
--
1100|00|--
0000|00|--
0000|00|--
0000|00|--
0001|00|--
0000|00|--
0000|00|--
0000|00|--
1010|00|--
0000|00|--
0000|00|--
0000|00|--
0001|00|--
0000|00|--
0000|00|--
0000|00|--
fx-l=
0010|10|--
0000|10|--
0000|10|--
0000|10|--
0100|10|--
0000|10|--
0000|10|--
0000|10|--
fx-r=
1000|01|--
0000|01|--
0100|01|--
0000|01|--
0001|01|--
0000|01|--
0000|01|--
0000|01|--
--
1000|00|--
0000|00|--
0010|00|--
0000|00|--
1001|00|--
0000|00|--
0000|02|--
0000|00|--
0110|00|--
0000|00|--
0001|00|--
0000|00|--
1010|20|--
0000|00|--
0001|00|--
0000|00|--
--
fx-r=
0100|01|--
0000|01|--
0000|01|--
0000|01|--
0000|01|--
0000|01|--
0100|01|--
0000|01|--
0000|01|--
0000|01|--
0000|01|--
0000|01|--
fx-l=
0001|10|--
0000|10|--
0000|10|--
0000|10|--
0010|10|--
0000|10|--
0000|10|--
0000|10|--
0001|10|--
0000|10|--
0000|10|--
0000|10|--
fx-r=
1000|01|--
0000|01|--
0000|01|--
0000|01|--
0100|01|--
0000|01|--
0000|01|--
0000|01|--
1000|01|--
0000|01|--
0000|01|--
0000|01|--
zoom_bottom=0
fx-l=
0000|10|--
0000|10|--
0000|10|--
0000|10|--
0000|10|--
0000|10|--
0000|10|--
0000|10|--
0000|10|--
0000|10|--
0000|10|--
0000|10|--
--
zoom_bottom=-50
laserrange_r=2x
1100|00|-e
0000|00|-:
0000|00|-R
0000|00|-:
0000|00|-:
0000|00|-:
0000|00|-:
0000|00|-:
0000|00|-:
0000|00|-:
0000|00|-:
0000|00|-:
0000|00|-:
0000|00|-:
0000|00|-:
0000|00|-:
0000|00|-:
0000|00|-:
0000|00|-:
0000|00|-:
0000|00|-:
0000|00|-:
0000|00|-:
0000|00|-:
1110|00|-m
0000|00|-:
0000|00|-X
0000|00|--
0000|00|--
0000|00|--
0000|00|--
0000|00|--
0000|00|--
0000|00|--
0000|00|--
0000|00|--
0000|00|--
0000|00|--
0000|00|--
0000|00|--
0000|00|--
0000|00|--
0000|00|--
0000|00|--
0000|00|--
0000|00|--
0000|00|--
0000|00|--
laserrange_l=2x
0011|00|A-
0000|00|:-
0000|00|N-
0000|00|:-
0000|00|:-
0000|00|:-
0000|00|:-
0000|00|:-
0000|00|:-
0000|00|:-
0000|00|:-
0000|00|:-
0000|00|:-
0000|00|:-
0000|00|:-
0000|00|:-
--
0000|00|:-
0000|00|:-
0000|00|:-
0000|00|:-
0000|00|:-
0000|00|:-
0000|00|:-
0000|00|:-
0111|00|2-
0000|00|:-
0000|00|H-
0000|00|--
0000|00|--
0000|00|--
0000|00|--
0000|00|--
0000|00|--
0000|00|--
0000|00|--
0000|00|--
0000|00|--
0000|00|--
0000|00|--
0000|00|--
0000|00|--
0000|00|--
0000|00|--
0000|00|--
0000|00|--
0000|00|--
0000|00|--
0000|00|--
fx-r=
1000|01|--
0000|01|--
0000|01|--
0000|01|--
0000|01|--
0000|01|--
0000|01|--
0000|01|--
1000|01|--
0000|01|--
0000|01|--
0000|01|--
0000|01|--
0000|01|--
0000|01|--
0000|01|--
fx-l_se=clap;0
zoom_bottom=-50
0000|20|--
0000|00|--
0000|00|--
0000|00|--
zoom_bottom=-75
0000|00|--
0000|00|--
0000|00|--
0000|00|--
0000|00|--
0000|00|--
0000|00|--
0000|00|--
0000|00|--
0000|00|--
0000|00|--
0000|00|--
--
laserrange_r=2x
1110|00|-W
0000|00|-:
0000|00|-h
0000|00|-:
0000|00|-:
0000|00|-:
0000|00|-:
0000|00|-:
0000|00|-:
0000|00|-:
0000|00|-:
0000|00|-:
0000|00|-:
0000|00|-:
0000|00|-:
0000|00|-:
0000|00|-:
0000|00|-:
0000|00|-:
0000|00|-:
0000|00|-:
0000|00|-:
0000|00|-:
0000|00|-:
0000|22|-0
0000|00|-:
0000|00|-C
0000|00|--
0000|00|--
0000|00|--
0000|00|--
0000|00|--
0000|00|--
0000|00|--
0000|00|--
0000|00|--
0000|00|--
0000|00|--
0000|00|--
0000|00|--
0000|00|--
0000|00|--
0000|00|--
0000|00|--
0000|00|--
0000|00|--
0000|00|--
0000|00|--
laserrange_l=2x
0111|00|I-
0000|00|:-
0000|00|7-
0000|00|:-
0000|00|:-
0000|00|:-
0000|00|:-
0000|00|:-
0000|00|:-
0000|00|:-
0000|00|:-
0000|00|:-
0000|00|:-
0000|00|:-
0000|00|:-
0000|00|:-
--
0000|00|:-
0000|00|:-
0000|00|:-
0000|00|:-
0000|00|:-
0000|00|:-
0000|00|:-
0000|00|:-
fx-l=
fx-r=
0000|11|o-
0000|11|:-
0000|11|c-
0000|11|--
0000|11|--
0000|11|--
0000|11|--
0000|11|--
0000|11|--
0000|11|--
0000|11|--
0000|11|--
0000|11|--
0000|11|--
0000|11|--
0000|11|--
0000|00|--
0000|00|--
0000|00|--
0000|00|--
0000|00|--
0000|00|--
0000|00|--
0000|00|--
zoom_bottom=-75
0110|00|--
0000|00|--
0000|00|--
0000|00|--
0000|00|--
0000|00|--
0000|00|--
0000|00|--
1100|00|--
0000|00|--
0000|00|--
0000|00|--
0000|00|--
0000|00|--
0000|00|--
0000|00|--
0011|00|--
0000|00|--
0000|00|--
0000|00|--
0000|00|--
0000|00|--
0000|00|--
0000|00|--
0110|00|--
0000|00|--
0000|00|--
0000|00|--
0000|00|--
0000|00|--
0000|00|--
0000|00|--
--
zoom_bottom=0
0000|00|-P
0000|00|-:
1000|00|-:
0000|00|-:
0100|00|-:
0000|00|-:
1000|00|-:
0000|00|-:
0000|00|-:
0000|00|-:
0010|00|-:
0000|00|-:
1000|00|-:
0000|00|-:
0100|00|-:
0000|00|-:
--
fx-l=
0000|10|-o
0000|10|-:
0000|10|-P
0000|10|-:
0000|10|-:
0000|10|-:
0000|10|-:
0000|10|-:
0000|10|-P
0000|10|-:
0000|10|-0
0000|10|-:
0000|10|-:
0000|10|-:
0000|10|-:
0000|10|-:
0000|10|-0
0000|10|-:
0000|10|-e
0000|10|-:
0000|10|-:
0000|10|-:
0000|10|-:
0000|10|-:
0000|10|-e
0000|10|-:
0000|10|-F
0000|10|-:
0000|10|-:
0000|10|-:
0000|10|-:
0000|10|-:
0000|00|-F
0000|00|-:
0000|00|-o
0000|00|-:
0000|00|-:
0000|00|-:
0000|00|-:
0000|00|-:
1000|00|-:
0000|00|-:
0000|00|-:
0000|00|-:
0000|00|-:
0000|00|-:
0000|00|-:
0000|00|-:
0100|00|-:
0000|00|-:
0000|00|-:
0000|00|-:
0000|00|-:
0000|00|-:
0000|00|-:
0000|00|-:
0010|00|-:
0000|00|-:
0000|00|-:
0000|00|-:
0000|00|-:
0000|00|-:
0000|00|-:
0000|00|-:
--
0000|00|P:
0000|00|::
0001|00|::
0000|00|::
0010|00|::
0000|00|::
0001|00|::
0000|00|::
0000|00|::
0000|00|::
0100|00|::
0000|00|::
0001|00|::
0000|00|::
0010|00|::
0000|00|::
--
0001|00|0:
0000|00|::
0000|00|::
0000|00|::
0000|00|::
0000|00|::
0000|00|::
0000|00|::
0000|00|::
0000|00|::
0000|00|::
0000|00|::
0000|00|::
0000|00|::
0000|00|::
0000|00|::
0000|00|::
0000|00|::
0000|00|::
0000|00|::
0000|00|::
0000|00|::
0000|00|::
0000|00|::
0000|00|0:
0000|00|::
0000|00|::
0000|00|::
0000|00|::
0000|00|::
0000|00|o:
0000|00|::
0000|00|::
0000|00|::
0000|00|::
0000|00|::
0000|00|::
0000|00|::
0000|00|::
0000|00|::
0000|00|::
0000|00|::
0000|00|::
0000|00|::
0000|00|::
0000|00|::
0000|00|::
0000|00|::
0110|00|::
0000|00|::
0000|00|::
0000|00|::
0000|00|::
0000|00|::
0000|00|::
0000|00|::
0000|00|::
0000|00|::
0000|00|::
0000|00|::
0000|00|::
0000|00|::
0000|00|::
0000|00|::
0000|00|::
0000|00|::
0000|00|::
0000|00|::
0000|00|::
0000|00|::
0000|00|::
0000|00|::
0000|00|o:
0000|00|::
0000|00|::
0000|00|::
0000|00|::
0000|00|::
0000|00|0:
0000|00|::
0000|00|::
0000|00|::
0000|00|::
0000|00|::
0000|00|::
0000|00|::
0000|00|::
0000|00|::
0000|00|::
0000|00|::
0000|00|::
0000|00|::
0000|00|::
0000|00|::
0000|00|::
0000|00|::
fx-r=
0000|01|0:
0000|01|::
0000|01|::
0000|01|::
0000|01|::
0000|01|::
0000|01|Z:
0000|01|::
0000|01|::
0000|01|::
0000|01|::
0000|01|::
0000|01|::
0000|01|::
0000|01|::
0000|01|::
0000|01|Z:
0000|01|::
0000|01|::
0000|01|::
0000|01|::
0000|01|::
0000|01|F:
0000|01|::
0000|01|::
0000|01|::
0000|01|::
0000|01|::
0000|01|::
0000|01|::
0000|01|::
0000|01|::
0000|01|F:
0000|01|::
0000|01|::
0000|01|::
0000|01|::
0000|01|::
0000|01|o:
0000|01|::
0000|01|::
0000|01|::
0000|01|::
0000|01|::
0000|01|::
0000|01|::
0000|01|::
0000|01|::
0000|00|o:
0000|00|::
0000|00|::
0000|00|::
0000|00|::
0000|00|::
0000|00|::
0000|00|::
0000|00|::
0000|00|::
0000|00|::
0000|00|::
0000|00|::
0000|00|::
0000|00|::
0000|00|::
0000|00|::
0000|00|::
0000|00|::
0000|00|::
0000|00|::
0000|00|::
0000|00|::
0000|00|::
0000|00|K:
0000|00|::
0000|00|::
0000|00|::
0000|00|::
0000|00|::
0000|00|::
0000|00|::
0000|00|::
0000|00|::
0000|00|::
0000|00|::
0000|00|A:
0000|00|::
0000|00|::
0000|00|::
0000|00|::
0000|00|::
0000|00|::
0000|00|::
0000|00|::
0000|00|::
0000|00|::
0000|00|::
--
0220|00|0:
0220|00|::
0220|00|e:
0220|00|::
0220|00|::
0220|00|::
0220|00|::
0220|00|::
0220|00|::
0220|00|::
0220|00|::
0220|00|::
0220|00|::
0220|00|::
0220|00|::
0220|00|::
0220|00|::
0220|00|::
0220|00|::
0220|00|::
0220|00|::
0220|00|::
0220|00|::
0220|00|::
fx-l=
0020|10|o:
0020|10|::
0020|10|0:
0020|10|::
0020|10|::
0020|10|::
0020|10|::
0020|10|::
0020|10|::
0020|10|::
0020|10|::
0020|10|::
0020|10|::
0020|10|::
0020|10|::
0020|10|::
0020|10|::
0020|10|::
0020|10|::
0020|10|::
0020|10|::
0020|10|::
0020|10|::
0020|10|::
0220|00|:o
0220|00|::
0220|00|:F
0220|00|::
0220|00|::
0220|00|::
0220|00|::
0220|00|::
0220|00|::
0220|00|::
0220|00|::
0220|00|::
0220|00|::
0220|00|::
0220|00|::
0220|00|::
--
0220|00|::
0220|00|::
0220|00|::
0220|00|::
0220|00|::
0220|00|::
0220|00|::
0220|00|::
fx-r=
0200|01|:0
0200|01|::
0200|01|:o
0200|01|::
0200|01|::
0200|01|::
0200|01|::
0200|01|::
0200|01|::
0200|01|::
0200|01|::
0200|01|::
0200|01|::
0200|01|::
0200|01|::
0200|01|::
0200|01|::
0200|01|::
0200|01|::
0200|01|::
0200|01|::
0200|01|::
0200|01|::
0200|01|::
0000|00|0o
0000|00|:-
0000|00|o-
0000|00|--
0000|00|--
0000|00|--
0000|00|--
0000|00|--
0000|00|--
0000|00|--
0000|00|--
0000|00|--
0000|00|--
0000|00|--
0000|00|--
0000|00|--
fx-l=
0000|10|--
0000|10|--
0000|10|--
0000|10|--
0000|10|--
0000|10|--
0000|10|--
0000|10|--
0000|10|--
0000|10|--
0000|10|--
0000|10|--
0000|10|--
0000|10|--
0000|10|--
0000|10|--
--
0000|00|-o
0000|00|-:
0000|00|-0
0000|00|-:
0000|00|-:
0000|00|-:
0000|00|-:
0000|00|-:
0000|00|0:
0000|00|::
0000|00|::
0000|00|::
0000|00|::
0000|00|::
0000|00|::
0000|00|::
0000|00|Po
0000|00|:-
0000|00|:-
0000|00|:-
0000|00|:-
0000|00|:-
0000|00|:-
0000|00|:-
0000|00|0-
0000|00|:-
0000|00|o-
0000|00|:-
0000|00|:-
0000|00|:-
0000|00|:-
0000|00|:-
0000|00|:o
0000|00|::
0000|00|::
0000|00|::
0000|00|::
0000|00|::
0000|00|::
0000|00|::
0000|00|0P
0000|00|-:
0000|00|-:
0000|00|-:
0000|00|-:
0000|00|-:
0000|00|-:
0000|00|-:
0000|00|-o
0000|00|-:
0000|00|-0
0000|00|-:
0000|00|-:
0000|00|-:
0000|00|-:
0000|00|-:
0000|00|0:
0000|00|::
0000|00|::
0000|00|::
0000|00|::
0000|00|::
0000|00|::
0000|00|::
--
0000|00|:o
0000|00|:-
0000|00|:-
0000|00|:-
0000|00|:-
0000|00|:-
0000|00|:-
0000|00|:-
0000|00|o-
0000|00|:-
0000|00|0-
0000|00|--
0000|00|--
0000|00|--
0000|00|--
0000|00|--
fx-r=
0000|01|--
0000|01|--
0000|01|--
0000|01|--
0000|01|--
0000|01|--
0000|01|--
0000|01|--
0000|01|--
0000|01|--
0000|01|--
0000|01|--
0000|01|--
0000|01|--
0000|01|--
0000|01|--
fx-l_se=clap;0
zoom_bottom=0
0010|20|--
0000|00|--
0000|00|--
0000|00|--
0000|00|--
0000|00|--
0000|00|--
0000|00|--
1000|00|--
0000|00|--
0000|00|--
0000|00|--
0000|00|--
0000|00|--
0000|00|--
0000|00|--
fx-r_se=clap;0
0100|02|--
0000|00|--
0000|00|--
0000|00|--
0000|00|--
0000|00|--
0000|00|--
0000|00|--
0001|00|--
0000|00|--
0000|00|--
0000|00|--
0000|00|--
0000|00|--
0000|00|--
0000|00|--
--
zoom_bottom=-50
laserrange_l=2x
0000|00|2-
0000|00|:-
0000|00|K-
0000|00|:-
0000|00|:-
0000|00|:-
0000|00|:-
0000|00|:-
0010|00|:-
0000|00|:-
0000|00|:-
0000|00|:-
0000|00|:-
0000|00|:-
0000|00|:-
0000|00|:-
0100|00|:-
0000|00|:-
0000|00|:-
0000|00|:-
0000|00|:-
0000|00|:-
0000|00|:-
0000|00|:-
0010|00|:-
0000|00|:-
0000|00|:-
0000|00|:-
0000|00|:-
0000|00|:-
0000|00|:-
0000|00|:-
0000|20|:-
0000|00|:-
0000|00|:-
0000|00|:-
0000|00|:-
0000|00|:-
0000|00|:-
0000|00|:-
0100|00|:-
0000|00|:-
0000|00|:-
0000|00|:-
0000|00|:-
0000|00|:-
0000|00|:-
0000|00|:-
0010|00|:-
0000|00|:-
0000|00|:-
0000|00|:-
0000|00|:-
0000|00|:-
0000|00|:-
0000|00|:-
0100|00|2-
0000|00|--
0000|00|--
0000|00|--
0000|00|--
0000|00|--
0000|00|--
0000|00|--
--
fx-r=
0000|01|--
0000|01|--
0000|01|--
0000|01|--
0110|00|--
0000|00|--
fx-l=
0000|10|--
0000|10|--
fx-r=
0010|11|--
0000|11|--
0100|01|--
0000|01|--
fx-l_se=clap;0
0000|20|--
0000|00|--
0000|00|--
0000|00|--
--
laserrange_r=2x
0000|00|-m
0000|00|-:
0000|00|-U
0000|00|-:
0000|00|-:
0000|00|-:
0000|00|-:
0000|00|-:
0100|00|-:
0000|00|-:
0000|00|-:
0000|00|-:
0000|00|-:
0000|00|-:
0000|00|-:
0000|00|-:
0010|00|-:
0000|00|-:
0000|00|-:
0000|00|-:
0000|00|-:
0000|00|-:
0000|00|-:
0000|00|-:
0100|00|-:
0000|00|-:
0000|00|-:
0000|00|-:
0000|00|-:
0000|00|-:
0000|00|-:
0000|00|-:
0000|02|-:
0000|00|-:
0000|00|-:
0000|00|-:
0000|00|-:
0000|00|-:
0000|00|-:
0000|00|-:
0010|00|-:
0000|00|-:
0000|00|-:
0000|00|-:
0000|00|-:
0000|00|-:
0000|00|-:
0000|00|-:
0100|00|-:
0000|00|-:
0000|00|-:
0000|00|-:
0000|00|-:
0000|00|-:
0000|00|-:
0000|00|-:
0010|00|-m
0000|00|--
0000|00|--
0000|00|--
0000|00|--
0000|00|--
0000|00|--
0000|00|--
--
fx-l=
0000|10|--
0000|10|--
0000|10|--
0000|10|--
fx-r=
0001|11|--
0000|11|--
0010|11|--
0000|11|--
0100|01|--
0000|01|--
1000|01|--
0000|01|--
fx-l=
0000|10|--
0000|10|--
0000|10|--
0000|10|--
fx-r=
0000|11|--
0000|11|--
0000|11|--
0000|11|--
0000|11|--
0000|11|--
0000|11|--
0000|11|--
1111|00|--
0000|00|--
0000|00|--
0000|00|--
0000|00|--
0000|00|--
0000|00|--
0000|00|--
--
laserrange_l=2x
0000|00|7-
0000|00|:-
0000|00|e-
0000|00|:-
0000|00|:-
0000|00|:-
0000|00|:-
0000|00|:-
0000|02|:-
0000|00|:-
0000|00|:-
0000|00|:-
0000|00|:-
0000|00|:-
0000|00|:-
0000|00|:-
0000|00|e-
0000|00|:-
0000|00|7-
0000|00|:-
0000|00|:-
0000|00|:-
0000|00|:-
0000|00|:-
0110|00|:-
0000|00|:-
0000|00|:-
0000|00|:-
0000|00|:-
0000|00|:-
0000|00|:-
0000|00|:-
laserrange_r=2x
0000|00|:h
0000|00|::
0000|00|:A
0000|00|::
0000|00|::
0000|00|::
0000|00|::
0000|00|::
0000|20|::
0000|00|::
0000|00|::
0000|00|::
0000|00|::
0000|00|::
0000|00|::
0000|00|::
0000|00|:A
0000|00|::
0000|00|:h
0000|00|::
0000|00|::
0000|00|::
0000|00|::
0000|00|::
0110|00|::
0000|00|::
0000|00|::
0000|00|::
0000|00|::
0000|00|::
0000|00|::
0000|00|::
--
0000|00|7h
0000|00|::
0000|00|::
0000|00|::
0000|00|::
0000|00|::
0000|00|P:
0000|00|::
0000|00|::
0000|00|::
0000|00|::
0000|00|::
0000|00|::
0000|00|::
0000|00|::
0000|00|::
0000|00|::
0000|00|::
0000|00|::
0000|00|::
0000|00|::
0000|00|::
0000|00|::
0000|00|::
0000|00|P:
0000|00|::
0000|00|::
0000|00|::
0000|00|::
0000|00|::
0000|00|h:
0000|00|::
0000|00|::
0000|00|::
0000|00|::
0000|00|::
0000|00|::
0000|00|::
0000|00|::
0000|00|::
0000|00|::
0000|00|::
0000|00|::
0000|00|::
0000|00|::
0000|00|::
0000|00|::
0000|00|::
0000|00|hh
0000|00|::
0000|00|::
0000|00|::
0000|00|::
0000|00|::
0000|00|::
0000|00|::
0000|00|::
0000|00|::
0000|00|::
0000|00|::
0000|00|::
0000|00|::
0000|00|::
0000|00|::
0000|00|PP
0000|00|::
0000|00|::
0000|00|::
0000|00|::
0000|00|::
0000|00|::
0000|00|::
0000|00|::
0000|00|::
0000|00|::
0000|00|::
0000|00|::
0000|00|::
0000|00|::
0000|00|::
0000|00|CC
0000|00|::
0000|00|::
0000|00|::
0000|00|::
0000|00|::
0000|00|::
0000|00|::
0000|00|::
0000|00|::
0000|00|::
0000|00|::
0000|00|::
0000|00|::
0000|00|::
0000|00|::
0000|00|77
0000|00|::
0000|00|::
0000|00|::
0000|00|::
0000|00|::
0000|00|:P
0000|00|::
0000|00|::
0000|00|::
0000|00|::
0000|00|::
0000|00|::
0000|00|::
0000|00|::
0000|00|::
0000|00|::
0000|00|::
0000|00|::
0000|00|::
0000|00|::
0000|00|::
0000|00|::
0000|00|::
0000|00|:P
0000|00|::
0000|00|::
0000|00|::
0000|00|::
0000|00|::
0000|00|:h
0000|00|::
0000|00|::
0000|00|::
0000|00|::
0000|00|::
0000|00|::
0000|00|::
0000|00|::
0000|00|::
0000|00|::
0000|00|::
0000|00|::
0000|00|::
0000|00|::
0000|00|::
0000|00|::
0000|00|::
fx-l=
0000|10|::
0000|10|::
0000|10|::
0000|10|::
0000|10|::
0000|10|::
0000|10|::
0000|10|::
0000|10|::
0000|10|::
0000|10|::
0000|10|::
0000|10|::
0000|10|::
0000|10|::
0000|10|::
0000|10|::
0000|10|::
0000|10|::
0000|10|::
0000|10|::
0000|10|::
0000|10|::
0000|10|::
0000|10|::
0000|10|::
0000|10|::
0000|10|::
0000|10|::
0000|10|::
0000|10|::
0000|10|::
0000|10|::
0000|10|::
0000|10|::
0000|10|::
0000|10|::
0000|10|::
0000|10|::
0000|10|::
0000|10|::
0000|10|::
0000|10|::
0000|10|::
0000|10|::
0000|10|::
0000|10|::
0000|10|::
--
zoom_top=0
zoom_bottom=-50
0001|00|::
0000|00|::
0010|00|::
0000|00|::
0100|00|::
0000|00|::
1000|00|::
0000|00|::
0000|02|::
0000|00|::
0000|20|::
0000|00|::
0000|02|::
0000|00|::
1000|00|::
0000|00|::
0100|00|::
0000|00|::
0010|00|::
0000|00|::
0001|00|::
0000|00|::
0000|20|::
0000|00|::
0000|02|::
0000|00|::
0000|20|::
0000|00|::
0010|00|::
0000|00|::
0100|00|::
0000|00|::
--
0001|00|::
0000|02|::
0010|00|::
0100|00|::
0000|20|::
1000|00|::
0010|00|::
0100|00|::
0001|00|::
0000|20|::
0000|02|::
1000|00|::
0011|00|::
1100|00|::
0011|00|::
1100|00|::
--
zoom_top=75
zoom_bottom=-100
0000|00|7h@(192
0000|00|-:
0000|00|-7
0000|00|--
0000|00|--
0000|00|--
0000|00|--
0000|00|--
0000|00|--
0000|00|--
0000|00|--
0000|00|--
0000|00|--
0000|00|--
0000|00|--
0000|00|--
0000|00|--
0000|00|--
0000|00|--
0000|00|--
0000|00|--
0000|00|--
0000|00|--
0000|00|--
0000|00|--
0000|00|--
0000|00|--
0000|00|--
0000|00|--
0000|00|--
0000|00|--
0000|00|--
0000|00|--
0000|00|--
0000|00|--
0000|00|--
0000|00|--
0000|00|--
0000|00|--
0000|00|--
0000|00|--
0000|00|--
0000|00|--
0000|00|--
0000|00|--
0000|00|--
0000|00|--
0000|00|--
0000|00|--
0000|00|--
0000|00|--
0000|00|--
0000|00|--
0000|00|--
0000|00|--
0000|00|--
0000|00|--
0000|00|--
0000|00|--
0000|00|--
0000|00|--
0000|00|--
0000|00|--
0000|00|--
--
0000|00|--
--
zoom_top=0
zoom_bottom=0
0000|00|ZF
0000|00|::
0000|00|::
0000|00|::
0000|00|::
0000|00|::
0000|00|::
0000|00|::
0000|00|5j
0000|00|::
0000|00|::
0000|00|::
0000|00|::
0000|00|::
zoom_top=0
0000|00|o0
0000|00|::
--
0000|00|::
0000|00|::
0000|00|KU
0000|00|::
zoom_top=-50
0000|00|FZ
0000|00|::
0000|00|KU
0000|00|::
0000|00|::
0000|00|::
0000|00|::
0000|00|::
zoom_top=-25
0000|00|o0
0000|00|::
0000|00|::
0000|00|::
0000|20|::
0000|00|::
0000|00|::
0000|00|::
0000|02|::
0000|00|::
0000|00|::
0000|00|::
1000|00|::
0000|00|::
0100|00|::
0000|00|::
0010|00|::
0000|00|::
0001|00|::
0000|00|::
--
zoom_top=-25
zoom_bottom=0
0000|00|o0
0000|00|:-
0000|00|0-
0000|00|--
zoom_bottom=-2
0000|00|--
0000|00|--
0000|00|--
0000|00|--
zoom_top=0
0010|00|--
0000|00|--
0000|00|--
0000|00|--
0000|00|--
0000|00|--
0000|00|--
0000|00|--
zoom_bottom=0
1100|00|--
0000|00|--
0000|00|--
0000|00|--
0000|00|--
0000|00|--
0000|00|--
0000|00|--
0011|00|--
0000|00|--
0000|00|--
0000|00|--
0000|00|--
0000|00|--
0000|00|--
0000|00|--
1000|20|--
0000|00|--
0000|00|--
0000|00|--
0000|00|--
0000|00|--
0000|00|--
0000|00|--
0001|00|--
0000|00|--
0000|00|--
0000|00|--
0000|00|--
0000|00|--
0000|00|--
0000|00|--
1010|00|--
0000|00|--
0000|00|--
0000|00|--
0000|00|--
0000|00|--
0000|00|--
0000|00|--
0001|00|--
0000|00|--
0000|00|--
0000|00|--
0000|00|--
0000|00|--
0000|00|--
0000|00|--
--
fx-l=
0100|10|--
0000|10|--
0010|10|--
0000|10|--
fx-r=
1100|01|--
0000|01|--
1100|01|--
0000|01|--
fx-l=
0020|11|--
0020|11|--
0020|11|--
0020|11|--
1001|00|--
0000|00|--
0100|00|--
0000|00|--
--
1001|00|--
0000|00|--
0000|00|--
0000|00|--
0110|00|--
0000|00|--
0000|00|--
0000|00|--
1001|00|--
0000|00|--
0010|00|--
0000|00|--
0100|00|--
0000|00|--
0000|00|--
0000|00|--
2000|00|--
2000|00|--
2000|00|--
2000|00|--
2010|00|--
2000|00|--
2000|00|--
2000|00|--
fx-l_se=clap;0
fx-r_se=clap;0
2000|22|--
2000|00|--
2000|00|--
2000|00|--
2010|00|--
2000|00|--
2000|00|--
2000|00|--
--
0200|00|--
0200|00|--
0200|00|--
0200|00|--
0201|00|--
0200|00|--
0200|00|--
0200|00|--
fx-l_se=clap;0
fx-r_se=clap;0
0200|22|--
0200|00|--
0200|00|--
0200|00|--
0201|00|--
0200|00|--
0200|00|--
0200|00|--
0020|00|--
0020|00|--
0020|00|--
0020|00|--
1020|00|--
0020|00|--
0020|00|--
0020|00|--
fx-l_se=clap;0
fx-r_se=clap;0
0020|22|--
0020|00|--
0120|00|--
0020|00|--
1020|00|--
0020|00|--
0120|00|--
0020|00|--
--
1002|00|--
0002|00|--
0012|00|--
0002|00|--
1102|00|--
0002|00|--
0012|00|--
0002|00|--
1200|00|--
0200|00|--
0210|00|--
0200|00|--
fx-r=
1200|01|--
0200|01|--
0200|01|--
0200|01|--
--
0021|00|--
0020|00|--
1020|00|--
0020|00|--
0121|00|--
0020|00|--
0120|00|--
0020|00|--
2001|00|--
2000|00|--
2000|00|--
2000|00|--
fx-l=
2011|10|--
2000|10|--
2000|10|--
2000|10|--
--
0000|00|-o
0000|00|-:
0000|00|-0
0000|00|--
0000|00|--
0000|00|--
0000|00|--
0000|00|--
0100|00|--
0000|00|--
0000|00|--
0000|00|--
0000|00|--
0000|00|--
0000|00|--
0000|00|--
fx-r_se=clap;0
0000|02|--
0000|00|--
0000|00|--
0000|00|--
1000|00|--
0000|00|--
0000|00|--
0000|00|--
0010|00|--
0000|00|--
0000|00|--
0000|00|--
0001|00|--
0000|00|--
0000|00|--
0000|00|--
0000|00|0-
0000|00|:-
0000|00|o-
0000|00|--
0000|00|--
0000|00|--
0000|00|--
0000|00|--
0010|00|--
0000|00|--
0000|00|--
0000|00|--
0000|00|--
0000|00|--
0000|00|--
0000|00|--
fx-l=
0001|10|--
0000|10|--
0000|10|--
0000|10|--
0100|10|--
0000|10|--
0000|10|--
0000|10|--
0001|10|--
0000|10|--
0000|10|--
0000|10|--
0100|10|--
0000|10|--
0000|10|--
0000|10|--
--
fx-r=
1000|01|--
0000|01|--
0100|01|--
0000|01|--
0010|01|--
0000|01|--
0001|01|--
0000|01|--
fx-l=
0000|10|--
0000|10|--
0000|10|--
0000|10|--
fx-r=
0001|11|--
0000|11|--
0010|11|--
0000|11|--
0100|01|--
0000|01|--
1000|01|--
0000|01|--
fx-l=
0000|10|--
0000|10|--
0000|10|--
0000|10|--
zoom_bottom=0
fx-r=
0000|01|--
0000|01|--
0000|01|--
0000|01|--
0000|01|--
0000|01|--
0000|01|--
0000|01|--
--
zoom_bottom=-50
laserrange_l=2x
0001|00|M-
0000|00|:-
0000|00|:-
0000|00|:-
0000|00|:-
0000|00|:-
0000|00|:-
0000|00|:-
0010|00|:-
0000|00|:-
0000|00|:-
0000|00|:-
0000|00|:-
0000|00|:-
0000|00|:-
0000|00|:-
0001|00|:-
0000|00|:-
0000|00|:-
0000|00|:-
0000|00|:-
0000|00|:-
0000|00|:-
0000|00|:-
0100|00|:-
0000|00|:-
0000|00|:-
0000|00|:-
0000|00|:-
0000|00|:-
0000|00|:-
0000|00|:-
0001|00|:-
0000|00|:-
0000|00|:-
0000|00|:-
0000|00|:-
0000|00|:-
0000|00|:-
0000|00|:-
0000|02|:-
0000|00|:-
0000|00|:-
0000|00|:-
0000|00|:-
0000|00|:-
0000|00|:-
0000|00|:-
0000|00|C-
0000|00|:-
0000|00|j-
0000|00|:-
0000|00|:-
0000|00|:-
0000|00|:-
0000|00|:-
0000|00|:-
0000|00|:-
0000|00|:-
0000|00|:-
0000|00|:-
0000|00|:-
0000|00|:-
0000|00|:-
--
laserrange_r=2x
1000|00|:R
0000|00|::
0000|00|::
0000|00|::
0000|00|::
0000|00|::
0000|00|::
0000|00|::
0100|00|::
0000|00|::
0000|00|::
0000|00|::
0000|00|::
0000|00|::
0000|00|::
0000|00|::
1000|00|::
0000|00|::
0000|00|::
0000|00|::
0000|00|::
0000|00|::
0000|00|::
0000|00|::
0010|00|::
0000|00|::
0000|00|::
0000|00|::
0000|00|::
0000|00|::
0000|00|::
0000|00|::
1000|00|::
0000|00|::
0000|00|::
0000|00|::
0000|00|::
0000|00|::
0000|00|::
0000|00|::
0000|20|::
0000|00|::
0000|00|::
0000|00|::
0000|00|::
0000|00|::
0000|00|::
0000|00|::
0000|00|:b
0000|00|::
0000|00|:C
0000|00|::
0000|00|::
0000|00|::
0000|00|::
0000|00|::
0000|00|::
0000|00|::
0000|00|::
0000|00|::
0000|00|::
0000|00|::
0000|00|::
0000|00|::
--
0000|00|j:
0000|00|::
0000|00|::
0000|00|::
0000|00|::
0000|00|::
0000|00|0:
0000|00|::
0000|00|::
0000|00|::
0000|00|::
0000|00|::
0000|00|0:
0000|00|::
0000|00|::
0000|00|::
0000|00|::
0000|00|::
0000|00|P:
0000|00|::
0000|00|::
0000|00|::
0000|00|::
0000|00|::
0000|00|:C
0000|00|::
0000|00|::
0000|00|::
0000|00|::
0000|00|::
0000|00|:b
0000|00|::
0000|00|::
0000|00|::
0000|00|::
0000|00|::
0000|00|P:
0000|00|::
0000|00|::
0000|00|::
0000|00|::
0000|00|::
0000|00|o:
0000|00|::
0000|00|::
0000|00|::
0000|00|::
0000|00|::
0000|00|o:
0000|00|::
0000|00|::
0000|00|::
0000|00|::
0000|00|::
0000|00|P:
0000|00|::
0000|00|::
0000|00|::
0000|00|::
0000|00|::
0000|00|:b
0000|00|::
0000|00|::
0000|00|::
0000|00|::
0000|00|::
0000|00|:C
0000|00|::
0000|00|::
0000|00|::
0000|00|::
0000|00|::
0000|00|P:
0000|00|::
0000|00|::
0000|00|::
0000|00|::
0000|00|::
0000|00|2:
0000|00|::
0000|00|::
0000|00|::
0000|00|::
0000|00|::
0000|00|:C
0000|00|::
0000|00|::
0000|00|::
0000|00|::
0000|00|::
0000|00|:2
0000|00|:-
0000|00|:-
0000|00|:-
0000|00|:-
0000|00|:-
0000|00|2-
0000|00|:-
0000|00|:-
0000|00|:-
0000|00|:-
0000|00|:-
0000|00|C-
0000|00|:-
0000|00|:-
0000|00|:-
0000|00|:-
0000|00|:-
0000|00|:-
0000|00|:-
0000|00|:-
0000|00|:-
0000|00|C-
0000|00|:-
0000|00|:-
0000|00|:-
0000|00|:-
0000|00|:-
0000|00|P-
0000|00|:-
0000|00|:-
0000|00|:-
0000|00|:-
0000|00|:-
0000|00|:-
0000|00|:-
0000|00|:-
0000|00|:-
0000|00|P-
0000|00|:-
0000|00|:-
0000|00|:-
0000|00|:-
0000|00|:-
0000|00|b-
0000|00|--
0000|00|--
0000|00|--
0000|00|--
0000|00|--
0000|00|--
0000|00|--
0000|00|--
0000|00|--
laserrange_r=2x
0000|00|-7
0000|00|-:
0000|00|-:
0000|00|-:
0000|00|-:
0000|00|-:
0000|00|-K
0000|00|-:
0000|00|-:
0000|00|-:
0000|00|-:
0000|00|-:
0000|00|-:
0000|00|-:
0000|00|-:
0000|00|-:
0000|00|-K
0000|00|-:
0000|00|-:
0000|00|-:
0000|00|-:
0000|00|-:
0000|00|-X
0000|00|-:
0000|00|-:
0000|00|-:
0000|00|-:
0000|00|-:
0000|00|-:
0000|00|-:
0000|00|-:
0000|00|-:
0000|00|-X
0000|00|-:
0000|00|-:
0000|00|-:
0000|00|-:
0000|00|-:
0000|00|-j
0000|00|--
0000|00|--
0000|00|--
0000|00|--
0000|00|--
0000|00|--
0000|00|--
0000|00|--
0000|00|--
--
zoom_bottom=-50
0110|00|--
0000|00|--
0000|00|--
0000|00|--
fx-r_se=clap;0
0000|02|--
0000|00|--
0000|00|--
0000|00|--
fx-r_se=clap;0
0000|02|--
0000|00|--
0000|00|--
0000|00|--
1100|00|--
0000|00|--
0000|00|--
0000|00|--
fx-r_se=clap;0
0000|02|--
0000|00|--
0000|00|--
0000|00|--
fx-r_se=clap;0
0000|02|--
0000|00|--
0000|00|--
0000|00|--
fx-l_se=clap;0
0000|20|--
0000|00|--
0000|00|--
0000|00|--
0000|00|--
0000|00|--
fx-r_se=clap;0
zoom_bottom=-100
0000|02|--
0000|00|--
0000|00|--
0000|00|--
0000|00|--
0000|00|--
zoom_bottom=-100
laserrange_l=2x
0000|00|7-
0000|00|:-
0000|00|:-
0000|00|:-
0000|00|:-
0000|00|:-
0000|00|:-
0000|00|:-
0000|00|:-
0000|00|:-
0000|00|:-
0000|00|:-
--
zoom_bottom=-50
laserrange_r=2x
0000|00|hh@(192
0000|00|::
0000|00|77
0000|00|--
0000|00|--
0000|00|--
0000|00|--
0000|00|--
0000|00|--
0000|00|--
0000|00|--
0000|00|--
0000|00|--
0000|00|--
0000|00|--
0000|00|--
0000|00|--
0000|00|--
0000|00|--
0000|00|--
0000|00|--
0000|00|--
0000|00|--
0000|00|--
0000|00|--
0000|00|--
0000|00|--
0000|00|--
0000|00|--
0000|00|--
0000|00|--
0000|00|--
0000|00|--
0000|00|--
0000|00|--
0000|00|--
0000|00|--
0000|00|--
0000|00|--
0000|00|--
0000|00|--
0000|00|--
0000|00|--
0000|00|--
0000|00|--
0000|00|--
0000|00|--
0000|00|--
0000|00|--
0000|00|--
0000|00|--
0000|00|--
0000|00|--
0000|00|--
0000|00|--
0000|00|--
0000|00|--
0000|00|--
0000|00|--
0000|00|--
0000|00|--
0000|00|--
0000|00|--
0000|00|--
--
0000|00|--
--
zoom_bottom=0
0000|00|--
0000|00|--
fx-l=
2020|10|--
2020|10|--
--
fx-r=
2002|01|--
2002|01|--
2202|01|--
2202|01|--
--
fx-l=
0222|10|--
0222|10|--
0222|10|--
0222|10|--
0222|10|--
0222|10|--
fx-r=
2020|01|--
2020|01|--
2020|01|--
2020|01|--
2020|01|--
2020|01|--
fx-l=
0220|11|--
0220|11|--
0220|11|--
0220|11|--
--
0220|11|--
0220|11|--
0220|11|--
0220|11|--
0220|11|--
0220|11|--
0220|00|--
0220|00|--
--
fx-l=
fx-r=
2002|11|--
2002|11|--
2002|11|--
2002|11|--
2002|11|--
2002|11|--
0000|00|--
0000|00|--
--
2020|00|-o
2020|00|-:
2020|00|-:
2020|00|-:
2020|00|-:
2020|00|-:
2020|00|-K
2020|00|-:
2020|00|-:
2020|00|-:
0000|00|-A
0000|00|-:
0000|00|-:
0000|00|-:
0000|00|-:
0000|00|-:
0202|00|-5
0202|00|-:
0202|00|-:
0202|00|-:
0202|00|-:
0202|00|-:
0202|00|-A
0202|00|-:
0202|00|-:
0202|00|-:
0000|00|-P
0000|00|-:
0000|00|-:
0000|00|-:
0000|00|-:
0000|00|-:
--
0220|00|-o
0220|00|-:
0220|00|-:
0220|00|-:
0220|00|-:
0220|00|-:
0220|00|-K
0220|00|-:
0220|00|-Z
0220|00|-:
0220|00|-:
0220|00|-:
0220|00|-:
0220|00|-:
0220|00|-:
0220|00|-:
--
0220|00|-0
0220|00|-:
0220|00|-:
0220|00|-:
0220|00|-:
0220|00|-:
0220|00|-U
0220|00|-:
0220|00|-F
0220|00|-:
0220|00|-:
0220|00|-:
0220|00|-:
0220|00|-:
0220|00|-:
0220|00|-:
--
0000|00|-o
0000|00|--
0000|00|--
0000|00|--
0000|00|--
0000|00|--
0000|00|--
0000|00|--
0000|00|--
0000|00|--
0000|00|--
0000|00|--
0000|00|--
0000|00|--
0000|00|--
0000|00|--
0000|00|--
0000|00|--
0000|00|--
0000|00|--
0000|00|--
0000|00|--
0000|00|--
0000|00|--
0000|00|--
0000|00|--
0000|00|--
0000|00|--
0000|00|--
0000|00|--
0000|00|--
0000|00|--
0000|00|--
0000|00|--
0000|00|--
0000|00|--
0000|00|--
0000|00|--
0000|00|--
0000|00|--
0000|00|--
0000|00|--
0000|00|--
0000|00|--
0000|00|--
0000|00|--
0000|00|--
0000|00|--
2020|00|P-
2020|00|:-
2020|00|:-
2020|00|:-
2020|00|:-
2020|00|:-
2020|00|:-
2020|00|:-
2020|00|:-
2020|00|:-
2020|00|:-
2020|00|:-
2020|00|A-
2020|00|:-
2020|00|:-
2020|00|:-
2020|00|:-
2020|00|:-
2020|00|:-
2020|00|:-
2020|00|:-
2020|00|:-
2020|00|:-
2020|00|:-
2020|00|5-
2020|00|:-
2020|00|:-
2020|00|:-
2020|00|:-
2020|00|:-
2020|00|7-
2020|00|:-
0000|00|:-
0000|00|:-
0000|00|:-
0000|00|:-
0000|00|:-
0000|00|:-
0000|00|:-
0000|00|:-
0000|00|:-
0000|00|:-
0000|00|:-
0000|00|:-
0000|00|:-
0000|00|:-
0000|00|:-
0000|00|:-
--
0202|00|P-
0202|00|:-
0202|00|:-
0202|00|:-
0202|00|:-
0202|00|:-
0202|00|:-
0202|00|:-
0202|00|:-
0202|00|:-
0202|00|:-
0202|00|:-
0202|00|e-
0202|00|:-
0202|00|:-
0202|00|:-
0202|00|:-
0202|00|:-
0202|00|:-
0202|00|:-
0202|00|:-
0202|00|:-
0202|00|:-
0202|00|:-
0202|00|j-
0202|00|:-
0202|00|:-
0202|00|:-
0202|00|:-
0202|00|:-
0202|00|h-
0202|00|:-
0000|00|:-
0000|00|:-
0000|00|:-
0000|00|:-
0000|00|:-
0000|00|:-
0000|00|:-
0000|00|:-
0000|00|:-
0000|00|:-
0000|00|:-
0000|00|:-
0000|00|:-
0000|00|:-
0000|00|:-
0000|00|:-
0220|00|:-
0220|00|:-
0220|00|:-
0220|00|:-
0220|00|:-
0220|00|:-
0220|00|:-
0220|00|:-
0220|00|:-
0220|00|:-
0220|00|:-
0220|00|:-
0220|00|:-
0220|00|:-
0220|00|:-
0220|00|:-
0220|00|:-
0220|00|:-
0220|00|5-
0220|00|:-
0220|00|:-
0220|00|:-
0220|00|:-
0220|00|:-
0220|00|0-
0220|00|:-
0220|00|:-
0220|00|:-
0220|00|:-
0220|00|:-
0220|00|:-
0220|00|:-
0000|00|:-
0000|00|:-
0000|00|:-
0000|00|:-
0000|00|:-
0000|00|:-
0000|00|:-
0000|00|:-
0000|00|:-
0000|00|:-
0000|00|:-
0000|00|:-
0000|00|:-
0000|00|:-
0000|00|:-
0000|00|:-
--
fx-r=
0200|01|0-
0200|01|:-
0200|01|:-
0200|01|:-
0200|01|:-
0200|01|:-
0200|01|:-
0200|01|:-
0200|01|:-
0200|01|:-
0000|00|:-
0000|00|:-
0000|00|:-
0000|00|:-
0000|00|:-
0000|00|:-
0000|00|:-
0000|00|:-
fx-l=
0020|10|o-
0020|10|:-
0020|10|:-
0020|10|:-
0020|10|:-
0020|10|:-
0020|10|:-
0020|10|:-
0020|10|:-
0020|10|:-
0000|00|:-
0000|00|:-
0000|00|:-
0000|00|:-
0000|00|:-
0000|00|:-
0000|00|:-
0000|00|:-
2220|00|0-
2220|00|:-
2220|00|:-
2220|00|:-
2220|00|:-
2220|00|:-
2220|00|:-
2220|00|:-
2220|00|:-
2220|00|:-
2220|00|:-
2220|00|:-
--
2220|00|:-
2220|00|:-
2220|00|:-
2220|00|:-
2220|00|:-
2220|00|:-
2220|00|U-
2220|00|:-
2220|00|:-
2220|00|:-
2220|00|:-
2220|00|:-
2220|00|F-
2220|00|:-
2220|00|:-
2220|00|:-
2220|00|:-
2220|00|:-
2220|00|:-
2220|00|:-
2220|00|:-
2220|00|:-
2220|00|:-
2220|00|:-
2220|00|:-
2220|00|:-
2220|00|:-
2220|00|:-
2220|00|:-
2220|00|:-
2220|00|:-
2220|00|:-
2220|00|:-
2220|00|:-
2220|00|:-
2220|00|:-
2220|00|o-
2220|00|:-
2220|00|:-
2220|00|:-
0000|00|:-
0000|00|:-
0000|00|:-
0000|00|:-
0000|00|:-
0000|00|:-
0000|00|:-
0000|00|:-
--
zoom_bottom=0
0222|00|o-
0222|00|:-
0222|00|:-
0222|00|:-
0222|00|:-
0222|00|:-
0222|00|:-
0222|00|:-
0222|00|:-
0222|00|:-
0222|00|:-
0222|00|:-
0222|00|:-
0222|00|:-
0222|00|:-
0222|00|:-
0222|00|:-
0222|00|:-
0222|00|K-
0222|00|:-
0222|00|:-
0222|00|:-
0222|00|:-
0222|00|:-
0222|00|Z-
0222|00|:-
0222|00|:-
0222|00|:-
0222|00|:-
0222|00|:-
0222|00|:-
0222|00|:-
0222|00|:-
0222|00|:-
0222|00|:-
0222|00|:-
0222|00|:-
0222|00|:-
0222|00|:-
0222|00|:-
0000|00|:-
0000|00|:-
0000|00|:-
0000|00|:-
0000|00|:-
0000|00|:-
0000|00|:-
0000|00|:-
--
fx-l_se=clap;0
fx-r_se=clap;0
zoom_top=0
zoom_bottom=50
0000|22|0-
0000|00|--
zoom_top=-50
zoom_bottom=50
2200|00|--
2200|00|--
fx-l_se=clap;0
0220|20|--
0220|00|--
zoom_top=-50
0022|00|--
0022|00|--
--
zoom_top=0
zoom_bottom=0
fx-r=
0000|01|P-
0000|01|:-
0000|01|0-
0000|01|--
0000|01|--
0000|01|--
0000|01|--
0000|01|--
0100|01|--
0000|01|--
0000|01|--
0000|01|--
0000|01|--
0000|01|--
0000|01|--
0000|01|--
1001|01|--
0000|01|--
0000|01|--
0000|01|--
0000|01|--
0000|01|--
0000|01|--
0000|01|--
0010|01|--
0000|01|--
0000|01|--
0000|01|--
0000|01|--
0000|01|--
0000|01|--
0000|01|--
0001|21|--
0000|01|--
0000|01|--
0000|01|--
0000|01|--
0000|01|--
0000|01|--
0000|01|--
0100|01|--
0000|01|--
0000|01|--
0000|01|--
0000|01|--
0000|01|--
0000|01|--
0000|01|--
1001|01|--
0000|01|--
0000|01|--
0000|01|--
0000|01|--
0000|01|--
0000|01|--
0000|01|--
0010|01|--
0000|01|--
0000|01|--
0000|01|--
0000|01|--
0000|01|--
0000|01|--
0000|01|--
--
fx-l=
0000|10|--
0000|10|--
0010|10|--
0000|10|--
1001|10|--
0000|10|--
0100|10|--
0000|10|--
1000|12|--
0000|10|--
0010|10|--
0000|10|--
1001|10|--
0000|10|--
0100|10|--
0000|10|--
--
fx-r=
0000|11|--
0000|11|--
0000|11|--
0000|11|--
0220|00|--
0220|00|--
0220|02|--
0220|00|--
2200|00|--
2200|00|--
2201|00|--
2200|00|--
0220|00|--
0220|00|--
0220|20|--
0220|00|--
--
0022|00|--
0022|00|--
1022|00|--
0022|00|--
0220|00|--
0220|00|--
0220|02|--
0220|00|--
2200|00|--
2200|00|--
2201|00|--
2200|00|--
0220|00|--
0220|00|--
0220|20|--
0220|00|--
--
2002|00|--
2002|00|--
2002|00|--
2002|00|--
2012|20|--
2002|00|--
2012|20|--
2002|00|--
2002|00|--
2002|00|--
2102|02|--
2002|00|--
2102|02|--
2002|00|--
2002|00|--
2002|00|--
--
fx-l=
0220|10|--
0220|10|--
0220|10|--
0220|10|--
0220|10|--
0220|10|--
0220|10|--
0220|10|--
fx-r=
0202|01|--
0202|01|--
0202|01|--
0202|01|--
0202|01|--
0202|01|--
0202|01|--
0202|01|--
0220|20|--
0220|00|--
0220|00|--
0220|00|--
0220|00|--
0220|00|--
fx-r_se=clap;0
0200|02|--
0200|00|--
fx-l_se=clap;0
0000|20|--
0000|00|--
0000|00|--
0000|00|--
fx-l_se=clap;0
0000|20|--
0000|00|--
0000|00|--
0000|00|--
--
laserrange_r=2x
1000|00|-P
0000|00|-:
0000|00|-b
0000|00|-:
0000|00|-:
0000|00|-:
0000|00|-:
0000|00|-:
0100|00|-:
0000|00|-:
0000|00|-:
0000|00|-:
0000|00|-:
0000|00|-:
0000|00|-:
0000|00|-:
fx-l_se=clap;0
0010|20|-:
0000|00|-:
0000|00|-:
0000|00|-:
0000|00|-:
0000|00|-:
0000|00|-:
0000|00|-:
0001|00|-:
0000|00|-:
0000|00|-:
0000|00|-:
0000|00|-:
0000|00|-:
0000|00|-:
0000|00|-:
laserrange_l=2x
0001|00|P:
0000|00|::
0000|00|C:
0000|00|::
0000|00|::
0000|00|::
0000|00|::
0000|00|::
0010|00|::
0000|00|::
0000|00|::
0000|00|::
0000|00|::
0000|00|::
0000|00|::
0000|00|::
fx-r_se=clap;0
0100|02|::
0000|00|::
0000|00|::
0000|00|::
0000|00|::
0000|00|::
0000|00|::
0000|00|::
1000|00|::
0000|00|::
0000|00|::
0000|00|::
0000|00|::
0000|00|::
0000|00|::
0000|00|::
--
0000|20|::
0000|00|::
0000|00|::
0000|00|::
0000|02|::
0000|00|::
0000|00|::
0000|00|::
1100|00|::
0000|00|::
0000|00|::
0000|00|::
0011|00|::
0000|00|::
0000|00|::
0000|00|::
0000|20|::
0000|00|::
0000|00|::
0000|00|::
0000|02|::
0000|00|::
0000|00|::
0000|00|::
2100|00|::
2000|00|::
2000|00|::
2000|00|::
2000|00|::
2000|00|::
2010|00|::
2000|00|::
2000|00|::
2000|00|::
2000|00|::
2000|00|::
fx-l_se=clap;0
fx-r_se=clap;0
2000|22|::
2000|00|::
2000|00|::
2000|00|::
2000|00|::
2000|00|::
2100|00|::
2000|00|::
2000|00|::
2000|00|::
2000|00|::
2000|00|::
--
zoom_bottom=0
0000|20|:b
0000|00|::
0000|00|::
0000|00|::
0000|00|::
0000|00|::
0000|00|::
0000|00|::
0000|20|::
0000|00|::
0000|00|::
0000|00|::
0000|00|::
0000|00|::
0000|00|::
0000|00|::
0100|00|::
0000|00|::
0000|00|::
0000|00|::
0000|00|::
0000|00|::
0000|00|::
0000|00|::
0100|00|::
0000|00|::
0000|00|::
0000|00|::
0000|00|::
0000|00|::
0000|00|::
0000|00|::
1000|00|::
0000|00|::
0000|00|::
0000|00|::
0000|00|::
0000|00|::
0000|00|::
0000|00|::
1000|00|::
0000|00|::
0000|00|::
0000|00|::
0000|00|::
0000|00|::
0000|00|::
0000|00|::
zoom_bottom=-25
0000|00|:K
0000|00|::
0000|00|:b
0000|00|::
0000|00|::
0000|00|::
0000|00|::
0000|00|::
0000|00|::
0000|00|::
0000|00|::
0000|00|::
0000|00|::
0000|00|::
0000|00|::
0000|00|::
--
zoom_bottom=-25
0000|02|C:
0000|00|::
0000|00|::
0000|00|::
0000|00|::
0000|00|::
0000|00|::
0000|00|::
0000|02|::
0000|00|::
0000|00|::
0000|00|::
0000|00|::
0000|00|::
0000|00|::
0000|00|::
0010|00|::
0000|00|::
0000|00|::
0000|00|::
0000|00|::
0000|00|::
0000|00|::
0000|00|::
0010|00|::
0000|00|::
0000|00|::
0000|00|::
0000|00|::
0000|00|::
0000|00|::
0000|00|::
0001|00|::
0000|00|::
0000|00|::
0000|00|::
0000|00|::
0000|00|::
0000|00|::
0000|00|::
0001|00|::
0000|00|::
0000|00|::
0000|00|::
0000|00|::
0000|00|::
0000|00|::
0000|00|::
zoom_bottom=-50
0000|00|U:
0000|00|::
0000|00|C:
0000|00|::
0000|00|::
0000|00|::
0000|00|::
0000|00|::
0000|00|::
0000|00|::
0000|00|::
0000|00|::
0000|00|::
0000|00|::
0000|00|::
0000|00|::
--
0100|00|:b
0000|00|::
0000|00|::
0000|00|::
0000|00|::
0000|00|::
0000|00|::
0000|00|::
0010|00|::
0000|00|::
0000|00|::
0000|00|::
0000|00|::
0000|00|::
0000|00|::
0000|00|::
0100|00|:o
0000|00|::
0000|00|::
0000|00|::
0000|00|::
0000|00|::
0000|00|::
0000|00|::
0001|00|::
0000|00|::
0000|00|::
0000|00|::
0000|00|::
0000|00|::
0000|00|::
0000|00|::
0100|00|::
0000|00|::
0000|00|::
0000|00|::
0000|00|::
0000|00|::
0000|00|::
0000|00|::
0000|02|::
0000|00|::
0000|00|::
0000|00|::
0000|00|::
0000|00|::
0000|00|::
0000|00|::
0000|00|:P
0000|00|::
0000|00|:m
0000|00|::
0000|00|::
0000|00|::
0000|00|::
0000|00|::
0000|00|::
0000|00|::
0000|00|::
0000|00|::
0000|00|::
0000|00|::
0000|00|::
0000|00|::
--
0010|00|C:
0000|00|::
0000|00|::
0000|00|::
0000|00|::
0000|00|::
0000|00|::
0000|00|::
0100|00|::
0000|00|::
0000|00|::
0000|00|::
0000|00|::
0000|00|::
0000|00|::
0000|00|::
0010|00|0:
0000|00|::
0000|00|::
0000|00|::
0000|00|::
0000|00|::
0000|00|::
0000|00|::
1000|00|::
0000|00|::
0000|00|::
0000|00|::
0000|00|::
0000|00|::
0000|00|::
0000|00|::
0010|00|::
0000|00|::
0000|00|::
0000|00|::
0000|00|::
0000|00|::
0000|00|::
0000|00|::
0000|20|::
0000|00|::
0000|00|::
0000|00|::
0000|00|::
0000|00|::
0000|00|::
0000|00|::
0000|00|P:
0000|00|::
0000|00|2:
0000|00|::
0000|00|::
0000|00|::
0000|00|::
0000|00|::
0000|00|::
0000|00|::
0000|00|::
0000|00|::
0000|00|::
0000|00|::
0000|00|::
0000|00|::
--
zoom_top=0
zoom_bottom=-50
0010|00|::
0000|00|::
1000|00|::
0000|00|::
0010|00|::
0000|00|::
1000|00|::
0000|00|::
0000|02|::
0000|00|::
0000|20|::
0000|00|::
0000|02|::
0000|00|::
0000|20|::
0000|00|::
0001|00|::
0000|00|::
0100|00|::
0000|00|::
0001|00|::
0000|00|::
0100|00|::
0000|00|::
zoom_top=25
zoom_bottom=-100
fx-r=
0000|01|::
0000|01|::
0000|01|::
0000|01|::
0000|01|::
0000|01|::
0000|01|::
0000|01|::
--
zoom_top=25
zoom_bottom=-50
1100|00|::
0000|00|::
0010|00|::
0000|00|::
1100|00|::
0000|00|::
0010|00|::
0000|00|::
1000|00|::
0000|00|::
0011|00|::
0000|00|::
1000|00|::
0000|00|::
0011|00|::
0000|00|::
1100|00|::
0000|00|::
0001|00|::
0000|00|::
1100|00|::
0000|00|::
0001|00|::
0000|00|::
0100|00|::
0000|00|::
0011|00|::
0000|00|::
0100|00|::
0000|00|::
0011|00|::
0000|00|::
--
zoom_top=50
zoom_bottom=-100
0000|00|2m@)48
0000|00|:-
0000|00|m-
0000|00|--
0000|00|--
0000|00|--
0000|00|--
0000|00|--
0000|00|--
0000|00|--
0000|00|--
0000|00|--
0000|00|--
0000|00|--
0000|00|--
0000|00|--
0000|00|--
0000|00|--
0000|00|--
0000|00|--
0000|00|--
0000|00|--
0000|00|--
0000|00|--
0000|00|--
0000|00|--
0000|00|--
0000|00|--
0000|00|--
0000|00|--
0000|00|--
0000|00|--
0000|00|--
0000|00|--
0000|00|--
0000|00|--
0000|00|--
0000|00|--
0000|00|--
0000|00|--
0000|00|--
0000|00|--
0000|00|--
0000|00|--
0000|00|--
0000|00|--
0000|00|--
0000|00|--
0000|00|--
0000|00|--
0000|00|--
0000|00|--
0000|00|--
0000|00|--
0000|00|--
0000|00|--
0000|00|--
0000|00|--
0000|00|--
0000|00|--
0000|00|--
0000|00|--
0000|00|--
0000|00|--
--
zoom_top=0
1010|00|--
0000|00|--
0000|20|--
0000|00|--
0101|00|--
0000|00|--
0000|02|--
0000|00|--
fx-l_se=clap;0
0000|20|--
0000|00|--
fx-l_se=clap;0
0000|20|--
0000|00|--
fx-r_se=clap;0
zoom_bottom=-100
0000|02|--
zoom_bottom=-50
0000|00|--
0000|00|--
0000|00|--
--
laserrange_l=2x
0220|00|7-
0220|00|:-
0220|00|h-
0220|00|:-
0220|00|:-
0220|00|:-
0220|00|:-
0220|00|:-
0220|00|:-
0220|00|:-
0220|00|:-
0220|00|:-
0220|00|:-
0220|00|:-
0220|00|:-
0220|00|:-
0220|00|:-
0220|00|:-
0220|00|:-
0220|00|:-
0220|00|:-
0220|00|:-
0220|00|:-
0220|00|:-
fx-l=
fx-r=
0000|11|h-
0000|11|:-
0000|11|U-
0000|11|:-
0000|11|U-
0000|11|:-
0000|11|K-
0000|11|:-
0000|11|K-
0000|11|:-
0000|11|7-
0000|11|:-
0000|11|:-
0000|11|:-
0000|11|:-
0000|11|:-
0000|11|7-
0000|11|:-
0000|11|P-
0000|11|:-
0000|11|:-
0000|11|:-
0000|11|:-
0000|11|:-
0000|11|P-
0000|11|:-
0000|11|:-
0000|11|:-
0000|11|:-
0000|11|:-
0000|11|:-
0000|11|:-
0000|11|P-
0000|11|:-
0000|11|h-
0000|11|:-
0000|11|:-
0000|11|:-
0000|11|:-
0000|11|:-
--
0000|00|h-
0000|00|:-
0000|00|7-
0000|00|:-
0000|00|:-
0000|00|:-
0000|00|:-
0000|00|:-
laserrange_r=2x
0000|00|7U
0000|00|::
0000|00|Pm
0000|00|:-
0000|00|:-
0000|00|:-
0000|00|:-
0000|00|:-
0000|00|:-
0000|00|:-
0000|00|:-
0000|00|:-
laserrange_r=2x
0000|00|PK
0000|00|::
0000|00|h2
0000|00|--
0000|00|--
0000|00|--
0000|00|--
0000|00|--
0000|00|--
0000|00|--
0000|00|--
0000|00|--
laserrange_r=2x
0000|00|-h
0000|00|-:
0000|00|-7
0000|00|-:
0000|00|-:
0000|00|-:
0000|00|-:
0000|00|-:
laserrange_l=2x
0000|00|U7
0000|00|::
0000|00|mP
0000|00|-:
0000|00|-:
0000|00|-:
0000|00|-:
0000|00|-:
0000|00|-:
0000|00|-:
0000|00|-:
0000|00|-:
laserrange_l=2x
0000|00|KP
0000|00|::
0000|00|2h
0000|00|-:
0000|00|-:
0000|00|-:
0000|00|-:
0000|00|-:
0000|00|-:
0000|00|-:
0000|00|-:
0000|00|-:
--
fx-l=
fx-r=
0000|11|-h@(48
0000|11|-:
0000|11|-7
0000|11|-:
0000|11|-:
0000|11|-:
0000|11|-:
0000|11|-:
0000|11|-:
0000|11|-:
0000|11|-:
0000|11|-:
0000|11|-:
0000|11|-:
0000|11|-:
0000|11|-:
0000|11|-:
0000|11|-:
0000|11|-:
0000|11|-:
0000|11|-:
0000|11|-:
0000|11|-:
0000|11|-:
0000|11|-:
0000|11|-:
0000|11|-:
0000|11|-:
0000|11|-:
0000|11|-:
0000|11|-:
0000|11|-:
0000|11|PP
0000|11|::
0000|11|::
0000|11|::
0000|11|::
0000|11|::
0000|11|::
0000|11|::
0000|11|::
0000|11|::
0000|11|::
0000|11|::
0000|11|::
0000|11|::
0000|11|::
0000|11|::
0000|11|::
0000|11|::
0000|11|::
0000|11|::
0000|11|::
0000|11|::
0000|11|::
0000|11|::
0000|11|::
0000|11|::
0000|11|::
0000|11|::
0000|11|::
0000|11|::
0000|11|::
0000|11|::
--
zoom_top=0
zoom_bottom=-50
0001|00|::
0000|00|::
1000|00|::
0000|00|::
0001|00|::
0000|00|::
1000|00|::
0000|00|::
0001|00|::
0000|00|::
1000|00|::
0000|00|::
0001|00|::
0000|00|::
1000|00|::
0000|00|::
0001|00|::
0000|00|::
1000|00|::
0000|00|::
0001|00|::
0000|00|::
1000|00|::
0000|00|::
fx-l_se=clap;0
fx-r_se=clap;0
zoom_top=-25
zoom_bottom=100
0000|22|PP
0000|00|--
0000|00|--
0000|00|--
zoom_top=0
zoom_bottom=0
0000|00|--
0000|00|--
0000|00|--
0000|00|--
--
0102|00|0-
0002|00|:-
0002|00|:-
0002|00|:-
0002|00|:-
0002|00|:-
0002|00|:-
0002|00|:-
0002|00|:-
0002|00|:-
0002|00|:-
0002|00|:-
0002|00|:-
0002|00|:-
0002|00|:-
0002|00|:-
0012|00|:-
0002|00|:-
0002|00|:-
0002|00|:-
0002|00|:-
0002|00|:-
0002|00|:-
0002|00|:-
0002|00|:-
0002|00|:-
0002|00|:-
0002|00|:-
0002|00|:-
0002|00|:-
0002|00|:-
0002|00|:-
0002|02|:-
0002|00|:-
0002|00|:-
0002|00|:-
0002|00|:-
0002|00|:-
0002|00|:-
0002|00|:-
0002|00|:-
0002|00|:-
0002|00|:-
0002|00|:-
0002|00|:-
0002|00|:-
0002|00|:-
0002|00|:-
0000|02|e-
0000|00|:-
0000|00|0-
0000|00|:-
0000|00|:-
0000|00|:-
0000|00|:-
0000|00|:-
0000|00|:-
0000|00|:-
0000|00|:-
0000|00|:-
0000|00|:-
0000|00|:-
0000|00|:-
0000|00|:-
--
2010|00|:o
2000|00|::
2000|00|::
2000|00|::
2000|00|::
2000|00|::
2000|00|::
2000|00|::
2000|00|::
2000|00|::
2000|00|::
2000|00|::
2000|00|::
2000|00|::
2000|00|::
2000|00|::
2100|00|::
2000|00|::
2000|00|::
2000|00|::
2000|00|::
2000|00|::
2000|00|::
2000|00|::
2000|00|::
2000|00|::
2000|00|::
2000|00|::
2000|00|::
2000|00|::
2000|00|::
2000|00|::
2000|20|::
2000|00|::
2000|00|::
2000|00|::
2000|00|::
2000|00|::
2000|00|::
2000|00|::
2000|00|::
2000|00|::
2000|00|::
2000|00|::
2000|00|::
2000|00|::
2000|00|::
2000|00|::
0000|20|:A
0000|00|::
0000|00|:o
0000|00|::
0000|00|::
0000|00|::
0000|00|::
0000|00|::
0000|00|::
0000|00|::
0000|00|::
0000|00|::
0000|00|::
0000|00|::
0000|00|::
0000|00|::
--
fx-r=
0020|01|0:
0020|01|::
0020|01|::
0020|01|::
0020|01|::
0020|01|::
0020|01|::
0020|01|::
0020|01|e:
0020|01|::
0020|01|::
0020|01|::
0020|01|::
0020|01|::
0020|01|::
0020|01|::
0000|00|o:
0000|00|::
0000|00|0:
0000|00|::
0000|00|::
0000|00|::
0000|00|::
0000|00|::
0000|00|::
0000|00|::
0000|00|::
0000|00|::
0000|00|::
0000|00|::
0000|00|::
0000|00|::
fx-l=
0200|10|:o
0200|10|::
0200|10|::
0200|10|::
0200|10|::
0200|10|::
0200|10|::
0200|10|::
0200|10|:A
0200|10|::
0200|10|::
0200|10|::
0200|10|::
0200|10|::
0200|10|::
0200|10|::
0000|00|:0
0000|00|::
0000|00|:o
0000|00|::
0000|00|::
0000|00|::
0000|00|::
0000|00|::
0000|00|::
0000|00|::
0000|00|::
0000|00|::
0000|00|::
0000|00|::
0000|00|::
0000|00|::
--
0000|00|0:
0000|00|::
0000|00|::
0000|00|::
0000|00|::
0000|00|::
0000|00|o:
0000|00|::
0000|00|::
0000|00|::
0000|00|::
0000|00|::
0000|00|::
0000|00|::
0000|00|::
0000|00|::
0000|00|:o
0000|00|::
0000|00|::
0000|00|::
0000|00|::
0000|00|::
0000|00|:P
0000|00|::
0000|00|::
0000|00|::
0000|00|::
0000|00|::
0000|00|::
0000|00|::
0000|00|::
0000|00|::
0000|00|:P
0000|00|::
0000|00|::
0000|00|::
0000|00|::
0000|00|::
0000|00|:0
0000|00|::
0000|00|::
0000|00|::
0000|00|::
0000|00|::
0000|00|::
0000|00|::
0000|00|::
0000|00|::
0000|00|o:
0000|00|::
0000|00|::
0000|00|::
0000|00|::
0000|00|::
0000|00|0:
0000|00|::
0000|00|::
0000|00|::
0000|00|::
0000|00|::
0000|00|::
0000|00|::
0000|00|::
0000|00|::
0000|00|:0
0000|00|::
0000|00|::
0000|00|::
0000|00|::
0000|00|::
0000|00|:P
0000|00|::
0000|00|::
0000|00|::
0000|00|::
0000|00|::
0000|00|::
0000|00|::
0000|00|::
0000|00|::
0000|00|:P
0000|00|::
0000|00|::
0000|00|::
0000|00|::
0000|00|::
0000|00|:o
0000|00|::
0000|00|::
0000|00|::
0000|00|::
0000|00|::
0000|00|::
0000|00|::
0000|00|::
0000|00|::
0000|00|0o
0000|00|:-
0000|00|:-
0000|00|:-
0000|00|:-
0000|00|:-
0000|00|o-
0000|00|:-
0000|00|:-
0000|00|:-
0000|00|:-
0000|00|:-
0000|00|:-
0000|00|:-
0000|00|:-
0000|00|:-
0000|00|:-
0000|00|:-
0000|00|:-
0000|00|:-
0000|00|:-
0000|00|:-
0000|00|:-
0000|00|:-
0000|00|:-
0000|00|:-
0000|00|:-
0000|00|:-
0000|00|:-
0000|00|:-
0000|00|:-
0000|00|:-
0000|00|:-
0000|00|:-
0000|00|:-
0000|00|:-
0000|00|:-
0000|00|:-
0000|00|:-
0000|00|:-
0000|00|:-
0000|00|:-
0000|00|:-
0000|00|:-
0000|00|:-
0000|00|:-
0000|00|:-
0000|00|:-
fx-l_se=clap;0
fx-r_se=clap;0
0000|22|0-
0000|00|--
0000|00|--
0000|00|--
0000|00|--
0000|00|--
0000|00|--
0000|00|--
0000|00|--
0000|00|--
0000|00|--
0000|00|--
0000|00|--
0000|00|--
0000|00|--
0000|00|--
0000|00|--
0000|00|--
0000|00|--
0000|00|--
0000|00|--
0000|00|--
0000|00|--
0000|00|--
0000|00|--
0000|00|--
0000|00|--
0000|00|--
0000|00|--
0000|00|--
0000|00|--
0000|00|--
0000|00|--
0000|00|--
0000|00|--
0000|00|--
0000|00|--
0000|00|--
0000|00|--
0000|00|--
0000|00|--
0000|00|--
0000|00|--
0000|00|--
0000|00|--
0000|00|--
0000|00|--
0000|00|--
--
0000|00|-o
0000|00|-:
0000|00|-0
0000|00|--
0000|00|--
0000|00|--
0000|00|--
0000|00|--
0100|00|--
0000|00|--
0000|00|--
0000|00|--
0000|00|--
0000|00|--
0000|00|--
0000|00|--
1011|00|--
0000|00|--
0000|00|--
0000|00|--
0000|00|--
0000|00|--
0000|00|--
0000|00|--
0100|00|--
0000|00|--
0000|00|--
0000|00|--
0000|00|--
0000|00|--
0000|00|--
0000|00|--
fx-l=
0001|10|--
0000|10|--
0000|10|--
0000|10|--
0010|10|--
0000|10|--
0000|10|--
0000|10|--
0100|10|--
0000|10|--
0000|10|--
0000|10|--
1000|10|--
0000|10|--
0000|10|--
0000|10|--
fx-r=
0000|01|--
0000|01|--
0000|01|--
0000|01|--
0000|01|--
0000|01|--
0000|01|--
0000|01|--
0000|01|--
0000|01|--
0000|01|--
0000|01|--
0000|01|--
0000|01|--
0000|01|--
0000|01|--
--
0000|00|0-
0000|00|:-
0000|00|o-
0000|00|--
0000|00|--
0000|00|--
0000|00|--
0000|00|--
0010|00|--
0000|00|--
0000|00|--
0000|00|--
0000|00|--
0000|00|--
0000|00|--
0000|00|--
1101|00|--
0000|00|--
0000|00|--
0000|00|--
0000|00|--
0000|00|--
0000|00|--
0000|00|--
0010|00|--
0000|00|--
0000|00|--
0000|00|--
0000|00|--
0000|00|--
0000|00|--
0000|00|--
fx-l=
0001|10|--
0000|10|--
0000|10|--
0000|10|--
0000|10|--
0000|10|--
0000|10|--
0000|10|--
0001|10|--
0000|10|--
0000|10|--
0000|10|--
0000|10|--
0000|10|--
0000|10|--
0000|10|--
1000|10|--
0000|10|--
0000|10|--
0000|10|--
0000|10|--
0000|10|--
0000|10|--
0000|10|--
1000|10|--
0000|10|--
0000|10|--
0000|10|--
0000|10|--
0000|10|--
0000|10|--
0000|10|--
--
0000|00|-o
0000|00|-:
0000|00|-0
0000|00|--
0000|00|--
0000|00|--
0000|00|--
0000|00|--
0100|00|--
0000|00|--
0000|00|--
0000|00|--
0000|00|--
0000|00|--
0000|00|--
0000|00|--
fx-l_se=clap;0
0011|20|--
0000|00|--
0000|00|--
0000|00|--
0000|00|--
0000|00|--
0000|00|--
0000|00|--
0100|00|--
0000|00|--
0000|00|--
0000|00|--
0000|00|--
0000|00|--
0000|00|--
0000|00|--
fx-r=
0000|21|--
0000|01|--
0000|01|--
0000|01|--
1000|01|--
0000|01|--
0000|01|--
0000|01|--
0100|01|--
0000|01|--
0000|01|--
0000|01|--
0010|01|--
0000|01|--
0000|01|--
0000|01|--
0001|01|--
0000|01|--
0000|01|--
0000|01|--
0100|01|--
0000|01|--
0000|01|--
0000|01|--
0010|01|--
0000|01|--
0000|01|--
0000|01|--
0001|01|--
0000|01|--
0000|01|--
0000|01|--
--
0000|00|0-
0000|00|:-
0000|00|o-
0000|00|--
0000|00|--
0000|00|--
0000|00|--
0000|00|--
0010|00|--
0000|00|--
0000|00|--
0000|00|--
0000|00|--
0000|00|--
0000|00|--
0000|00|--
fx-r_se=clap;0
1100|02|--
0000|00|--
0000|00|--
0000|00|--
0000|00|--
0000|00|--
0000|00|--
0000|00|--
0010|00|--
0000|00|--
0000|00|--
0000|00|--
0000|00|--
0000|00|--
0000|00|--
0000|00|--
fx-l=
0000|12|--
0000|10|--
0000|10|--
0000|10|--
0001|10|--
0000|10|--
0000|10|--
0000|10|--
0010|10|--
0000|10|--
0000|10|--
0000|10|--
0100|10|--
0000|10|--
0000|10|--
0000|10|--
1000|10|--
0000|10|--
0000|10|--
0000|10|--
0010|10|--
0000|10|--
0000|10|--
0000|10|--
0100|10|--
0000|10|--
0000|10|--
0000|10|--
1000|10|--
0000|10|--
0000|10|--
0000|10|--
--
0200|00|-o
0200|00|-:
0200|00|-F
0200|00|-:
0200|00|-:
0200|00|-:
0200|00|-:
0200|00|-:
1200|00|-:
0200|00|-:
0200|00|-:
0200|00|-:
0200|00|-:
0200|00|-:
0200|00|-:
0200|00|-:
0000|00|-o
0000|00|-:
0000|00|-0
0000|00|-:
0000|00|-:
0000|00|-:
0000|00|-:
0000|00|-:
0000|00|-:
0000|00|-:
0000|00|-:
0000|00|-:
0000|00|-:
0000|00|-:
0000|00|-:
0000|00|-:
0020|00|0:
0020|00|::
0020|00|Z:
0020|00|::
0020|00|::
0020|00|::
0020|00|::
0020|00|::
0021|00|::
0020|00|::
0020|00|::
0020|00|::
0020|00|::
0020|00|::
0020|00|::
0020|00|::
0000|00|0:
0000|00|::
0000|00|o:
0000|00|::
0000|00|::
0000|00|::
0000|00|::
0000|00|::
0000|00|::
0000|00|::
0000|00|::
0000|00|::
0000|00|::
0000|00|::
0000|00|::
0000|00|::
--
0000|00|o0
0000|00|::
0000|00|:P
0000|00|::
0000|00|::
0000|00|::
0000|00|::
0000|00|::
0000|00|:P
0000|00|::
0000|00|:o
0000|00|::
0000|00|::
0000|00|::
0000|00|::
0000|00|::
0000|00|:o
0000|00|::
0000|00|:P
0000|00|::
0000|00|::
0000|00|::
0000|00|::
0000|00|::
0000|00|:P
0000|00|::
0000|00|:0
0000|00|::
0000|00|::
0000|00|::
0000|00|::
0000|00|::
0000|00|00
0000|00|::
0000|00|P:
0000|00|::
0000|00|::
0000|00|::
0000|00|::
0000|00|::
0000|00|P:
0000|00|::
0000|00|o:
0000|00|::
0000|00|::
0000|00|::
0000|00|::
0000|00|::
0000|00|o:
0000|00|::
0000|00|K:
0000|00|::
0000|00|::
0000|00|::
0000|00|::
0000|00|::
0000|00|K:
0000|00|::
0000|00|0:
0000|00|::
0000|00|::
0000|00|::
0000|00|::
0000|00|::
--
zoom_bottom=0
0000|00|0o
0000|00|::
0000|00|o0
0000|00|::
0000|00|::
0000|00|::
0000|00|::
0000|00|::
0000|00|::
0000|00|::
0000|00|::
0000|00|::
0000|00|::
0000|00|::
0000|00|::
0000|00|::
zoom_bottom=100
0000|20|::
0000|00|::
0000|00|::
0000|00|::
0001|00|::
0000|00|::
0000|00|::
0000|00|::
0000|20|::
0000|00|::
0000|00|::
0000|00|::
0010|00|::
0000|00|::
0000|00|::
0000|00|::
0000|20|::
0000|00|::
0000|00|::
0000|00|::
0100|00|::
0000|00|::
0000|00|::
0000|00|::
1000|00|::
0000|00|::
0000|00|::
0000|00|::
0011|00|::
0000|00|::
0000|00|::
0000|00|::
fx-l=
0000|10|::
0000|10|::
0000|10|::
0000|10|::
0000|10|::
0000|10|::
0000|10|::
0000|10|::
0000|10|::
0000|10|::
0000|10|::
0000|10|::
0000|10|::
0000|10|::
0000|10|::
0000|10|::
--
0000|02|::
0000|00|::
1000|00|::
0000|00|::
0000|02|::
0000|00|::
0100|00|::
0000|00|::
0000|02|::
0000|00|::
0010|00|::
0000|00|::
0001|00|::
0000|00|::
1100|00|::
0000|00|::
fx-r_se=clap;0
0000|02|::
0000|00|::
0000|00|::
0000|00|::
0010|00|::
0000|00|::
fx-l_se=clap;0
0000|20|::
0000|00|::
0100|00|::
0000|00|::
0000|00|::
0000|00|::
fx-r_se=clap;0
zoom_bottom=-50
1000|02|::
0000|00|::
0000|00|::
0000|00|::
--
0000|00|::
0000|00|::
0000|00|::
0000|00|::
0000|00|::
0000|00|::
0000|00|::
0000|00|::
0000|00|::
0000|00|::
0000|00|::
0000|00|::
0000|00|::
0000|00|::
0000|00|::
0000|00|::
0000|00|o0@)96
0000|00|-:
0000|00|-o
0000|00|--
0000|00|--
0000|00|--
0000|00|--
0000|00|--
0000|00|--
0000|00|--
0000|00|--
0000|00|--
0000|00|--
0000|00|--
0000|00|--
0000|00|--
0000|00|--
0000|00|--
0000|00|--
0000|00|--
0000|00|--
0000|00|--
0000|00|--
0000|00|--
0000|00|--
0000|00|--
0000|00|--
0000|00|--
0000|00|--
0000|00|--
0000|00|--
0000|00|--
0000|00|--
0000|00|--
0000|00|--
0000|00|--
0000|00|--
0000|00|--
0000|00|--
0000|00|--
0000|00|--
0000|00|--
0000|00|--
0000|00|--
0000|00|--
0000|00|--
0000|00|--
0000|00|--
--
0000|00|--
--
zoom_bottom=-50
0000|00|P-
0000|00|:-
0010|00|:-
0000|00|:-
0001|00|:-
0000|00|:-
0100|00|:-
0000|00|:-
0001|00|:-
0000|00|:-
zoom_bottom=-25
0000|02|0-
0000|00|--
0010|00|--
0000|00|--
1000|00|--
0000|00|--
--
zoom_bottom=-25
0000|00|-P
0000|00|-:
0100|00|-:
0000|00|-:
1000|00|-:
0000|00|-:
0000|20|-:
0000|00|-:
1000|00|-:
0000|00|-:
zoom_bottom=0
0100|00|-o
0000|00|--
0010|00|--
0000|00|--
0001|00|--
0000|00|--
--
