title=怒槌
artist=光吉猛修「CHUNITHM」より
effect=SCライオット from SOUND VOLTEX譜面ボーイズの逆襲
jacket=mxm.jpg
illustrator=石垣純哉 color:SEGA
difficulty=infinite
level=18
t=200
m=mxm.ogg
mvol=85
o=58
bg=desert
layer=arrow
po=107457
plength=15000
pfiltergain=0
icon=../sdvx04.png
chokkakuautovol=0
chokkakuvol=0
ver=160
--
beat=4/4
0101|00|--
0000|00|--
0010|00|--
0000|00|--
0101|00|--
0000|00|--
0000|02|--
0000|20|--
0000|00|--
0000|02|--
0000|20|--
0000|00|--
0101|00|--
0000|00|--
0010|00|--
0100|00|--
--
1010|00|--
0000|00|--
0100|00|--
0000|00|--
1010|00|--
0000|00|--
0000|20|--
0000|02|--
0000|00|--
0000|20|--
0000|02|--
0000|00|--
1010|00|--
0000|00|--
0100|00|--
0010|00|--
--
fx-r=
0001|01|--
0000|01|--
0000|01|--
0000|01|--
1000|01|--
0000|01|--
0000|01|--
0000|01|--
0001|01|--
0000|01|--
0000|01|--
0000|01|--
fx-l=
1000|10|--
0000|10|--
0100|10|--
0000|10|--
0010|10|--
0000|10|--
0001|10|--
0000|10|--
1000|00|--
0000|00|--
0000|00|--
0000|00|--
fx-r=
0000|01|--
0000|01|--
0000|01|--
0000|01|--
0000|01|--
0000|01|--
0000|01|--
0000|01|--
--
1100|00|--
0000|00|--
0000|00|--
0000|00|--
0011|00|--
0000|00|--
1100|00|--
0000|00|--
0000|00|--
0000|00|--
0011|00|--
0000|00|--
0000|00|--
0000|00|--
0000|00|--
0000|00|--
--
fx-l=
0000|10|--
0000|10|--
0000|10|--
0000|10|--
0100|10|--
0000|10|--
0000|10|--
0000|10|--
0010|10|--
0000|10|--
0000|10|--
0000|10|--
fx-r=
0001|01|--
0000|01|--
0010|01|--
0000|01|--
0100|01|--
0000|01|--
1000|01|--
0000|01|--
0001|00|--
0000|00|--
0000|00|--
0000|00|--
0000|20|--
0000|00|--
0000|00|--
0000|00|--
0000|02|--
0000|00|--
0000|00|--
0000|00|--
--
fx-l=
0010|10|--
0000|10|--
0100|10|--
0000|10|--
0010|10|--
0000|10|--
0100|10|--
0000|10|--
fx-r=
0000|01|--
0000|01|--
0000|01|--
0000|01|--
fx-l=
0000|10|--
0000|10|--
0000|10|--
0000|10|--
fx-r=
0001|01|--
0000|01|--
0010|01|--
0000|01|--
0100|01|--
0000|01|--
1000|01|--
0000|01|--
0001|01|--
0000|01|--
0010|01|--
0000|01|--
0100|01|--
0000|01|--
1000|01|--
0000|01|--
--
fx-l=
0000|10|--
0000|10|--
0000|10|--
0000|10|--
0010|10|--
0000|10|--
0000|10|--
0000|10|--
0010|10|--
0000|10|--
0000|10|--
0000|10|--
0100|10|--
0000|10|--
0000|10|--
0000|10|--
0010|10|--
0000|10|--
0000|10|--
0000|10|--
0010|10|--
0000|10|--
0000|10|--
0000|10|--
fx-r=
0000|01|--
0000|01|--
0000|01|--
0000|01|--
0000|01|--
0000|01|--
1100|01|--
0000|01|--
0000|01|--
0000|01|--
0000|01|--
0000|01|--
0011|01|--
0000|01|--
0000|01|--
0000|01|--
0000|01|--
0000|01|--
1100|01|--
0000|01|--
0000|01|--
0000|01|--
0000|01|--
0000|01|--
--
fx-l=
0000|11|--
0000|11|--
0000|11|--
0000|11|--
0000|11|--
0000|11|--
0000|11|--
0000|11|--
0011|00|--
0000|00|--
1100|00|--
0000|00|--
0011|00|--
0000|00|--
1100|00|--
0000|00|--
0001|00|--
0000|00|--
0010|00|--
0000|00|--
0100|00|--
0000|00|--
1000|00|--
0000|00|--
0001|00|--
0000|00|--
0010|00|--
0000|00|--
0100|00|--
0000|00|--
1000|00|--
0000|00|--
--
0200|00|-o
0200|00|-:
0200|00|-K
0200|00|-:
0200|00|-A
0200|00|-:
0200|00|-:
0200|00|-:
fx-l=
0000|10|-0
0000|10|-:
1000|10|-o
0000|10|-:
0100|10|-P
0000|10|-:
1000|00|-o
0000|00|--
--
0020|00|0-
0020|00|:-
0020|00|U-
0020|00|:-
0020|00|e-
0020|00|:-
0020|00|:-
0020|00|:-
fx-r=
0000|01|o-
0000|01|:-
0001|01|0-
0000|01|:-
0010|01|P-
0000|01|:-
0001|00|0-
0000|00|--
--
0000|02|--
0000|00|--
0000|00|--
0000|00|--
0000|02|--
0000|00|--
0000|00|--
0000|00|--
0000|20|--
0000|00|--
0000|00|--
0000|00|--
0000|00|--
0000|00|--
0000|00|--
0000|00|--
fx-r=
0000|01|--
0000|01|--
0000|01|--
0000|01|--
fx-l=
0000|10|--
0000|10|--
0100|10|--
0000|10|--
fx-r=
0000|01|--
0000|01|--
0000|01|--
0000|01|--
fx-l=
0000|10|--
0000|10|--
0100|10|--
0000|10|--
--
fx-r=
0001|01|--
0000|01|--
0010|01|--
0000|01|--
0100|01|--
0000|01|--
1000|01|--
0000|01|--
fx-l=
0000|10|--
0000|10|--
0000|10|--
0000|10|--
fx-r=
0000|01|--
0000|01|--
0000|01|--
0000|01|--
fx-l=
0010|10|--
0000|10|--
0000|10|--
0000|10|--
0010|10|--
0000|10|--
0000|10|--
0000|10|--
fx-r=
1000|01|--
0000|01|--
0100|01|--
0000|01|--
0010|01|--
0000|01|--
0001|01|--
0000|01|--
--
0020|00|P-
0020|00|:-
0020|00|F-
0020|00|:-
0020|00|A-
0020|00|:-
0020|00|:-
0020|00|:-
fx-r=
0000|01|0-
0000|01|:-
0001|01|U-
0000|01|:-
0010|01|0-
0000|01|:-
0001|00|U-
0000|00|--
--
0200|00|-P
0200|00|-:
0200|00|-Z
0200|00|-:
0200|00|-e
0200|00|-:
0200|00|-:
0200|00|-:
fx-l=
0000|10|-o
0000|10|-:
1000|10|-K
0000|10|-:
0100|00|-o
0000|00|-:
0000|00|-F
0000|00|-:
--
0000|00|00
0000|00|::
0000|00|ZF
0000|00|::
0000|00|oo
0000|00|::
0000|00|ZF
0000|00|::
0000|00|00
0000|00|::
0000|00|ZF
0000|00|::
0000|00|oo
0000|00|::
0000|00|ZF
0000|00|::
--
0000|00|00
0000|00|:-
0000|00|o-
0000|00|--
0000|00|--
0000|00|--
0000|00|--
0000|00|--
fx-l=
0000|10|--
0000|10|--
0000|10|--
0000|10|--
0000|10|--
0000|10|--
0000|10|--
0000|10|--
0000|00|-o
0000|00|-:
0000|00|-0
0000|00|--
0000|00|--
0000|00|--
0000|00|--
0000|00|--
fx-r=
0000|01|--
0000|01|--
0000|01|--
0000|01|--
0000|01|--
0000|01|--
0000|01|--
0000|01|--
0000|20|--
0000|00|--
0000|00|--
0000|00|--
0011|00|--
0000|00|--
0000|00|--
0000|00|--
0000|20|--
0000|00|--
0000|00|--
0000|00|--
0011|00|--
0000|00|--
0000|00|--
0000|00|--
1100|00|--
0000|00|--
0000|00|--
0000|00|--
0000|02|--
0000|00|--
0000|00|--
0000|00|--
1100|00|--
0000|00|--
0000|00|--
0000|00|--
0000|02|--
0000|00|--
0000|00|--
0000|00|--
--
0000|20|--
0010|00|--
0100|00|--
0000|02|--
0000|20|--
0010|00|--
0100|00|--
0000|02|--
0001|00|--
0100|00|--
0010|00|--
1000|00|--
0001|00|--
0100|00|--
0010|00|--
1000|00|--
--
fx-r=
0001|01|--
0000|01|--
0010|01|--
0000|01|--
0100|01|--
0000|01|--
1000|01|--
0000|01|--
0001|01|--
0000|01|--
0010|01|--
0000|01|--
0100|01|--
0000|01|--
1000|01|--
0000|01|--
fx-l=
0000|10|--
0000|10|--
0100|10|--
0000|10|--
0010|10|--
0000|10|--
0001|10|--
0000|10|--
1000|00|--
0000|00|--
0100|00|--
0000|00|--
0010|00|--
0000|00|--
0001|00|--
0000|00|--
--
0000|00|0-
0000|00|:-
0000|00|:-
0000|00|:-
0000|00|:-
0000|00|:-
0000|00|:-
0000|00|:-
0000|00|Po
0000|00|::
0000|00|::
0000|00|::
0000|00|::
0000|00|::
0000|00|::
0000|00|::
fx-l=
1000|10|:P
0000|10|::
0100|10|::
0000|10|::
0010|10|::
0000|10|::
0001|10|::
0000|10|::
0000|12|::
0000|10|::
0001|10|::
0000|10|::
0010|10|::
0000|10|::
0100|10|::
0000|10|::
--
0011|00|::
0000|00|::
0000|00|::
0000|00|::
0011|00|::
0000|00|::
0000|00|::
0000|00|::
0000|20|::
0000|00|::
0000|02|::
0000|00|::
0000|20|::
0000|00|::
0000|00|::
0000|00|::
0000|00|PP
0000|00|::
0000|00|::
0000|00|::
0000|00|::
0000|00|::
0000|00|::
0000|00|::
0000|00|::
0000|00|::
0000|00|::
0000|00|::
0000|00|0o
0000|00|--
0000|00|--
0000|00|--
--
0000|20|--
0000|02|--
0100|00|--
0010|00|--
0000|20|--
0000|02|--
0100|00|--
0010|00|--
0000|20|--
1000|00|--
0100|00|--
0010|00|--
0000|20|--
0100|00|--
0010|00|--
0001|00|--
--
fx-r=
0000|21|--
0000|01|--
0001|01|--
0000|01|--
0010|01|--
0000|01|--
0100|01|--
0000|01|--
0010|01|--
0000|01|--
0001|01|--
0000|01|--
0010|01|--
0000|01|--
0100|01|--
0000|01|--
fx-l=
1000|10|--
0000|10|--
0100|10|--
0000|10|--
0010|10|--
0000|10|--
0001|10|--
0000|10|--
fx-r=
1000|01|--
0000|01|--
0100|01|--
0000|01|--
0010|01|--
0000|01|--
0001|01|--
0000|01|--
--
0000|00|P-
0000|00|:-
0000|00|0-
0000|00|:-
0000|00|PP
0000|00|::
0000|00|:o
0000|00|::
0000|00|PP
0000|00|::
0000|00|j5
0000|00|::
0000|00|o0
0000|00|::
0000|00|j5
0000|00|::
--
zoom_top=0
zoom_bottom=0
0000|00|::
0000|00|::
0000|00|::
0000|00|::
0000|00|0o
0000|00|::
0000|00|UK
0000|00|::
0000|00|eA
0000|00|::
0000|00|::
0000|00|::
0000|00|o0
0000|00|--
0000|00|--
0000|00|--
0011|00|--
0000|00|--
0110|00|--
0000|00|--
0011|00|--
0000|00|--
0110|00|--
0000|00|--
0011|00|--
0000|00|--
0110|00|--
0000|00|--
0011|00|--
0000|00|--
0110|00|--
0000|00|--
--
zoom_top=-20
zoom_bottom=-75
laserrange_r=2x
fx-r=
0000|01|-b
0000|01|-:
0000|01|-C
0000|01|-:
0000|01|-:
0000|01|-:
0000|01|-:
0000|01|-:
0000|01|-C
0000|01|-:
0000|01|-P
0000|01|-:
0000|01|-:
0000|01|-:
0000|01|-:
0000|01|-:
0000|01|-:
0000|01|-:
0000|01|-:
0000|01|-:
0000|01|-b
0000|01|-:
0000|01|-:
0000|01|-:
0000|01|-:
0000|01|-:
0000|01|-:
0000|01|-:
0000|01|-:
0000|01|-:
0000|01|-:
0000|01|-:
0200|01|-h
0200|01|-:
0200|01|-:
0200|01|-:
0200|01|-:
0200|01|-:
0200|01|-:
0200|01|-:
0200|01|-P
0200|01|-:
0200|01|-:
0200|01|-:
0200|01|-:
0200|01|-:
0200|01|-:
0200|01|-:
0200|01|-C
0200|01|-:
0200|01|-:
0200|01|-:
0200|01|-:
0200|01|-:
0200|01|-:
0200|01|-:
0200|01|-:
0200|01|-:
0200|01|-:
0200|01|-:
0200|01|-:
0200|01|-:
0200|01|-:
0200|01|-:
--
0220|00|-7
0220|00|-:
0220|00|-:
0220|00|-:
0220|00|-:
0220|00|-:
0220|00|-:
0220|00|-:
0220|00|-P
0220|00|-:
0220|00|-:
0220|00|-:
0220|00|-:
0220|00|-:
0220|00|-:
0220|00|-:
0220|00|-b
0220|00|-:
0220|00|-:
0220|00|-:
0220|00|-:
0220|00|-:
0220|00|-:
0220|00|-:
0220|00|-:
0220|00|-:
0220|00|-:
0220|00|-:
0220|00|-:
0220|00|-:
0220|00|-:
0220|00|-:
fx-l=
0020|10|-h
0020|10|-:
0020|10|-:
0020|10|-:
0020|10|-:
0020|10|-:
0020|10|-:
0020|10|-:
0020|10|-C
0020|10|-:
0020|10|-:
0020|10|-:
0020|10|-:
0020|10|-:
0020|10|-:
0020|10|-:
0100|00|-7
0000|00|-:
0000|00|-h
0000|00|--
0000|00|--
0000|00|--
0000|00|--
0000|00|--
0000|00|--
0000|00|--
0000|00|--
0000|00|--
0000|00|--
0000|00|--
0000|00|--
0000|00|--
--
laserrange_l=2x
fx-l=
0000|10|D-
0000|10|:-
0000|10|c-
0000|10|:-
0000|10|:-
0000|10|:-
0000|10|:-
0000|10|:-
0000|10|c-
0000|10|:-
0000|10|P-
0000|10|:-
0000|10|:-
0000|10|:-
0000|10|:-
0000|10|:-
0000|10|:-
0000|10|:-
0000|10|:-
0000|10|:-
0000|10|D-
0000|10|:-
0000|10|:-
0000|10|:-
0000|10|:-
0000|10|:-
0000|10|:-
0000|10|:-
0000|10|:-
0000|10|:-
0000|10|:-
0000|10|:-
0020|10|7-
0020|10|:-
0020|10|:-
0020|10|:-
0020|10|:-
0020|10|:-
0020|10|:-
0020|10|:-
0020|10|P-
0020|10|:-
0020|10|:-
0020|10|:-
0020|10|:-
0020|10|:-
0020|10|:-
0020|10|:-
0020|10|c-
0020|10|:-
0020|10|:-
0020|10|:-
0020|10|:-
0020|10|:-
0020|10|:-
0020|10|:-
0020|10|:-
0020|10|:-
0020|10|:-
0020|10|:-
0020|10|:-
0020|10|:-
0020|10|:-
0020|10|:-
--
0220|00|h-
0220|00|:-
0220|00|:-
0220|00|:-
0220|00|:-
0220|00|:-
0220|00|:-
0220|00|:-
0220|00|P-
0220|00|:-
0220|00|:-
0220|00|:-
0220|00|:-
0220|00|:-
0220|00|:-
0220|00|:-
0220|00|D-
0220|00|:-
0220|00|:-
0220|00|:-
0220|00|:-
0220|00|:-
0220|00|:-
0220|00|:-
0220|00|:-
0220|00|:-
0220|00|:-
0220|00|:-
0220|00|:-
0220|00|:-
0220|00|:-
0220|00|:-
fx-r=
0200|01|7-
0200|01|:-
0200|01|:-
0200|01|:-
0200|01|:-
0200|01|:-
0200|01|:-
0200|01|:-
0200|01|c-
0200|01|:-
0200|01|:-
0200|01|:-
0200|01|:-
0200|01|:-
0200|01|:-
0200|01|:-
0010|00|h-
0000|00|:-
0000|00|7-
0000|00|--
0000|00|--
0000|00|--
0000|00|--
0000|00|--
0000|00|--
0000|00|--
0000|00|--
0000|00|--
0000|00|--
0000|00|--
0000|00|--
0000|00|--
--
laserrange_r=2x
fx-r=
0200|01|-P
0200|01|-:
0200|01|-b
0200|01|-:
0200|01|-:
0200|01|-:
0200|01|-:
0200|01|-:
0200|01|-b
0200|01|-:
0200|01|-P
0200|01|-:
0200|01|-:
0200|01|-:
0200|01|-:
0200|01|-:
0200|01|-:
0200|01|-:
0200|01|-:
0200|01|-:
0200|01|-C
0200|01|-:
0200|01|-:
0200|01|-:
0200|01|-:
0200|01|-:
0200|01|-:
0200|01|-:
0200|01|-:
0200|01|-:
0200|01|-:
0200|01|-:
0220|00|-7
0220|00|-:
0220|00|-:
0220|00|-:
0220|00|-:
0220|00|-:
0220|00|-:
0220|00|-:
0220|00|-P
0220|00|-:
0220|00|-:
0220|00|-:
0220|00|-:
0220|00|-:
0220|00|-:
0220|00|-:
0220|00|-b
0220|00|-:
0220|00|-:
0220|00|-:
0220|00|-:
0220|00|-:
0220|00|-:
0220|00|-:
0220|00|-:
0220|00|-:
0220|00|-:
0220|00|-:
0220|00|-:
0220|00|-:
0220|00|-:
0220|00|-:
--
fx-l=
0020|10|-h
0020|10|-:
0020|10|-:
0020|10|-:
0020|10|-:
0020|10|-:
0020|10|-:
0020|10|-:
0020|10|-P
0020|10|-:
0020|10|-:
0020|10|-:
0020|10|-:
0020|10|-:
0020|10|-:
0020|10|-:
0020|10|-C
0020|10|-:
0020|10|-:
0020|10|-:
0020|10|-:
0020|10|-:
0020|10|-:
0020|10|-:
0020|10|-:
0020|10|-:
0020|10|-:
0020|10|-:
0020|10|-:
0020|10|-:
0020|10|-:
0020|10|-:
0220|00|-7
0220|00|-:
0220|00|-:
0220|00|-:
0220|00|-:
0220|00|-:
0220|00|-:
0220|00|-:
0220|00|-b
0220|00|-:
0220|00|-:
0220|00|-:
0220|00|-:
0220|00|-:
0220|00|-:
0220|00|-:
0000|22|-h
0000|00|-:
0000|00|-7
0000|00|--
0000|00|--
0000|00|--
0000|00|--
0000|00|--
0000|00|--
0000|00|--
0000|00|--
0000|00|--
0000|00|--
0000|00|--
0000|00|--
0000|00|--
--
laserrange_l=2x
fx-l=
0020|10|P-
0020|10|:-
0020|10|D-
0020|10|:-
0020|10|:-
0020|10|:-
0020|10|:-
0020|10|:-
0020|10|D-
0020|10|:-
0020|10|P-
0020|10|:-
0020|10|:-
0020|10|:-
0020|10|:-
0020|10|:-
0020|10|:-
0020|10|:-
0020|10|:-
0020|10|:-
0020|10|c-
0020|10|:-
0020|10|:-
0020|10|:-
0020|10|:-
0020|10|:-
0020|10|:-
0020|10|:-
0020|10|:-
0020|10|:-
0020|10|:-
0020|10|:-
0220|00|h-
0220|00|:-
0220|00|:-
0220|00|:-
0220|00|:-
0220|00|:-
0220|00|:-
0220|00|:-
0220|00|P-
0220|00|:-
0220|00|:-
0220|00|:-
0220|00|:-
0220|00|:-
0220|00|:-
0220|00|:-
0220|00|D-
0220|00|:-
0220|00|:-
0220|00|:-
0220|00|:-
0220|00|:-
0220|00|:-
0220|00|:-
0220|00|:-
0220|00|:-
0220|00|:-
0220|00|:-
0220|00|:-
0220|00|:-
0220|00|:-
0220|00|:-
--
fx-r=
0200|01|7-
0200|01|:-
0200|01|:-
0200|01|:-
0200|01|:-
0200|01|:-
0200|01|:-
0200|01|:-
0200|01|P-
0200|01|:-
0200|01|:-
0200|01|:-
0200|01|:-
0200|01|:-
0200|01|:-
0200|01|:-
0200|01|c-
0200|01|:-
0200|01|:-
0200|01|:-
0200|01|:-
0200|01|:-
0200|01|:-
0200|01|:-
0200|01|:-
0200|01|:-
0200|01|:-
0200|01|:-
0200|01|:-
0200|01|:-
0200|01|:-
0200|01|:-
0220|00|h-
0220|00|:-
0220|00|:-
0220|00|:-
0220|00|:-
0220|00|:-
0220|00|:-
0220|00|:-
0220|00|D-
0220|00|:-
0220|00|:-
0220|00|:-
0220|00|:-
0220|00|:-
0220|00|:-
0220|00|:-
0000|22|7-
0000|00|:-
0000|00|h-
0000|00|--
0000|00|--
0000|00|--
0000|00|--
0000|00|--
0000|00|--
0000|00|--
0000|00|--
0000|00|--
0000|00|--
0000|00|--
0000|00|--
0000|00|--
--
laserrange_r=2x
1100|00|-h
0000|00|-:
0000|00|-7
0000|00|-:
0000|00|-:
0000|00|-:
0000|00|-:
0000|00|-:
1100|00|-7
0000|00|-:
0000|00|-h
0000|00|-:
0000|00|-:
0000|00|-:
0000|00|-:
0000|00|-:
fx-l=
0000|10|-h
0000|10|-:
0000|10|-:
0000|10|-:
0000|10|-:
0000|10|-:
0000|10|-:
0000|10|-:
0000|00|-P
0000|00|-:
0000|00|-:
0000|00|-:
0000|00|-:
0000|00|-:
0000|00|-:
0000|00|-:
laserrange_l=2x
0011|00|7:
0000|00|::
0000|00|h:
0000|00|::
0000|00|::
0000|00|::
0000|00|::
0000|00|::
0011|00|h:
0000|00|::
0000|00|7:
0000|00|::
0000|00|::
0000|00|::
0000|00|::
0000|00|::
fx-r=
0000|01|7:
0000|01|::
0000|01|::
0000|01|::
0000|01|::
0000|01|::
0000|01|::
0000|01|::
0000|00|P:
0000|00|::
0000|00|::
0000|00|::
0000|00|::
0000|00|::
0000|00|::
0000|00|::
--
1100|00|:P
0000|00|::
0000|00|:h
0000|00|::
0000|00|::
0000|00|::
0000|00|::
0000|00|::
1100|00|:h
0000|00|::
0000|00|:7
0000|00|::
0000|00|::
0000|00|::
0000|00|::
0000|00|::
fx-l=
0000|10|:7
0000|10|::
0000|10|::
0000|10|::
0000|10|::
0000|10|::
0000|10|::
0000|10|::
0000|00|:h
0000|00|::
0000|00|::
0000|00|::
0000|00|::
0000|00|::
0000|00|::
0000|00|::
1000|00|::
0000|00|::
0000|00|::
0000|00|::
0001|00|::
0000|00|::
0000|00|::
0000|00|::
0100|00|::
0000|00|::
0000|00|::
0000|00|::
0010|00|::
0000|00|::
0000|00|::
0000|00|::
1000|00|::
0000|00|::
0000|00|::
0000|00|::
0001|00|::
0000|00|::
0000|00|::
0000|00|::
0100|00|::
0000|00|::
0000|00|::
0000|00|::
0010|00|::
0000|00|::
0000|00|::
0000|00|::
--
0000|02|P:
0000|00|::
0000|00|7:
0000|00|::
0000|00|::
0000|00|::
0000|00|::
0000|00|::
0000|02|7:
0000|00|::
0000|00|h:
0000|00|::
0000|00|::
0000|00|::
0000|00|::
0000|00|::
0011|00|h:
0000|00|::
0000|00|::
0000|00|::
0000|00|::
0000|00|::
0000|00|::
0000|00|::
0000|00|7:
0000|00|::
0000|00|::
0000|00|::
0000|00|::
0000|00|::
0000|00|::
0000|00|::
0000|20|:h
0000|00|::
0000|00|:P
0000|00|::
0000|00|::
0000|00|::
0000|00|::
0000|00|::
0000|20|:P
0000|00|::
0000|00|:h
0000|00|::
0000|00|::
0000|00|::
0000|00|::
0000|00|::
1100|00|:h
0000|00|::
0000|00|::
0000|00|::
0000|00|::
0000|00|::
0000|00|::
0000|00|::
0000|00|:7
0000|00|::
0000|00|::
0000|00|::
0000|00|::
0000|00|::
0000|00|::
0000|00|::
--
0000|02|7:
0000|00|::
0000|00|P:
0000|00|::
0000|00|::
0000|00|::
0000|00|::
0000|00|::
0000|02|P:
0000|00|::
0000|00|7:
0000|00|::
0000|00|::
0000|00|::
0000|00|::
0000|00|::
0011|00|7:
0000|00|::
0000|00|::
0000|00|::
0000|00|::
0000|00|::
0000|00|::
0000|00|::
0000|00|h:
0000|00|::
0000|00|::
0000|00|::
0000|00|::
0000|00|::
0000|00|::
0000|00|::
fx-r=
0100|01|::
0000|01|::
0000|01|::
0000|01|::
0010|01|::
0000|01|::
0000|01|::
0000|01|::
0100|01|::
0000|01|::
0000|01|::
0000|01|::
0010|01|::
0000|01|::
0000|01|::
0000|01|::
fx-l=
0000|10|::
0000|10|::
0000|10|::
0000|10|::
0000|10|::
0000|10|::
0000|10|::
0000|10|::
0000|00|::
0000|00|::
0000|00|::
0000|00|::
0000|00|::
0000|00|::
0000|00|::
0000|00|::
--
zoom_top=-20
0100|00|:7
0000|00|::
0000|20|:P
0000|00|::
1000|00|:P
0000|00|::
0000|20|:h
0000|00|::
0010|00|h:
0000|00|::
0000|02|P:
0000|00|::
0001|00|P:
0000|00|::
0000|02|7:
0000|00|::
--
0100|00|:h
0000|00|::
0000|20|:P
0000|00|::
1000|00|:P
0000|00|::
0000|20|:7
0000|00|:-
0010|00|7-
0000|00|:-
0000|02|P-
0000|00|:-
0001|00|P-
0000|00|:-
0000|02|h-
0000|00|--
--
0000|02|--
0100|00|--
0000|02|--
0010|00|--
1000|00|--
0001|00|--
0100|00|--
0010|00|--
0000|20|--
0010|00|--
0000|20|--
0100|00|--
0001|00|--
0100|00|--
0010|00|--
1000|00|--
--
0000|02|--
0001|00|--
0000|20|--
1000|00|--
0000|02|--
0001|00|--
0000|20|--
1000|00|--
0000|02|--
0010|00|--
0000|20|--
0100|00|--
0000|02|--
0010|00|--
0000|20|--
0100|00|--
--
zoom_top=20
zoom_bottom=-75
0002|00|--
0002|00|--
2002|00|--
2002|00|--
2022|00|--
2022|00|--
2222|00|--
2222|00|--
fx-r=
0220|01|--
0220|01|--
fx-l=
0220|11|--
0220|11|--
0222|11|--
0222|11|--
1000|00|--
0000|00|--
--
zoom_top=0
zoom_bottom=0
0220|00|-o
0220|00|-:
0220|00|-P
0220|00|-:
0220|00|-:
0220|00|-:
0220|00|-A
0220|00|-:
0220|00|-:
0220|00|-:
0220|00|-:
0220|00|-:
0220|00|-:
0220|00|-:
0220|00|-:
0220|00|-:
fx-l=
fx-r=
0000|11|-0
0000|11|-:
0000|11|-P
0000|11|-:
0000|11|-:
0000|11|-:
0000|11|-e
0000|11|-:
0000|11|-:
0000|11|-:
0000|11|-:
0000|11|-:
0000|00|-o
0000|00|-:
0000|00|-:
0000|00|-:
--
0220|00|0:
0220|00|::
0220|00|P:
0220|00|::
0220|00|::
0220|00|::
0220|00|e:
0220|00|::
0220|00|::
0220|00|::
0220|00|::
0220|00|::
0220|00|::
0220|00|::
0220|00|::
0220|00|::
fx-l=
fx-r=
0000|11|o:
0000|11|::
0000|11|P:
0000|11|::
0000|11|::
0000|11|::
0000|11|A:
0000|11|::
0000|11|::
0000|11|::
0000|11|::
0000|11|::
0000|00|0:
0000|00|::
0000|00|::
0000|00|::
--
0000|00|0o
0000|00|::
0000|00|::
0000|00|::
0000|00|PP
0000|00|::
0000|00|::
0000|00|::
1001|00|::
0000|00|::
0000|00|::
0000|00|::
0000|00|::
0000|00|::
0000|00|::
0000|00|::
fx-l=
0000|10|::
0000|10|::
0010|10|::
0000|10|::
0001|00|::
0000|00|::
0000|00|::
0000|00|::
fx-l=
0000|10|::
0000|10|::
0010|10|::
0000|10|::
0001|00|::
0000|00|::
0000|00|::
0000|00|::
--
fx-r=
0100|01|::
0000|01|::
0000|01|::
0000|01|::
0010|01|::
0000|01|::
0000|01|::
0000|01|::
0100|01|::
0000|01|::
0000|01|::
0000|01|::
0010|01|::
0000|01|::
0000|01|::
0000|01|::
0000|20|::
0000|00|::
0000|00|::
0000|00|::
0000|00|::
0000|00|::
0000|00|::
0000|00|::
0000|02|::
0000|00|::
0000|00|::
0000|00|::
0000|00|::
0000|00|::
0000|00|::
0000|00|::
0000|00|PP
0000|00|::
0000|00|::
0000|00|::
0000|00|::
0000|00|::
0000|00|::
0000|00|::
0000|00|::
0000|00|::
0000|00|::
0000|00|::
0000|00|::
0000|00|::
0000|00|::
0000|00|::
0000|00|o0
0000|00|::
0000|00|0o
0000|00|::
0000|00|::
0000|00|::
0000|00|::
0000|00|::
0000|00|::
0000|00|::
0000|00|::
0000|00|::
0000|00|::
0000|00|::
0000|00|::
0000|00|::
--
0220|00|0o
0220|00|::
0220|00|P:
0220|00|::
0220|00|::
0220|00|::
0220|00|e:
0220|00|::
0220|00|::
0220|00|::
0220|00|::
0220|00|::
0220|00|::
0220|00|::
0220|00|::
0220|00|::
fx-l=
fx-r=
0000|11|o:
0000|11|::
0000|11|P:
0000|11|::
0000|11|::
0000|11|::
0000|11|A:
0000|11|::
0000|11|::
0000|11|::
0000|11|::
0000|11|::
0000|00|0:
0000|00|::
0000|00|::
0000|00|::
--
0220|00|:o
0220|00|::
0220|00|::
0220|00|::
0220|00|:P
0220|00|::
0220|00|::
0220|00|::
0220|00|::
0220|00|::
0220|00|::
0220|00|::
0220|00|:A
0220|00|::
0220|00|::
0220|00|::
0220|00|::
0220|00|::
0220|00|::
0220|00|::
0220|00|::
0220|00|::
0220|00|::
0220|00|::
0220|00|::
0220|00|::
0220|00|::
0220|00|::
0220|00|::
0220|00|::
0220|00|::
0220|00|::
fx-l=
fx-r=
0000|11|:0
0000|11|::
0000|11|::
0000|11|::
0000|11|::
0000|11|::
0000|11|::
0000|11|::
0000|11|::
0000|11|::
0000|11|::
0000|11|::
0000|11|::
0000|11|::
0000|11|::
0000|11|::
0000|00|:o
0000|00|::
0000|00|:0
0000|00|::
0000|00|::
0000|00|::
0000|00|::
0000|00|::
0000|00|::
0000|00|::
0000|00|::
0000|00|::
0000|00|::
0000|00|::
0000|00|::
0000|00|::
--
0001|00|0:
0000|00|::
0000|00|::
0000|00|::
0001|00|::
0000|00|::
0000|00|::
0000|00|::
0000|02|::
0000|00|::
0000|00|::
0000|00|::
0001|00|::
0000|00|::
0010|00|::
0000|00|::
0001|00|::
0000|00|::
0010|00|::
0000|00|::
0001|00|::
0000|00|::
0000|00|::
0000|00|::
0000|02|::
0000|00|::
0000|00|::
0000|00|::
0010|00|::
0000|00|::
0100|00|::
0000|00|::
--
0000|00|::
0000|00|::
0000|00|::
0000|00|::
0000|00|::
0000|00|::
0000|00|::
0000|00|::
0010|00|::
0000|00|::
0000|00|::
0000|00|::
0000|00|::
0000|00|::
0000|00|::
0000|00|::
fx-r=
0000|01|::
0000|01|::
0000|01|::
0000|01|::
0001|01|::
0000|01|::
0000|01|::
0000|01|::
0010|00|::
0000|00|::
0000|00|::
0000|00|::
0000|00|::
0000|00|::
0000|00|::
0000|00|::
0001|00|o:
0000|00|::
0000|00|0:
0000|00|-:
0000|00|-:
0000|00|-:
0000|00|-:
0000|00|-:
0000|00|-:
0000|00|-:
0000|00|-:
0000|00|-:
0000|00|-:
0000|00|-:
0000|00|-:
0000|00|-:
1000|00|-0
0000|00|-:
0000|00|-o
0000|00|--
0000|00|--
0000|00|--
0000|00|--
0000|00|--
0000|00|--
0000|00|--
0000|00|--
0000|00|--
0000|00|--
0000|00|--
0000|00|--
0000|00|--
--
0000|02|--
1000|00|--
0000|02|--
0100|00|--
0000|02|--
0010|00|--
0000|02|--
0100|00|--
0000|02|--
1000|00|--
0000|02|--
0100|00|--
0000|02|--
0010|00|--
0000|02|--
0100|00|--
--
0000|20|--
0001|00|--
0000|20|--
0010|00|--
0000|20|--
0100|00|--
0000|20|--
0010|00|--
0000|20|--
0001|00|--
0000|20|--
0010|00|--
0000|20|--
0100|00|--
0000|20|--
0010|00|--
--
fx-l=
0100|10|--
0000|10|--
0010|10|--
0000|10|--
0100|10|--
0000|10|--
0010|10|--
0000|10|--
fx-r=
0000|01|--
0000|01|--
0000|01|--
0000|01|--
fx-l=
0000|10|--
0000|10|--
0000|10|--
0000|10|--
fx-r=
0000|01|--
0000|01|--
0001|01|--
0000|01|--
0000|20|--
0000|00|--
0000|00|--
0000|00|--
fx-r=
1000|01|--
0000|01|--
0100|01|--
0000|01|--
0010|01|--
0000|01|--
0001|01|--
0000|01|--
--
fx-l=
0000|10|--
0000|10|--
0000|10|--
0000|10|--
fx-r=
0100|01|--
0000|01|--
0010|01|--
0000|01|--
fx-l=
0000|10|--
0000|10|--
0000|10|--
0000|10|--
fx-r=
0100|01|--
0000|01|--
0010|01|--
0000|01|--
fx-l=
0001|10|--
0000|10|--
0000|10|--
0000|10|--
1000|10|--
0000|10|--
0000|10|--
0000|10|--
fx-r=
0000|01|--
0000|01|--
0000|01|--
0000|01|--
0000|01|--
0000|01|--
0000|01|--
0000|01|--
--
0000|20|--
0000|00|--
0010|00|--
0000|00|--
0000|20|--
0000|00|--
0001|00|--
0000|00|--
0000|20|--
0000|00|--
0001|00|--
0000|00|--
0000|20|--
0000|00|--
0010|00|--
0000|00|--
0000|02|--
0000|00|--
0100|00|--
0000|00|--
0000|02|--
0000|00|--
1000|00|--
0000|00|--
0000|02|--
0000|00|--
1000|00|--
0000|00|--
0000|02|--
0000|00|--
0100|00|--
0000|00|--
--
0000|20|--
0010|00|--
0000|20|--
0001|00|--
0000|20|--
0001|00|--
0000|20|--
0010|00|--
0000|02|--
0100|00|--
0000|02|--
1000|00|--
0000|02|--
1000|00|--
0000|02|--
0100|00|--
--
fx-r=
1000|01|--
0000|01|--
0100|01|--
0000|01|--
0010|01|--
0000|01|--
0100|01|--
0000|01|--
1000|01|--
0000|01|--
0100|01|--
0000|01|--
0010|01|--
0000|01|--
0100|01|--
0000|01|--
fx-l=
0000|10|--
0000|10|--
0000|10|--
0000|10|--
fx-r=
0000|01|--
0000|01|--
0000|01|--
0000|01|--
fx-l=
0000|10|--
0000|10|--
0000|10|--
0000|10|--
1000|10|--
0000|10|--
0000|10|--
0000|10|--
--
fx-r=
0110|01|--
0000|01|--
0000|01|--
0000|01|--
fx-l=
0000|11|--
0000|11|--
0000|11|--
0000|11|--
0110|01|--
0000|01|--
0000|01|--
0000|01|--
fx-l=
0000|11|--
0000|11|--
0000|11|--
0000|11|--
0011|00|--
0000|00|--
1100|00|--
0000|00|--
0011|00|--
0000|00|--
0000|00|--
0000|00|--
0011|00|--
0000|00|--
0000|00|--
0000|00|--
0011|00|--
0000|00|--
0000|00|--
0000|00|--
--
zoom_top=0
zoom_bottom=0
fx-l=
fx-r=
0000|11|-P
0000|11|-:
0000|11|-5
0000|11|-:
0000|11|-0
0000|11|-:
0000|11|-5
0000|11|-:
0000|11|-:
0000|11|-:
0000|11|-j
0000|11|-:
0000|11|-o
0000|11|-:
0000|11|-e
0000|11|-:
--
zoom_top=-50
zoom_bottom=-120
0220|00|-:
0220|00|-:
0220|00|-:
0220|00|-:
0220|00|-5
0220|00|-:
0220|00|-:
0220|00|-:
0220|00|-0
0220|00|-:
0220|00|-:
0220|00|-:
0220|00|-5
0220|00|-:
0220|00|-:
0220|00|-:
0220|00|-P
0220|00|-:
0220|00|-e
0220|00|-:
0220|00|-j
0220|00|-:
0220|00|-e
0220|00|-:
0220|00|-P
0220|00|-:
0220|00|-A
0220|00|-:
0220|00|-5
0220|00|-:
0220|00|-A
0220|00|-:
--
fx-r=
0200|01|-P
0200|01|-:
0200|01|-j
0200|01|-:
0200|01|-o
0200|01|-:
0200|01|-j
0200|01|-:
0200|01|-P
0200|01|-:
0200|01|-5
0200|01|-:
0200|01|-0
0200|01|-:
0200|01|-5
0200|01|-:
--
fx-l=
0000|11|-P
0000|11|-:
0000|11|-:
0000|11|-:
0000|11|-j
0000|11|-:
0000|11|-:
0000|11|-:
0000|11|-o
0000|11|-:
0000|11|-:
0000|11|-:
0000|11|-j
0000|11|-:
0000|11|-:
0000|11|-:
0000|11|-P
0000|11|-:
0000|11|-A
0000|11|-:
0000|11|-5
0000|11|-:
0000|11|-A
0000|11|-:
0000|11|-P
0000|11|-:
0000|11|-e
0000|11|-:
0000|00|-j
0000|00|-:
0000|00|-e
0000|00|-:
--
0000|00|PP
0000|00|::
0000|00|::
0000|00|::
0000|00|j5
0000|00|::
0000|00|::
0000|00|::
0000|00|o0
0000|00|::
0000|00|::
0000|00|::
0000|00|eA
0000|00|::
0000|00|::
0000|00|::
0000|00|0o
0000|00|::
0000|00|KU
0000|00|::
0000|00|PP
0000|00|::
0000|00|KU
0000|00|::
0000|00|0o
0000|00|::
0000|00|KU
0000|00|::
0000|00|PP
0000|00|::
0000|00|KU
0000|00|::
--
0000|00|0o
0000|00|::
0000|00|PP
0000|00|::
0000|00|::
0000|00|::
0000|00|eA
0000|00|::
0000|00|::
0000|00|::
0000|00|::
0000|00|::
0000|00|::
0000|00|::
0000|00|::
0000|00|::
0000|00|o0
0000|00|::
0000|00|UK
0000|00|::
0000|00|PP
0000|00|::
0000|00|UK
0000|00|::
0000|00|o0
0000|00|::
0000|00|UK
0000|00|::
0000|00|PP
0000|00|::
0000|00|UK
0000|00|::
--
0000|00|o0
0000|00|::
0000|00|::
0000|00|::
0000|00|UK
0000|00|::
0000|00|::
0000|00|::
0000|00|::
0000|00|::
0000|00|::
0000|00|::
0000|00|KU
0000|00|::
0000|00|::
0000|00|::
0000|00|0o
0000|00|::
0000|00|KU
0000|00|::
0000|00|PP
0000|00|::
0000|00|KU
0000|00|::
0000|00|0o
0000|00|::
0000|00|KU
0000|00|::
0000|00|PP
0000|00|::
0000|00|KU
0000|00|::
--
zoom_top=-50
zoom_bottom=-120
0000|00|0o
0000|00|::
0000|00|KU
0000|00|::
0000|00|PP
0000|00|::
0000|00|FF
0000|00|::
0000|00|::
0000|00|::
0000|00|ZZ
0000|00|::
0000|00|::
0000|00|::
0000|00|AA
0000|00|::
--
0000|00|:P
0000|00|::
0000|00|Uj
0000|00|::
0000|00|oo
0000|00|::
0000|00|Uj
0000|00|::
0000|00|::
0000|00|::
0000|00|K5
0000|00|::
0000|00|00
0000|00|::
0000|00|K5
0000|00|::
0000|00|::
0000|00|::
0000|00|Uj
0000|00|::
0000|00|oo
0000|00|::
0000|00|Uj
0000|00|::
0000|00|::
0000|00|::
0000|00|K5
0000|00|::
0000|00|00
0000|00|::
0000|00|K5
0000|00|::
--
zoom_top=10
zoom_bottom=75
0000|00|PP
0000|00|::
0000|00|o0
0000|00|--
0000|00|--
0000|00|--
0000|00|--
0000|00|--
0000|00|--
0000|00|--
0000|00|--
0000|00|--
0000|00|--
0000|00|--
0000|00|--
0000|00|--
0000|00|--
0000|00|--
0000|00|--
0000|00|--
0000|00|--
0000|00|--
0000|00|--
0000|00|--
0000|00|--
0000|00|--
0000|00|--
0000|00|--
0000|00|--
0000|00|--
0000|00|--
0000|00|--
zoom_top=10
zoom_bottom=75
2000|00|--
2000|00|--
2000|00|--
2000|00|--
2000|00|--
2000|00|--
2000|00|--
2000|00|--
2000|00|--
2000|00|--
2000|00|--
2000|00|--
2000|00|--
2000|00|--
2000|00|--
2000|00|--
2000|20|--
2000|00|--
2000|00|--
2000|00|--
2000|00|--
2000|00|--
2000|00|--
2000|00|--
2000|00|--
2000|00|--
2000|00|--
2000|00|--
2000|00|--
2000|00|--
2000|00|--
2000|00|--
--
2200|00|--
2200|00|--
2200|20|--
2200|00|--
2220|00|--
2220|00|--
2220|22|--
2220|00|--
--
2222|00|--
2222|00|--
0222|22|--
0222|00|--
1222|00|--
0222|00|--
0022|02|--
0022|00|--
--
0122|00|--
0022|00|--
0002|02|--
0002|00|--
0012|00|--
0002|00|--
0000|02|--
0000|00|--
--
zoom_top=0
zoom_bottom=0
stop=48
fx-l=
fx-r=
0000|11|-o
0000|11|-:
0000|11|-P
0000|11|-:
0000|11|-:
0000|11|-:
0000|11|-:
0000|11|-:
0000|11|-:
0000|11|-:
0000|11|-:
0000|11|-:
0000|11|-:
0000|11|-:
0000|11|-:
0000|11|-:
0000|11|-:
0000|11|-:
0000|11|-:
0000|11|-:
0000|11|-:
0000|11|-:
0000|11|-:
0000|11|-:
0000|11|-:
0000|11|-:
0000|11|-:
0000|11|-:
0000|11|-:
0000|11|-:
0000|11|-:
0000|11|-:
0220|00|-P@)48
0220|00|-:
0220|00|-o
0220|00|--
0220|00|--
0220|00|--
0220|00|--
0220|00|--
0220|00|--
0220|00|--
0220|00|--
0220|00|--
0220|00|--
0220|00|--
0220|00|--
0220|00|--
0220|00|--
0220|00|--
0220|00|--
0220|00|--
0220|00|--
0220|00|--
0220|00|--
0220|00|--
0220|00|--
0220|00|--
0220|00|--
0220|00|--
0220|00|--
0220|00|--
0220|00|--
0220|00|--
--
stop=48
fx-l=
fx-r=
0000|11|0-
0000|11|:-
0000|11|P-
0000|11|:-
0000|11|:-
0000|11|:-
0000|11|:-
0000|11|:-
0000|11|:-
0000|11|:-
0000|11|:-
0000|11|:-
0000|11|:-
0000|11|:-
0000|11|:-
0000|11|:-
0000|11|:-
0000|11|:-
0000|11|:-
0000|11|:-
0000|11|:-
0000|11|:-
0000|11|:-
0000|11|:-
0000|11|:-
0000|11|:-
0000|11|:-
0000|11|:-
0000|11|:-
0000|11|:-
0000|11|:-
0000|11|:-
0220|00|P-@(48
0220|00|:-
0220|00|0-
0220|00|--
0220|00|--
0220|00|--
0220|00|--
0220|00|--
0220|00|--
0220|00|--
0220|00|--
0220|00|--
0220|00|--
0220|00|--
0220|00|--
0220|00|--
0220|00|--
0220|00|--
0220|00|--
0220|00|--
0220|00|--
0220|00|--
0220|00|--
0220|00|--
0220|00|--
0220|00|--
0220|00|--
0220|00|--
0220|00|--
0220|00|--
0220|00|--
0220|00|--
--
stop=48
fx-l=
fx-r=
0000|11|-o
0000|11|-:
0000|11|-P
0000|11|-:
0000|11|-:
0000|11|-:
0000|11|-:
0000|11|-:
0000|11|-:
0000|11|-:
0000|11|-:
0000|11|-:
0000|11|-:
0000|11|-:
0000|11|-:
0000|11|-:
0000|11|-:
0000|11|-:
0000|11|-:
0000|11|-:
0000|11|-:
0000|11|-:
0000|11|-:
0000|11|-:
0000|11|-:
0000|11|-:
0000|11|-:
0000|11|-:
0000|11|-:
0000|11|-:
0000|11|-:
0000|11|-:
0220|00|-P@)48
0220|00|-:
0220|00|-o
0220|00|--
0220|00|--
0220|00|--
0220|00|--
0220|00|--
0220|00|--
0220|00|--
0220|00|--
0220|00|--
0220|00|--
0220|00|--
0220|00|--
0220|00|--
0220|00|--
0220|00|--
0220|00|--
0220|00|--
0220|00|--
0220|00|--
0220|00|--
0220|00|--
0220|00|--
0220|00|--
0220|00|--
0220|00|--
0220|00|--
0220|00|--
0220|00|--
0220|00|--
--
fx-r=
0000|01|0-
0000|01|:-
0010|01|:-
0000|01|:-
0100|01|:-
0000|01|:-
0010|01|:-
0000|01|:-
0100|01|:-
0000|01|:-
0010|01|:-
0000|01|:-
0100|01|:-
0000|01|:-
0010|01|:-
0000|01|:-
--
zoom_top=0
zoom_bottom=0
0000|00|o-
0000|00|:-
0000|00|0-
0000|00|--
0000|00|--
0000|00|--
0000|00|--
0000|00|--
0000|00|--
0000|00|--
0000|00|--
0000|00|--
0000|00|--
0000|00|--
0000|00|--
0000|00|--
0000|22|--
0000|00|--
0000|00|--
0000|00|--
0000|00|--
0000|00|--
0000|00|--
0000|00|--
0000|00|--
0000|00|--
0000|00|--
0000|00|--
0000|00|--
0000|00|--
0000|00|--
0000|00|--
0011|00|--
0000|00|--
0000|00|--
0000|00|--
0000|00|--
0000|00|--
0000|00|--
0000|00|--
0110|00|--
0000|00|--
0000|00|--
0000|00|--
0000|00|--
0000|00|--
0000|00|--
0000|00|--
0000|22|--
0000|00|--
0000|00|--
0000|00|--
0000|00|--
0000|00|--
0000|00|--
0000|00|--
0000|00|--
0000|00|--
0000|00|--
0000|00|--
0000|00|--
0000|00|--
0000|00|--
0000|00|--
--
1001|00|--
0000|00|--
0000|22|--
0000|00|--
1100|00|--
0110|00|--
0000|22|--
0000|00|--
--
fx-r=
0000|21|--
0000|01|--
0110|01|--
0000|01|--
0000|21|--
0000|01|--
0110|01|--
0000|01|--
fx-l=
0001|10|--
0000|10|--
0001|10|--
0000|10|--
0000|02|--
0000|00|--
0000|00|--
0000|00|--
--
fx-r=
0002|01|--
0002|01|--
0002|01|--
0002|01|--
0002|01|--
0002|01|--
0002|01|--
0002|01|--
fx-l=
0000|10|--
0000|10|--
0010|10|--
0000|10|--
0100|10|--
0000|10|--
1000|10|--
0000|10|--
fx-r=
0002|01|--
0002|01|--
0002|01|--
0002|01|--
0002|01|--
0002|01|--
0002|01|--
0002|01|--
fx-l=
0000|10|--
0000|10|--
0010|10|--
0000|10|--
0100|10|--
0000|10|--
1000|10|--
0000|10|--
--
0100|00|-o
0000|00|-:
0000|00|-0
0000|00|--
0000|00|--
0000|00|--
0000|00|--
0000|00|--
0000|00|--
0000|00|--
0000|00|--
0000|00|--
0000|00|--
0000|00|--
0000|00|--
0000|00|--
0110|00|-o
0000|00|-:
0000|00|-0
0000|00|--
0000|00|--
0000|00|--
0000|00|--
0000|00|--
0000|00|--
0000|00|--
0000|00|--
0000|00|--
0000|00|--
0000|00|--
0000|00|--
0000|00|--
0111|00|-o
0000|00|-:
0000|00|-0
0000|00|--
0000|00|--
0000|00|--
0000|00|--
0000|00|--
0000|00|--
0000|00|--
0000|00|--
0000|00|--
0000|00|--
0000|00|--
0000|00|--
0000|00|--
0000|22|-o
0000|00|-:
0000|00|-0
0000|00|--
0000|00|--
0000|00|--
0000|00|--
0000|00|--
0000|00|--
0000|00|--
0000|00|--
0000|00|--
0000|00|--
0000|00|--
0000|00|--
0000|00|--
--
0010|00|0-
0000|00|:-
0000|00|o-
0000|00|--
0000|00|--
0000|00|--
0000|00|--
0000|00|--
0000|00|--
0000|00|--
0000|00|--
0000|00|--
0000|00|--
0000|00|--
0000|00|--
0000|00|--
0110|00|0-
0000|00|:-
0000|00|o-
0000|00|--
0000|00|--
0000|00|--
0000|00|--
0000|00|--
0000|00|--
0000|00|--
0000|00|--
0000|00|--
0000|00|--
0000|00|--
0000|00|--
0000|00|--
1110|00|0-
0000|00|:-
0000|00|o-
0000|00|--
0000|00|--
0000|00|--
0000|00|--
0000|00|--
0000|00|--
0000|00|--
0000|00|--
0000|00|--
0000|00|--
0000|00|--
0000|00|--
0000|00|--
0000|22|0-
0000|00|:-
0000|00|o-
0000|00|--
0000|00|--
0000|00|--
0000|00|--
0000|00|--
0000|00|--
0000|00|--
0000|00|--
0000|00|--
0000|00|--
0000|00|--
0000|00|--
0000|00|--
--
0011|00|--
0110|00|--
0000|02|--
0000|20|--
0110|00|--
1100|00|--
0000|02|--
0000|20|--
--
zoom_top=-40
zoom_bottom=-100
fx-r=
0001|01|--
0000|01|--
1000|01|--
0000|01|--
0010|01|--
0000|01|--
0100|01|--
0000|01|--
0001|01|--
0000|01|--
1000|01|--
0000|01|--
0010|01|--
0000|01|--
0100|01|--
0000|01|--
0001|01|--
0000|01|--
1000|01|--
0000|01|--
0010|01|--
0000|01|--
0100|01|--
0000|01|--
fx-l=
0001|10|--
0000|10|--
0010|10|--
0000|10|--
0100|10|--
0000|10|--
1000|10|--
0000|10|--
--
zoom_top=0
zoom_bottom=0
0100|00|-P
0000|00|-:
0000|00|-o
0000|00|-:
0000|00|-:
0000|00|-:
0000|00|-:
0000|00|-:
0000|00|-:
0000|00|-:
0000|00|-:
0000|00|-:
1100|00|-o
0000|00|-:
0000|00|-P
0000|00|-:
0000|00|-:
0000|00|-:
0000|00|-:
0000|00|-:
0000|00|-:
0000|00|-:
0000|00|-:
0000|00|-:
0000|00|-:
0000|00|-:
0000|00|-:
0000|00|-:
0000|00|-:
0000|00|-:
0000|00|-:
0000|00|-:
fx-r=
0000|01|-:
0000|01|-:
0000|01|-:
0000|01|-:
0000|01|-:
0000|01|-:
0000|01|-:
0000|01|-:
0100|00|-:
0000|00|-:
0000|00|-:
0000|00|-:
0000|00|-:
0000|00|-:
0000|00|-:
0000|00|-:
1010|00|-:
0000|00|-:
0000|00|-:
0000|00|-:
0000|00|-:
0000|00|-:
0000|00|-:
0000|00|-:
0101|00|-:
0000|00|-:
0000|00|-:
0000|00|-:
0000|00|-:
0000|00|-:
0000|00|-:
0000|00|-:
--
0011|00|P:
0000|00|::
0000|00|0:
0000|00|::
0000|00|::
0000|00|::
0000|00|::
0000|00|::
0000|00|::
0000|00|::
0000|00|::
0000|00|::
0011|00|0:
0000|00|::
0000|00|P:
0000|00|::
0000|00|::
0000|00|::
0000|00|::
0000|00|::
0000|00|::
0000|00|::
0000|00|::
0000|00|::
0000|00|::
0000|00|::
0000|00|::
0000|00|::
0000|00|::
0000|00|::
0000|00|::
0000|00|::
fx-l=
0000|10|::
0000|10|::
0000|10|::
0000|10|::
0000|10|::
0000|10|::
0000|10|::
0000|10|::
0000|12|::
0000|10|::
0000|10|::
0000|10|::
0000|10|::
0000|10|::
0000|10|::
0000|10|::
0000|12|::
0000|10|::
0000|10|::
0000|10|::
0000|10|::
0000|10|::
0000|10|::
0000|10|::
0000|12|::
0000|10|::
0000|10|::
0000|10|::
0000|10|::
0000|10|::
0000|10|::
0000|10|::
--
1100|00|:P
0000|00|::
0000|00|:o
0000|00|::
0000|00|::
0000|00|::
0000|00|::
0000|00|::
0000|00|::
0000|00|::
0000|00|::
0000|00|::
1100|00|:o
0000|00|::
0000|00|:P
0000|00|::
0000|00|::
0000|00|::
0000|00|::
0000|00|::
0000|00|::
0000|00|::
0000|00|::
0000|00|::
0000|00|::
0000|00|::
0000|00|::
0000|00|::
0000|00|::
0000|00|::
0000|00|::
0000|00|::
fx-l=
0000|10|::
0000|10|::
0000|10|::
0000|10|::
0000|10|::
0000|10|::
0000|10|::
0000|10|::
0100|00|::
0000|00|::
0000|00|::
0000|00|::
0000|00|::
0000|00|::
0000|00|::
0000|00|::
1010|00|::
0000|00|::
0000|00|::
0000|00|::
0000|00|::
0000|00|::
0000|00|::
0000|00|::
0101|00|::
0000|00|::
0000|00|::
0000|00|::
0000|00|::
0000|00|::
0000|00|::
0000|00|::
--
0011|00|P:
0000|00|::
0000|00|0:
0000|00|::
0000|00|::
0000|00|::
0000|00|::
0000|00|::
0000|00|::
0000|00|::
0000|00|::
0000|00|::
0011|00|0:
0000|00|::
0000|00|P:
0000|00|::
0000|00|::
0000|00|::
0000|00|::
0000|00|::
0000|00|::
0000|00|::
0000|00|::
0000|00|::
0000|00|::
0000|00|::
0000|00|::
0000|00|::
0000|00|::
0000|00|::
0000|00|::
0000|00|::
0000|00|P:
0000|00|::
0000|00|::
0000|00|::
0000|00|::
0000|00|::
0000|00|::
0000|00|::
0000|00|0P
0000|00|::
0000|00|::
0000|00|::
0000|00|::
0000|00|::
0000|00|::
0000|00|::
0000|00|o0
0000|00|::
0000|00|::
0000|00|::
0000|00|::
0000|00|::
0000|00|::
0000|00|::
0000|00|Po
0000|00|::
0000|00|::
0000|00|::
0000|00|::
0000|00|::
0000|00|::
0000|00|::
--
0000|02|:P
0000|00|::
0000|00|:0
0000|00|::
0000|00|::
0000|00|::
0000|00|::
0000|00|::
0000|00|::
0000|00|::
0000|00|::
0000|00|::
0000|02|:0
0000|00|::
0000|00|:P
0000|00|::
0000|00|::
0000|00|::
0000|00|::
0000|00|::
0000|00|::
0000|00|::
0000|00|::
0000|00|::
0000|00|::
0000|00|::
0000|00|::
0000|00|::
0000|00|::
0000|00|::
0000|00|::
0000|00|::
0010|00|::
0000|00|::
0000|00|::
0000|00|::
0000|00|::
0000|00|::
0000|00|::
0000|00|::
0101|00|::
0000|00|::
0000|00|::
0000|00|::
0000|00|::
0000|00|::
0000|00|::
0000|00|::
1010|00|::
0000|00|::
0000|00|::
0000|00|::
0000|00|::
0000|00|::
0000|00|::
0000|00|::
0100|00|::
0000|00|::
0000|00|::
0000|00|::
0000|00|::
0000|00|::
0000|00|::
0000|00|::
--
0000|20|P:
0000|00|::
0000|00|o:
0000|00|::
0000|00|::
0000|00|::
0000|00|::
0000|00|::
0000|00|::
0000|00|::
0000|00|::
0000|00|::
0000|20|o:
0000|00|::
0000|00|P:
0000|00|::
0000|00|::
0000|00|::
0000|00|::
0000|00|::
0000|00|::
0000|00|::
0000|00|::
0000|00|::
0000|00|::
0000|00|::
0000|00|::
0000|00|::
0000|00|::
0000|00|::
0000|00|::
0000|00|::
0100|00|::
0000|00|::
0000|00|::
0000|00|::
0000|00|::
0000|00|::
0000|00|::
0000|00|::
1010|00|::
0000|00|::
0000|00|::
0000|00|::
0000|00|::
0000|00|::
0000|00|::
0000|00|::
0101|00|::
0000|00|::
0000|00|::
0000|00|::
0000|00|::
0000|00|::
0000|00|::
0000|00|::
0010|00|::
0000|00|::
0000|00|::
0000|00|::
0000|00|::
0000|00|::
0000|00|::
0000|00|::
--
0000|00|PP
0000|00|::
0000|00|o0
0000|00|::
0000|00|::
0000|00|::
0000|00|::
0000|00|::
0000|00|::
0000|00|::
0000|00|::
0000|00|::
0000|00|o0
0000|00|::
0000|00|PP
0000|00|::
0000|00|::
0000|00|::
0000|00|::
0000|00|::
0000|00|::
0000|00|::
0000|00|::
0000|00|::
0000|00|::
0000|00|::
0000|00|::
0000|00|::
0000|00|::
0000|00|::
0000|00|::
0000|00|::
0000|02|::
0000|00|::
0000|00|::
0000|00|::
0000|20|::
0000|00|::
0000|00|::
0000|00|::
0011|00|::
0000|00|::
0000|00|::
0000|00|::
0000|00|::
0000|00|::
0000|00|::
0000|00|::
0110|00|::
0000|00|::
0000|00|::
0000|00|::
0000|00|::
0000|00|::
0000|00|::
0000|00|::
1100|00|::
0000|00|::
0000|00|::
0000|00|::
0000|00|::
0000|00|::
0000|00|::
0000|00|::
--
zoom_top=0
zoom_bottom=0
0000|00|PP
0000|00|::
0000|00|0o
0000|00|::
0000|00|::
0000|00|::
0000|00|::
0000|00|::
0000|00|::
0000|00|::
0000|00|::
0000|00|::
0000|00|0o
0000|00|::
0000|00|o0
0000|00|--
0000|00|--
0000|00|--
0000|00|--
0000|00|--
0000|00|--
0000|00|--
0000|00|--
0000|00|--
0000|00|--
0000|00|--
0000|00|--
0000|00|--
0000|00|--
0000|00|--
0000|00|--
0000|00|--
1000|00|--
0000|00|--
0000|00|--
0000|00|--
0100|00|--
0000|00|--
0000|00|--
0000|00|--
0010|00|--
0000|00|--
0000|00|--
0000|00|--
0001|00|--
0000|00|--
0000|00|--
0000|00|--
1000|00|--
0000|00|--
0000|00|--
0000|00|--
0100|00|--
0000|00|--
0000|00|--
0000|00|--
0010|00|--
0000|00|--
0000|00|--
0000|00|--
0001|00|--
0000|00|--
0000|00|--
0000|00|--
--
zoom_top=-20
zoom_bottom=-75
laserrange_l=2x
0000|00|C-
0000|00|:-
0000|00|:-
0000|00|:-
0000|00|:-
0000|00|:-
0000|00|:-
0000|00|:-
0000|00|:-
0000|00|:-
0000|00|:-
0000|00|:-
0000|00|:-
0000|00|:-
0000|00|:-
0000|00|:-
zoom_top=0
zoom_top=-40
zoom_bottom=50
zoom_bottom=-100
laserrange_r=2x
0000|00|PP
0000|00|::
0000|00|7h
0000|00|::
0000|00|::
0000|00|::
0000|00|::
0000|00|::
0000|00|::
0000|00|::
0000|00|::
0000|00|::
0000|00|::
0000|00|::
0000|00|::
0000|00|::
0001|00|::
0000|00|::
0000|00|::
0000|00|::
0010|00|::
0000|00|::
0000|00|::
0000|00|::
0100|00|::
0000|00|::
0000|00|::
0000|00|::
1000|00|::
0000|00|::
0000|00|::
0000|00|::
0001|00|::
0000|00|::
0000|00|::
0000|00|::
0010|00|::
0000|00|::
0000|00|::
0000|00|::
0100|00|::
0000|00|::
0000|00|::
0000|00|::
1000|00|::
0000|00|::
0000|00|::
0000|00|::
--
0100|00|::
0010|00|::
0001|00|::
0010|00|::
0100|00|::
1000|00|::
0100|00|::
0010|00|::
0000|02|::
0001|00|::
0010|00|::
0100|00|::
0000|20|::
1000|00|::
0100|00|::
0010|00|::
--
fx-l=
fx-r=
0000|11|::
0000|11|::
0000|11|::
0000|11|::
0001|00|::
0000|00|::
1000|00|::
0000|00|::
0010|00|::
0000|00|::
0100|00|::
0000|00|::
0001|00|::
0000|00|::
1000|00|::
0000|00|::
fx-l=
fx-r=
0000|11|::
0000|11|::
0000|11|::
0000|11|::
0010|00|::
0000|00|::
0100|00|::
0000|00|::
0001|00|::
0000|00|::
1000|00|::
0000|00|::
0010|00|::
0000|00|::
0100|00|::
0000|00|::
--
0000|20|:h
0000|00|::
0000|00|:P
0000|00|::
0000|00|::
0000|00|::
0000|00|::
0000|00|::
0000|00|::
0000|00|::
0000|00|::
0000|00|::
0000|20|:P
0000|00|::
0000|00|:h
0000|00|::
0000|00|::
0000|00|::
0000|00|::
0000|00|::
0000|00|::
0000|00|::
0000|00|::
0000|00|::
0000|00|::
0000|00|::
0000|00|::
0000|00|::
0000|00|::
0000|00|::
0000|00|::
0000|00|::
fx-r=
1000|01|::
0000|01|::
0000|01|::
0000|01|::
0100|01|::
0000|01|::
0000|01|::
0000|01|::
0010|01|::
0000|01|::
0000|01|::
0000|01|::
0001|01|::
0000|01|::
0000|01|::
0000|01|::
fx-l=
0000|10|::
0000|10|::
0000|10|::
0000|10|::
0000|10|::
0000|10|::
0000|10|::
0000|10|::
0000|10|::
0000|10|::
0000|10|::
0000|10|::
0000|10|::
0000|10|::
0000|10|::
0000|10|::
--
0000|00|:h
0000|00|::
0000|00|::
0000|00|::
1000|00|::
0000|00|::
0100|00|::
0000|00|::
0000|20|::
0000|00|::
0000|00|::
0000|00|::
1000|00|::
0000|00|::
0100|00|::
0000|00|::
0000|20|::
0000|00|::
0000|00|::
0000|00|::
1000|00|::
0000|00|::
0100|00|::
0000|00|::
0000|20|::
0000|00|::
0000|00|::
0000|00|::
1000|00|:7
0000|00|:-
0000|00|:-
0000|00|:-
--
0000|02|7-
0000|00|:-
0000|00|:-
0000|00|:-
0001|00|:-
0000|00|:-
0010|00|:-
0000|00|:-
0000|02|:-
0000|00|:-
0000|00|:-
0000|00|:-
0001|00|:-
0000|00|:-
0010|00|:-
0000|00|:-
0000|02|:-
0000|00|:-
0000|00|:-
0000|00|:-
0001|00|:-
0000|00|:-
0010|00|:-
0000|00|:-
0000|02|:-
0000|00|:-
0000|00|:-
0000|00|:-
0001|00|h-
0000|00|--
0000|00|--
0000|00|--
--
1000|00|--
0000|20|--
0100|00|--
0010|00|--
0000|02|--
0001|00|--
1000|00|--
0000|20|--
0100|00|--
0010|00|--
0000|02|--
0001|00|--
1000|00|--
0000|20|--
0100|00|--
0010|00|--
0000|02|--
0001|00|--
1000|00|--
0000|20|--
0100|00|--
0010|00|--
0000|02|--
0001|00|--
--
zoom_top=-40
fx-l=
1000|10|--
0000|10|--
0001|10|--
0000|10|--
0100|10|--
0000|10|--
0010|10|--
0000|10|--
1000|10|--
0000|10|--
0001|10|--
0000|10|--
0100|10|--
0000|10|--
0010|10|--
0000|10|--
1000|10|--
0000|10|--
0001|10|--
0000|10|--
0100|10|--
0000|10|--
0010|10|--
0000|10|--
1000|10|--
0000|10|--
0001|10|--
0000|10|--
0100|10|--
0000|10|--
0010|10|--
0000|10|--
--
zoom_top=20
0000|02|--
0000|00|--
0010|00|--
0000|00|--
0100|00|--
0000|00|--
1000|00|--
0000|00|--
0000|22|--
0000|00|--
0010|00|--
0000|00|--
0100|00|--
0000|00|--
1000|00|--
0000|00|--
0000|22|--
0000|00|--
0010|00|--
0000|00|--
0100|00|--
0000|00|--
1000|00|--
0000|00|--
0000|22|--
0000|00|--
0010|00|--
0000|00|--
0100|00|--
0000|00|--
1000|00|--
0000|00|--
--
fx-r=
0001|01|--
0000|01|--
0010|01|--
0000|01|--
0100|01|--
0000|01|--
1000|01|--
0000|01|--
0100|01|--
0000|01|--
0010|01|--
0000|01|--
0001|01|--
0000|01|--
0010|01|--
0000|01|--
0100|01|--
0000|01|--
1000|01|--
0000|01|--
0100|01|--
0000|01|--
0010|01|--
0000|01|--
0001|00|--
0000|00|--
0010|00|--
0000|00|--
0100|00|--
0000|00|--
1000|00|--
0000|00|--
--
0000|22|--
0100|00|--
0010|00|--
0001|00|--
0000|22|--
0100|00|--
0010|00|--
0001|00|--
0000|22|--
0100|00|--
0010|00|--
0001|00|--
0000|22|--
0100|00|--
0010|00|--
0001|00|--
--
fx-r=
0000|01|0-
0000|01|:-
0000|01|:-
0000|01|:-
0000|01|:-
0000|01|:-
0000|01|:-
0000|01|:-
fx-l=
0000|10|o-
0000|10|:-
0000|10|:-
0000|10|:-
0000|10|:-
0000|10|:-
0000|10|0-
0000|10|--
--
beat=2/4
zoom_top=20
zoom_bottom=-100
0110|00|--
0000|00|--
1100|00|--
0000|00|--
0110|00|--
0000|00|--
1100|00|--
0000|00|--
0110|00|--
0000|00|--
1100|00|--
0000|00|--
0110|00|--
0000|00|--
1100|00|--
0000|00|--
--
beat=4/4
zoom_top=60
zoom_bottom=-130
0000|20|--
0001|00|--
0100|00|--
0001|00|--
0000|20|--
0001|00|--
0100|00|--
0001|00|--
0000|20|--
0001|00|--
0100|00|--
0001|00|--
0000|20|--
0001|00|--
0100|00|--
0001|00|--
--
0000|02|--
1000|00|--
0010|00|--
1000|00|--
0000|02|--
1000|00|--
0010|00|--
1000|00|--
0000|02|--
1000|00|--
0010|00|--
1000|00|--
0000|02|--
1000|00|--
0010|00|--
1000|00|--
--
fx-l=
0001|10|--
0000|10|--
0010|10|--
0000|10|--
0001|10|--
0000|10|--
0010|10|--
0000|10|--
0001|10|--
0000|10|--
0010|10|--
0000|10|--
0001|10|--
0000|10|--
0010|10|--
0000|10|--
0001|10|--
0000|10|--
0010|10|--
0000|10|--
0001|10|--
0000|10|--
0010|10|--
0000|10|--
0001|10|--
0000|10|--
0010|10|--
0000|10|--
0001|10|--
0000|10|--
0010|10|--
0000|10|--
--
zoom_top=60
zoom_bottom=-130
fx-r=
0000|01|--
0000|01|--
0000|01|--
0000|01|--
1001|00|--
0000|00|--
0110|00|--
0000|00|--
1001|00|--
0000|00|--
0110|00|--
0000|00|--
1001|00|--
0000|00|--
0110|00|--
0000|00|--
fx-l=
fx-r=
0000|11|--
0000|11|--
0000|11|--
0000|11|--
1001|00|--
0000|00|--
0110|00|--
0000|00|--
1001|00|--
0000|00|--
0110|00|--
0000|00|--
1001|00|--
0000|00|--
0000|00|--
0000|00|--
--
zoom_top=0
zoom_bottom=0
fx-l=
0000|10|-o
0000|10|-:
0000|10|-0
0000|10|-:
0000|10|-:
0000|10|-:
0000|10|-:
0000|10|-:
0000|10|-:
0000|10|-:
0000|10|-:
0000|10|-:
0000|10|-:
0000|10|-:
0000|10|-:
0000|10|-:
0110|00|-:
0000|00|-:
0000|00|-:
0000|00|-:
0000|00|-:
0000|00|-:
0000|00|-:
0000|00|-:
0000|00|-:
0000|00|-:
0000|00|-:
0000|00|-:
0000|00|-:
0000|00|-:
0000|00|-:
0000|00|-:
fx-r=
0000|01|0:
0000|01|::
0000|01|F:
0000|01|::
0000|01|::
0000|01|::
0000|01|::
0000|01|::
0000|01|::
0000|01|::
0000|01|::
0000|01|::
0000|01|::
0000|01|::
0000|01|::
0000|01|::
0110|00|::
0000|00|::
0000|00|::
0000|00|::
0000|00|::
0000|00|::
0000|00|::
0000|00|::
0000|00|::
0000|00|::
0000|00|::
0000|00|::
0000|00|::
0000|00|::
0000|00|::
0000|00|::
--
fx-l=
0000|10|:0
0000|10|::
0000|10|:P
0000|10|::
0000|10|::
0000|10|::
0000|10|::
0000|10|::
0000|10|::
0000|10|::
0000|10|::
0000|10|::
0000|10|::
0000|10|::
0000|10|::
0000|10|::
0110|00|::
0000|00|::
0000|00|::
0000|00|::
0000|00|::
0000|00|::
0000|00|::
0000|00|::
0000|00|::
0000|00|::
0000|00|::
0000|00|::
0000|00|::
0000|00|::
0000|00|::
0000|00|::
0000|02|F:
0000|00|::
0000|00|Z:
0000|00|::
0000|00|::
0000|00|::
0000|00|::
0000|00|::
0000|00|::
0000|00|::
0000|00|::
0000|00|::
0000|00|::
0000|00|::
0000|00|::
0000|00|::
0000|00|ZP
0000|00|::
0000|00|0o
0000|00|::
0000|00|::
0000|00|::
0000|00|::
0000|00|::
0000|00|::
0000|00|::
0000|00|::
0000|00|::
0000|00|::
0000|00|::
0000|00|::
0000|00|::
--
fx-r=
0000|01|0:
0000|01|::
0000|01|o:
0000|01|::
0000|01|::
0000|01|::
0000|01|::
0000|01|::
0001|01|::
0000|01|::
0000|01|::
0000|01|::
0000|01|::
0000|01|::
0000|01|::
0000|01|::
0110|00|::
0000|00|::
0000|00|::
0000|00|::
0000|00|::
0000|00|::
0000|00|::
0000|00|::
0000|00|::
0000|00|::
0000|00|::
0000|00|::
0000|00|::
0000|00|::
0000|00|::
0000|00|::
fx-l=
0000|10|:o
0000|10|::
0000|10|:Z
0000|10|::
0000|10|::
0000|10|::
0000|10|::
0000|10|::
1000|10|::
0000|10|::
0000|10|::
0000|10|::
0000|10|::
0000|10|::
0000|10|::
0000|10|::
0110|00|::
0000|00|::
0000|00|::
0000|00|::
0000|00|::
0000|00|::
0000|00|::
0000|00|::
0000|00|::
0000|00|::
0000|00|::
0000|00|::
0000|00|::
0000|00|::
0000|00|::
0000|00|::
--
fx-r=
0000|01|o:
0000|01|::
0000|01|P:
0000|01|::
0000|01|::
0000|01|::
0000|01|::
0000|01|::
0000|01|::
0000|01|::
0000|01|::
0000|01|::
0000|01|::
0000|01|::
0000|01|::
0000|01|::
0110|00|::
0000|00|::
0000|00|::
0000|00|::
0000|00|::
0000|00|::
0000|00|::
0000|00|::
0000|00|::
0000|00|::
0000|00|::
0000|00|::
0000|00|::
0000|00|::
0000|00|::
0000|00|::
0000|20|:Z
0000|00|::
0000|00|:F
0000|00|::
0000|00|::
0000|00|::
0000|00|::
0000|00|::
0000|00|::
0000|00|::
0000|00|::
0000|00|::
0000|00|::
0000|00|::
0000|00|::
0000|00|::
0000|00|PF
0000|00|::
0000|00|0o
0000|00|::
0000|00|::
0000|00|::
0000|00|::
0000|00|::
0000|00|::
0000|00|::
0000|00|::
0000|00|::
0000|00|::
0000|00|::
0000|00|::
0000|00|::
--
0000|00|0o
0000|00|::
0000|00|P:
0000|00|::
0000|00|::
0000|00|::
0000|00|::
0000|00|::
0000|00|::
0000|00|::
0000|00|::
0000|00|::
0000|00|::
0000|00|::
0000|00|::
0000|00|::
0000|00|o:
0000|00|::
0000|00|0:
0000|00|::
0000|00|::
0000|00|::
0000|00|::
0000|00|::
0000|00|::
0000|00|::
0000|00|::
0000|00|::
0000|00|::
0000|00|::
0000|00|::
0000|00|::
0000|00|00
0000|00|::
0000|00|:P
0000|00|::
0000|00|::
0000|00|::
0000|00|::
0000|00|::
0000|00|::
0000|00|::
0000|00|::
0000|00|::
0000|00|::
0000|00|::
0000|00|::
0000|00|::
0000|00|:o
0000|00|::
0000|00|:0
0000|00|::
0000|00|::
0000|00|::
0000|00|::
0000|00|::
0000|00|::
0000|00|::
0000|00|::
0000|00|::
0000|00|::
0000|00|::
0000|00|::
0000|00|::
--
0000|00|o0
0000|00|::
0000|00|P:
0000|00|::
0000|00|::
0000|00|::
0000|00|::
0000|00|::
0000|00|::
0000|00|::
0000|00|::
0000|00|::
0000|00|::
0000|00|::
0000|00|::
0000|00|::
0000|00|0:
0000|00|::
0000|00|o:
0000|00|::
0000|00|::
0000|00|::
0000|00|::
0000|00|::
0000|00|::
0000|00|::
0000|00|::
0000|00|::
0000|00|::
0000|00|::
0000|00|::
0000|00|::
0000|00|oo
0000|00|::
0000|00|:P
0000|00|::
0000|00|::
0000|00|::
0000|00|::
0000|00|::
0000|00|::
0000|00|::
0000|00|::
0000|00|::
0000|00|::
0000|00|::
0000|00|::
0000|00|::
0000|00|:0
0000|00|::
0000|00|:o
0000|00|:-
0000|00|:-
0000|00|:-
0000|00|:-
0000|00|:-
0000|00|:-
0000|00|:-
0000|00|:-
0000|00|:-
0000|00|:-
0000|00|:-
0000|00|:-
0000|00|:-
--
0000|02|0-
0000|00|--
0010|00|--
0000|00|--
0000|20|--
0000|00|--
0100|00|--
0000|00|--
1000|00|--
0000|00|--
0001|00|--
0000|00|--
0100|00|--
0000|00|--
0010|00|--
0000|00|--
0000|20|--
0000|00|--
0100|00|--
0000|00|--
0000|02|--
0000|00|--
0010|00|--
0000|00|--
0001|00|--
0000|00|--
1000|00|--
0000|00|--
0010|00|--
0000|00|--
0100|00|--
0000|00|--
--
0000|02|--
0010|00|--
0000|20|--
1000|00|--
0000|02|--
0010|00|--
0000|20|--
1000|00|--
0000|02|--
0001|00|--
0000|20|--
0100|00|--
0000|02|--
0001|00|--
0000|20|--
0100|00|--
--
beat=2/4
zoom_top=60
zoom_bottom=-130
0000|00|-j
0000|00|-:
0000|00|-:
0000|00|-:
0000|00|-:
0000|00|-:
0000|00|-:
0000|00|-:
0000|00|o0
0000|00|:-
0000|00|:-
0000|00|:-
0000|00|:-
0000|00|:-
0000|00|0-
0000|00|--
--
beat=4/4
zoom_top=0
zoom_bottom=0
0001|02|--
1000|20|--
0001|02|--
1000|20|--
0001|02|--
0000|00|--
0010|00|--
0100|00|--
1000|20|--
0001|02|--
1000|20|--
0001|02|--
1000|20|--
0000|00|--
0100|00|--
0010|00|--
--
0001|02|--
0000|00|--
0000|00|--
0000|00|--
0000|00|--
0000|00|--
1000|20|--
0000|00|--
0000|00|--
0000|00|--
0000|00|--
0000|00|--
0001|02|--
0000|00|--
0000|00|--
0000|00|--
0000|00|--
0000|00|--
1000|20|--
0000|00|--
0000|00|--
0000|00|--
0000|00|--
0000|00|--
0001|02|--
0000|00|--
0000|00|--
0000|00|--
0000|00|--
0000|00|--
0000|00|--
0000|00|--
0000|00|--
0000|00|--
0000|00|--
0000|00|--
0000|00|--
0000|00|--
0000|00|--
0000|00|--
0000|22|--
0000|00|--
0000|00|--
0000|00|--
0000|00|--
0000|00|--
0000|00|--
0000|00|--
0000|22|--
0000|00|--
0000|00|--
0000|00|--
0000|00|--
0000|00|--
0000|00|--
0000|00|--
0000|22|--
0000|00|--
0000|00|--
0000|00|--
0000|00|--
0000|00|--
0000|00|--
0000|00|--
0000|22|--
0000|00|--
0000|00|--
0000|00|--
0000|00|--
0000|00|--
0000|00|--
0000|00|--
fx-r=
0000|01|--
0000|01|--
0000|01|--
0000|01|--
0000|01|--
0000|01|--
0100|01|--
0000|01|--
0000|01|--
0000|01|--
0000|01|--
0000|01|--
1000|01|--
0000|01|--
0000|01|--
0000|01|--
0000|01|--
0000|01|--
0100|01|--
0000|01|--
0000|01|--
0000|01|--
0000|01|--
0000|01|--
--
0010|01|--
0000|01|--
0001|01|--
0000|01|--
0010|01|--
0000|01|--
0100|01|--
0000|01|--
1000|01|--
0000|01|--
0100|01|--
0000|01|--
0010|01|--
0000|01|--
0001|01|--
0000|01|--
0000|00|0-
0000|00|:-
0000|00|:-
0000|00|:-
0000|00|:-
0000|00|:-
0000|00|:-
0000|00|:-
0000|00|o0
0000|00|-:
0000|00|-:
0000|00|-:
0000|00|-:
0000|00|-:
0000|00|-:
0000|00|-:
--
0100|02|-o
0000|00|-:
0000|00|-0
0000|00|-:
0000|00|-:
0000|00|-:
0000|00|-:
0000|00|-:
0000|00|-:
0000|00|-:
0000|00|-:
0000|00|-:
0100|02|-0
0000|00|-:
0000|00|-o
0000|00|-:
0000|00|-:
0000|00|-:
0000|00|-:
0000|00|-:
0000|00|-:
0000|00|-:
0000|00|-:
0000|00|-:
0000|00|-:
0000|00|-:
0000|00|-:
0000|00|-:
0001|00|-:
0000|00|-:
0000|00|-:
0000|00|-:
0000|00|-:
0000|00|-:
0000|00|-:
0000|00|-:
0001|00|-:
0000|00|-:
0000|00|-:
0000|00|-:
0010|20|0:
0000|00|::
0000|00|o:
0000|00|::
0000|00|::
0000|00|::
0000|00|::
0000|00|::
0000|00|::
0000|00|::
0000|00|::
0000|00|::
0010|20|o:
0000|00|::
0000|00|0:
0000|00|::
0000|00|::
0000|00|::
0000|00|::
0000|00|::
0000|00|::
0000|00|::
0000|00|::
0000|00|::
--
0000|00|::
0000|00|::
0000|00|::
0000|00|::
1000|00|::
0000|00|::
0000|00|::
0000|00|::
0000|00|::
0000|00|::
0000|00|::
0000|00|::
1000|00|::
0000|00|::
0000|00|::
0000|00|::
0100|02|:o
0000|00|::
0000|00|:0
0000|00|::
0000|00|::
0000|00|::
0000|00|::
0000|00|::
0000|00|::
0000|00|::
0000|00|::
0000|00|::
0100|02|:0
0000|00|::
0000|00|:o
0000|00|::
0000|00|::
0000|00|::
0000|00|::
0000|00|::
0000|00|::
0000|00|::
0000|00|::
0000|00|::
0000|00|::
0000|00|::
0000|00|::
0000|00|::
0000|00|::
0000|00|::
0000|00|::
0000|00|::
0000|00|0o
0000|00|::
0000|00|::
0000|00|::
0000|00|::
0000|00|::
0000|00|::
0000|00|::
0000|00|Ae
0000|00|::
0000|00|::
0000|00|::
0000|00|::
0000|00|::
0000|00|::
0000|00|::
--
zoom_top=0
zoom_bottom=0
0000|00|::
0000|00|::
0000|00|j5
0000|00|::
0000|00|::
0000|00|::
0000|00|o0
0000|00|::
0000|00|::
0000|00|::
0000|00|j5
0000|00|::
0000|00|::
0000|00|::
0000|00|::
0000|00|::
0000|00|5j
0000|00|::
0000|00|::
0000|00|::
0000|00|0o
0000|00|::
0000|00|::
0000|00|::
0000|00|5j
0000|00|::
0000|00|::
0000|00|::
0000|00|KU
0000|00|::
0000|00|::
0000|00|::
--
zoom_top=-40
zoom_top=0
zoom_bottom=-100
zoom_bottom=0
0000|00|PP
0000|00|::
0000|00|0o
0000|00|--
0000|00|--
0000|00|--
0000|00|--
0000|00|--
0000|00|--
0000|00|--
0000|00|--
0000|00|--
0000|00|--
0000|00|--
0000|00|--
0000|00|--
0000|00|--
0000|00|--
0000|00|--
0000|00|--
0000|00|--
0000|00|--
0000|00|--
0000|00|--
0000|00|--
0000|00|--
0000|00|--
0000|00|--
0000|00|--
0000|00|--
0000|00|--
0000|00|--
0000|00|--
0000|00|--
0000|00|--
0000|00|--
0000|00|--
0000|00|--
0000|00|--
0000|00|--
0000|00|--
0000|00|--
0000|00|--
0000|00|--
0000|00|--
0000|00|--
0000|00|--
0000|00|--
0000|00|--
0000|00|--
0000|00|--
0000|00|--
0000|00|--
0000|00|--
0000|00|--
0000|00|--
0000|00|--
0000|00|--
0000|00|--
0000|00|--
0000|00|--
0000|00|--
0000|00|--
0000|00|--
--
