title=couleur automnes de chocolat
artist=Citrus and Ocean Colour
effect=Hermit♣club
jacket=mxm.jpg
illustrator=ちっひ
difficulty=infinite
level=16
t=110
m=mxm.ogg
mvol=85
o=68
bg=desert
layer=arrow
po=0
plength=15000
pfiltergain=0
icon=../sdvx04.png
chokkakuautovol=0
chokkakuvol=0
ver=160
--
beat=4/4
zoom_bottom=0
0000|00|0-
0000|00|:-
0000|00|:-
0000|00|:-
0000|00|P-
0000|00|:-
0000|00|:-
0000|00|:-
0000|00|Z-
0000|00|:-
0000|00|:-
0000|00|:-
0000|00|:-
0000|00|:-
0000|00|:-
0000|00|:-
0000|00|:-
0000|00|:-
zoom_bottom=-75
0110|00|o-
0000|00|:-
0000|00|e-
0000|00|:-
0000|00|P-
0000|00|:-
--
zoom_bottom=0
0020|00|0-
0020|00|:-
0020|00|o-
0020|00|--
0020|00|--
0020|00|--
0020|00|--
0020|00|--
0020|00|--
0020|00|--
0020|00|--
0020|00|--
0020|20|--
0020|00|--
0020|00|--
0020|00|--
0020|00|--
0020|00|--
0020|00|--
0020|00|--
0020|00|--
0020|00|--
0020|00|--
0020|00|--
0020|20|--
0020|00|--
0020|00|--
0020|00|--
0020|00|--
0020|00|--
0020|00|--
0020|00|--
0200|00|--
0200|00|--
0200|00|--
0200|00|--
0200|00|--
0200|00|--
0200|00|--
0200|00|--
0200|20|--
0200|00|--
0200|00|--
0200|00|--
0200|00|--
0200|00|--
0200|00|--
0200|00|--
0200|20|--
0200|00|--
0200|00|--
0200|00|--
0200|00|--
0200|00|--
0200|00|--
0200|00|--
0010|00|--
0000|00|--
0000|00|--
0000|00|--
0001|00|--
0000|00|--
0000|00|--
0000|00|--
--
0020|20|--
0020|00|--
0020|00|--
0020|00|--
0020|00|--
0020|00|--
0200|20|--
0200|00|--
0200|00|--
0200|00|--
0200|00|--
0200|00|--
0020|20|--
0020|00|--
0020|00|--
0020|00|--
0020|00|--
0020|00|--
0020|00|--
0020|00|--
0020|20|--
0020|00|--
0020|00|--
0020|00|--
0020|00|--
0020|00|--
0020|20|--
0020|00|--
0020|00|--
0020|00|--
0020|00|--
0020|00|--
--
0200|00|--
0200|00|--
0200|00|--
0200|00|--
0200|00|--
0200|00|--
0200|02|--
0200|00|--
0200|00|--
0200|00|--
0200|00|--
0200|00|--
0200|02|--
0200|00|--
0200|00|--
0200|00|--
0020|00|--
0020|00|--
0020|00|--
0020|00|--
0020|02|--
0020|00|--
0020|00|--
0020|00|--
0020|02|--
0020|00|--
0020|00|--
0020|00|--
0100|00|--
0000|00|--
0001|00|--
0000|00|--
--
2000|00|--
2000|00|--
2000|00|--
2000|00|--
2000|02|--
2000|00|--
2000|00|--
2000|00|--
2000|00|--
2000|00|--
2000|02|--
2000|00|--
2000|00|--
2000|00|--
2000|00|--
2000|00|--
2000|02|--
2000|00|--
2000|00|--
2000|00|--
2000|00|--
2000|00|--
2000|02|--
2000|00|--
2000|00|--
2000|00|--
2010|00|--
2000|00|--
0100|02|--
0000|00|--
1000|00|--
0000|00|--
--
fx-r=
0000|01|--
0000|01|--
0000|21|--
0000|01|--
0000|01|--
0000|01|--
0000|01|--
0000|01|--
0000|21|--
0000|01|--
0000|01|--
0000|01|--
0000|01|--
0000|01|--
0000|21|--
0000|01|--
0002|00|--
0002|00|--
0002|00|--
0002|00|--
0002|20|--
0002|00|--
0020|00|--
0020|00|--
0020|20|--
0020|00|--
0020|00|--
0020|00|--
0100|00|--
0000|00|--
0000|00|--
0000|00|--
--
0020|20|--
0020|00|--
0020|00|--
0020|00|--
0020|20|--
0020|00|--
0200|00|--
0200|00|--
0200|00|--
0200|00|--
0200|20|--
0200|00|--
fx-r=
0000|01|--
0000|01|--
0000|01|--
0000|01|--
0000|21|--
0000|01|--
0000|01|--
0000|01|--
0000|01|--
0000|01|--
0000|21|--
0000|01|--
0000|01|--
0000|01|--
0000|01|--
0000|01|--
0010|20|--
0000|00|--
0100|00|--
0000|00|--
--
fx-l=
0000|12|--
0000|10|--
0000|10|--
0000|10|--
0000|10|--
0000|10|--
0000|12|--
0000|10|--
0000|10|--
0000|10|--
0000|10|--
0000|10|--
0000|12|--
0000|10|--
0000|10|--
0000|10|--
1000|00|-o
0000|00|-:
0100|00|-:
0000|00|-:
1000|00|-:
0000|00|-:
0100|00|-:
0000|00|-:
1000|00|-:
0000|00|-:
0100|00|-:
0000|00|-:
1000|00|-:
0000|00|-:
0100|00|-:
0000|00|-:
--
0000|20|-0
0000|00|-:
0000|00|-o
0000|00|-:
0000|00|-:
0000|00|-:
0000|00|-:
0000|00|-:
0000|20|-o
0000|00|-:
0000|00|-0
0000|00|--
0000|00|--
0000|00|--
0000|00|--
0000|00|--
0000|00|--
0000|00|--
0000|00|--
0000|00|--
0000|02|0-
0000|00|:-
0000|00|o-
0000|00|:-
0000|00|:-
0000|00|:-
0000|00|:-
0000|00|:-
0000|02|o-
0000|00|:-
0000|00|0-
0000|00|--
0011|00|--
0000|00|--
0000|00|--
0000|00|--
0011|00|--
0000|00|--
0000|00|--
0000|00|--
1100|00|--
0000|00|--
0000|00|--
0000|00|--
0011|00|--
0000|00|--
0000|00|--
0000|00|--
0000|00|--
0000|00|--
0000|00|--
0000|00|--
1100|00|--
0000|00|--
0000|00|--
0000|00|--
fx-r=
0000|01|--
0000|01|--
0000|01|--
0000|01|--
0000|01|--
0000|01|--
0000|01|--
0000|01|--
--
0001|00|0-
0000|00|:-
0000|00|P-
0000|00|:-
0000|00|e-
0000|00|:-
0110|00|:-
0000|00|:-
0000|00|o-
0000|00|:-
0000|00|:-
0000|00|:-
0110|00|e-
0000|00|:-
0000|00|P-
0000|00|:-
0000|00|0o
0000|00|-:
0000|00|-P
0000|00|-:
0110|00|-A
0000|00|-:
0000|00|-:
0000|00|-:
0110|00|-0
0000|00|-:
0000|00|-:
0000|00|-:
0000|00|-A
0000|00|-:
0000|00|-P
0000|00|-:
--
0000|20|-o
0000|00|-:
0000|00|-P
0000|00|-:
0000|00|-A
0000|00|-:
0000|20|-:
0000|00|-:
0000|00|-0
0000|00|-:
0000|00|-:
0000|00|-:
0000|20|-A
0000|00|-:
0000|00|-P
0000|00|-:
0000|00|0o
0000|00|:-
0000|00|P-
0000|00|:-
0000|02|e-
0000|00|:-
0000|00|:-
0000|00|:-
0000|00|o-
0000|00|:-
0000|02|:-
0000|00|:-
0000|00|e-
0000|00|:-
0000|00|P-
0000|00|:-
--
fx-r=
0000|01|0-
0000|01|:-
0000|01|:-
0000|01|:-
0000|01|:-
0000|01|:-
0000|01|:-
0000|01|:-
0000|01|P-
0000|01|:-
0000|01|:-
0000|01|:-
0000|01|:-
0000|01|:-
0000|01|:-
0000|01|:-
0000|01|Z-
0000|01|:-
0000|01|:-
0000|01|:-
0000|01|:-
0000|01|:-
0000|01|:-
0000|01|:-
fx-l=
0000|10|:-
0000|10|:-
0000|10|:-
0000|10|:-
0000|10|:-
0000|10|:-
0000|10|:-
0000|10|:-
0000|10|:-
0000|10|:-
0000|10|:-
0000|10|:-
0000|02|:-
0000|00|:-
0000|00|:-
0000|00|:-
0000|00|:-
0000|00|:-
0000|00|:-
0000|00|:-
0000|00|:-
0000|00|:-
0000|00|:-
0000|00|:-
0000|00|oo
0000|00|::
0000|00|::
0000|00|::
0000|00|::
0000|00|::
0100|00|::
0000|00|::
0000|00|:P
0000|00|::
0000|00|::
0000|00|::
1000|00|::
0000|00|::
0000|00|::
0000|00|::
0000|00|:F
0000|00|::
0100|00|::
0000|00|::
0000|00|::
0000|00|::
0000|00|::
0000|00|::
0000|00|::
0000|00|::
0000|00|::
0000|00|::
0000|00|::
0000|00|::
1000|00|::
0000|00|::
0000|00|::
0000|00|::
0000|00|::
0000|00|::
0100|00|::
0000|00|::
0000|00|::
0000|00|::
0000|00|::
0000|00|::
1000|00|::
0000|00|::
0000|00|::
0000|00|::
0000|00|::
0000|00|::
--
0000|00|:0
0000|00|::
0000|00|::
0000|00|::
0100|00|::
0000|00|::
0000|00|::
0000|00|::
0000|00|::
0000|00|::
0000|00|::
0000|00|::
0001|00|::
0000|00|::
0000|00|::
0000|00|::
0010|00|::
0000|00|::
0000|00|::
0000|00|::
0000|00|::
0000|00|::
0000|00|::
0000|00|::
1100|00|::
0000|00|::
0000|00|::
0000|00|::
0011|00|::
0000|00|::
0000|00|::
0000|00|::
fx-l=
fx-r=
0000|11|::
0000|11|::
0000|11|::
0000|11|::
0000|11|::
0000|11|::
0000|11|::
0000|11|::
0100|00|::
0000|00|::
0000|00|::
0000|00|::
0010|00|::
0000|00|::
0000|00|::
0000|00|::
0001|00|o:
0000|00|::
0000|00|0:
0000|00|-:
0000|00|-:
0000|00|-:
0000|00|-:
0000|00|-:
1000|00|-0
0000|00|-:
0000|00|-o
0000|00|-:
0100|00|-:
0000|00|-:
0000|00|-:
0000|00|-:
--
1000|00|-o
0000|00|-:
0000|00|-P
0000|00|-:
0000|20|-K
0000|00|-:
0000|00|-P
0000|00|-:
0000|20|-o
0000|00|-:
0000|00|-P
0000|00|-:
0000|00|-K
0000|00|-:
0000|00|-P
0000|00|-:
0000|02|-o
0000|00|-:
0000|00|-P
0000|00|-:
0000|00|-A
0000|00|-:
0000|02|-:
0000|00|-:
0000|00|-0
0000|00|-:
0000|00|-:
0000|00|-:
0000|20|-A
0000|00|-:
0000|00|-P
0000|00|-:
--
0000|00|0o
0000|00|:-
0000|00|P-
0000|00|:-
0000|02|U-
0000|00|:-
0000|00|P-
0000|00|:-
0000|00|0-
0000|00|:-
0000|02|P-
0000|00|:-
0000|00|U-
0000|00|:-
0000|00|P-
0000|00|:-
0000|20|0-
0000|00|:-
0000|00|P-
0000|00|:-
0000|00|e-
0000|00|:-
0000|20|:-
0000|00|:-
0000|00|o-
0000|00|:-
0000|00|:-
0000|00|:-
0000|02|e-
0000|00|:-
0000|00|P-
0000|00|:-
--
0000|00|0o
0000|00|-:
0000|00|-P
0000|00|-:
fx-l=
1000|10|-K
0000|10|-:
0100|10|-P
0000|10|-:
1000|00|-o
0000|00|--
0000|00|--
0000|00|--
0100|00|--
0000|00|--
0010|00|--
0000|00|--
0000|00|0-
0000|00|:-
0000|00|P-
0000|00|:-
fx-r=
0001|01|U-
0000|01|:-
0010|01|P-
0000|01|:-
0001|00|0-
0000|00|--
0000|00|--
0000|00|--
0000|00|--
0000|00|--
0000|00|--
0000|00|--
--
zoom_top=0
zoom_bottom=0
0110|00|-o
0000|00|-:
0000|00|-:
0000|00|-:
0000|00|-:
0000|00|-:
0000|00|-:
0000|00|-:
0110|00|-:
0000|00|-:
0000|00|-:
0000|00|-:
0000|00|-:
0000|00|-:
0000|00|-:
0000|00|-:
0000|00|-:
0000|00|-:
0000|00|-:
0000|00|-:
0110|00|-:
0000|00|-:
0000|00|-:
0000|00|-:
0000|00|-:
0000|00|-:
0000|00|-:
0000|00|-:
0110|00|-:
0000|00|-:
0000|00|-:
0000|00|-:
zoom_top=-20
zoom_bottom=-75
0000|00|-0
0000|00|-:
0000|00|-o
0000|00|--
0000|00|--
0000|00|--
0000|00|--
0000|00|--
0000|00|--
0000|00|--
0000|00|--
0000|00|--
fx-r=
0000|01|0-
0000|01|:-
0000|01|o-
0000|01|:-
0000|01|:-
0000|01|:-
0000|01|:-
0000|01|:-
0000|01|:-
0000|01|:-
0000|01|:-
0000|01|:-
0000|01|:-
0000|01|:-
0000|01|:-
0000|01|:-
0000|01|:-
0000|01|:-
0000|01|:-
0000|01|:-
--
zoom_top=-20
0000|00|o-
0000|00|:-
0000|00|:-
0000|00|:-
0010|00|P-
0000|00|:-
0001|00|:-
0000|00|:-
0010|00|A-
0000|00|:-
0001|00|:-
0000|00|:-
0000|00|:-
0000|00|:-
0010|00|:-
0000|00|:-
zoom_top=20
0000|00|0-
0000|00|:-
0100|00|:-
0000|00|:-
0000|00|:-
0000|00|:-
0020|00|:-
0020|00|:-
0020|00|A-
0020|00|:-
0020|00|:-
0020|00|:-
0100|00|P-
0000|00|:-
0000|00|:-
0000|00|:-
--
0000|00|oo
0000|00|-:
0000|00|-:
0000|00|-:
0100|00|-P
0000|00|-:
1000|00|-:
0000|00|-:
0100|00|-A
0000|00|-:
1000|00|-:
0000|00|-:
0000|00|-:
0000|00|-:
0100|00|-:
0000|00|-:
0000|00|-0
0000|00|-:
0010|00|-:
0000|00|-:
0000|00|-:
0000|00|-:
0200|00|-:
0200|00|-:
0200|00|-A
0200|00|-:
0200|00|-:
0200|00|-:
0010|00|-P
0000|00|-:
0000|00|-:
0000|00|-:
--
fx-l=
0000|10|-o
0000|10|--
0000|10|--
0000|10|--
0000|10|--
0000|10|--
0001|10|--
0000|10|--
0000|10|--
0000|10|--
0000|10|--
0000|10|--
1000|10|--
0000|10|--
0010|10|--
0000|10|--
0000|10|--
0000|10|--
0100|10|--
0000|10|--
0001|10|--
0000|10|--
1000|10|--
0000|10|--
0010|10|--
0000|10|--
0100|10|--
0000|10|--
0001|10|--
0000|10|--
0010|10|--
0000|10|--
--
1000|00|--
0000|00|--
0000|00|--
0000|00|--
0100|02|--
0000|00|--
0000|00|--
0000|00|--
0010|00|--
0000|00|--
0000|00|--
0000|00|--
1000|00|--
0000|00|--
0000|00|--
0000|00|--
0100|02|--
0000|00|--
0000|00|--
0000|00|--
0010|00|--
0000|00|--
0000|00|--
0000|00|--
1000|02|--
0000|00|--
0000|00|--
0000|00|--
0100|00|--
0000|00|--
0000|00|--
0000|00|--
0010|20|--
0000|00|--
0000|00|--
0000|00|--
0001|00|--
0000|00|--
0000|00|--
0000|00|--
0100|00|--
0000|00|--
0000|00|--
0000|00|--
0010|20|--
0000|00|--
0000|00|--
0000|00|--
0001|00|--
0000|00|--
0000|00|--
0000|00|--
0100|00|--
0000|00|--
0000|00|--
0000|00|--
0000|00|-o
0000|00|-:
0000|00|-0
0000|00|-:
1000|00|-:
0000|00|-:
0000|00|-:
0000|00|-:
--
0000|00|-0
0000|00|-:
0000|00|-:
0000|00|-:
0100|00|-P
0000|00|-:
0010|00|-:
0000|00|-:
0100|00|-e
0000|00|-:
0010|00|-:
0000|00|-:
0000|00|-:
0000|00|-:
0000|02|-:
0000|00|-:
0000|00|-o
0000|00|-:
0000|20|-:
0000|00|-:
0000|00|-:
0000|00|-:
fx-r=
0000|01|-:
0000|01|-:
0000|01|-e
0000|01|-:
0000|20|-:
0000|00|-:
0000|20|-P
0000|00|-:
0000|00|-:
0000|00|-:
--
0000|00|00
0000|00|:-
0000|00|:-
0000|00|:-
0010|00|P-
0000|00|:-
0100|00|:-
0000|00|:-
0010|00|e-
0000|00|:-
0100|00|:-
0000|00|:-
0000|00|:-
0000|00|:-
0000|20|:-
0000|00|:-
0000|00|o-
0000|00|:-
0000|02|:-
0000|00|:-
0000|00|:-
0000|00|:-
fx-l=
0000|10|:-
0000|10|:-
0000|10|e-
0000|10|:-
0000|10|:-
0000|10|:-
0000|02|P-
0000|00|:-
0000|00|:-
0000|00|:-
--
0000|02|0-
0000|00|--
0000|00|--
0000|00|--
0000|00|--
0000|00|--
0000|00|--
0000|00|--
0000|00|--
0000|00|--
zoom_top=20
zoom_bottom=-75
0001|00|--
0000|00|--
0100|00|--
0000|00|--
0001|00|--
0000|00|--
0100|00|--
0000|00|--
0010|00|--
0000|00|--
0100|00|--
0000|00|--
0010|00|--
0000|00|--
0100|00|--
0000|00|--
0010|00|--
0000|00|--
0100|00|--
0000|00|--
0010|00|--
0000|00|--
1000|00|--
0000|00|--
0010|00|--
0000|00|--
1000|00|--
0000|00|--
0010|00|--
0000|00|--
1000|00|--
0000|00|--
0010|00|--
0000|00|--
1000|00|--
0000|00|--
0010|00|--
0000|00|--
zoom_top=0
zoom_bottom=-30
0100|00|--
0000|00|--
0001|00|--
0000|00|--
0100|00|--
0000|00|--
0001|00|--
0000|00|--
1000|00|--
0000|00|--
0010|00|--
0000|00|--
1000|00|--
0000|00|--
0010|00|--
0000|00|--
--
0000|00|--
0000|00|--
0000|00|--
0000|00|--
0000|00|--
0000|00|--
0000|00|--
0000|00|--
0000|00|0o
0000|00|::
0000|00|o0
0000|00|::
0000|00|o0
0000|00|::
0000|00|0o
0000|00|::
0000|00|0o
0000|00|::
0000|00|o0
0000|00|::
0000|00|o0
0000|00|::
0000|00|0o
0000|00|:-
0000|00|:-
0000|00|:-
0000|00|:-
0000|00|:-
0011|00|0-
0000|00|:-
0000|00|o-
0000|00|:-
0000|00|:-
0000|00|:-
0000|00|:-
0000|00|:-
0000|00|:-
0000|00|:-
0000|00|:-
0000|00|:-
zoom_top=0
zoom_bottom=-30
laserrange_r=2x
0000|00|ob
0000|00|::
0000|00|PP
0000|00|::
0000|00|::
0000|00|::
0000|00|::
0000|00|::
0000|00|PP
0000|00|::
0000|00|FK
0000|00|::
0000|00|::
0000|00|::
0000|00|::
0000|00|::
0000|00|FK
0000|00|::
0000|00|0C
0000|00|-:
0000|00|-:
0000|00|-:
0000|00|-:
0000|00|-:
--
zoom_top=-20
zoom_bottom=-100
1000|00|-C
0000|00|-:
0000|00|-7
0000|00|-:
0100|00|-:
0000|00|-:
0000|00|-:
0000|00|-:
0010|00|-:
0000|00|-:
0000|00|-:
0000|00|-:
0001|00|-:
0000|00|-:
0000|00|-:
0000|00|-:
0000|20|-:
0000|00|-:
0000|00|-:
0000|00|-:
0000|02|-:
0000|00|-:
0000|00|-:
0000|00|-:
0000|00|-:
0000|00|-:
0000|00|-:
0000|00|-:
0110|00|-7
0000|00|-:
0000|00|-:
0000|00|-:
0000|00|-:
0000|00|-:
0000|00|-:
0000|00|-:
1100|00|-:
0000|00|-:
0000|00|-:
0000|00|-:
2200|00|-:
2200|00|-:
2200|00|-:
2200|00|-:
2200|00|-:
2200|00|-:
2200|00|-:
2200|00|-:
0000|00|-P
0000|00|-:
0000|00|-:
0000|00|-:
0000|00|-:
0000|00|-:
0000|00|-:
0000|00|-:
laserrange_l=2x
fx-r=
0000|01|PP
0000|01|:-
0000|01|b-
0000|01|:-
0000|01|:-
0000|01|:-
0000|01|:-
0000|01|:-
--
0001|00|b-
0000|00|:-
0000|00|h-
0000|00|:-
0010|00|:-
0000|00|:-
0000|00|:-
0000|00|:-
0100|00|:-
0000|00|:-
0000|00|:-
0000|00|:-
1000|00|:-
0000|00|:-
0000|00|:-
0000|00|:-
0000|02|:-
0000|00|:-
0000|00|:-
0000|00|:-
0000|20|:-
0000|00|:-
0000|00|:-
0000|00|:-
0000|00|:-
0000|00|:-
0000|00|:-
0000|00|:-
0220|00|h-
0220|00|:-
0220|00|:-
0220|00|:-
0220|00|:-
0220|00|:-
0220|00|:-
0220|00|:-
0220|00|:-
0220|00|:-
0220|00|:-
0220|00|:-
0220|00|:-
0220|00|:-
0220|00|:-
0220|00|:-
0220|00|:-
0220|00|:-
0220|00|:-
0220|00|:-
0000|00|P-
0000|00|:-
0000|00|:-
0000|00|:-
0000|00|:-
0000|00|:-
0000|00|:-
0000|00|:-
laserrange_r=2x
fx-l=
0000|10|Ph
0000|10|-:
0000|10|-7
0000|10|--
0000|10|--
0000|10|--
0000|10|--
0000|10|--
--
1010|00|--
0000|00|--
0000|00|--
0000|00|--
0001|00|--
0000|00|--
1100|00|--
0000|00|--
0000|00|--
0000|00|--
0110|00|--
0000|00|--
0000|00|--
0000|00|--
fx-l=
0022|10|--
0022|10|--
0022|10|--
0022|10|--
0022|10|--
0022|10|--
1000|00|--
0000|00|--
0000|00|--
0000|00|--
0110|00|--
0000|00|--
0000|00|--
0000|00|--
1000|00|--
0000|00|--
0010|00|--
0000|00|--
--
0101|00|--
0000|00|--
0000|00|--
0000|00|--
0000|00|--
0000|00|--
0000|00|--
0000|00|--
1000|00|--
0000|00|--
0000|00|--
0000|00|--
0011|00|--
0000|00|--
0000|00|--
0000|00|--
0000|00|--
0000|00|--
0000|00|--
0000|00|--
0110|00|--
0000|00|--
0000|00|--
0000|00|--
0000|00|--
0000|00|--
0000|00|--
0000|00|--
fx-r=
2200|01|--
2200|01|--
2200|01|--
2200|01|--
2200|01|--
2200|01|--
2200|01|--
2200|01|--
2200|01|--
2200|01|--
2200|01|--
2200|01|--
0001|00|--
0000|00|--
0000|00|--
0000|00|--
0000|00|--
0000|00|--
0000|00|--
0000|00|--
laserrange_r=2x
laserrange_l=2x
0000|00|PP
0000|00|::
0000|00|7h
0000|00|::
0000|00|7h
0000|00|::
0000|00|PP
0000|00|:-
0000|00|:-
0000|00|:-
0000|00|:-
0000|00|:-
0000|00|:-
0000|00|:-
0000|00|:-
0000|00|:-
--
0001|00|P-
0000|00|:-
0000|00|h-
0000|00|:-
0010|00|:-
0000|00|:-
0000|00|:-
0000|00|:-
0100|00|:-
0000|00|:-
0000|00|:-
0000|00|:-
1000|00|:-
0000|00|:-
0000|00|:-
0000|00|:-
0000|02|:-
0000|00|:-
0000|00|:-
0000|00|:-
0000|20|:-
0000|00|:-
0000|00|:-
0000|00|:-
0000|00|:-
0000|00|:-
0000|00|:-
0000|00|:-
0110|00|h-
0000|00|:-
0000|00|:-
0000|00|:-
0000|00|:-
0000|00|:-
0000|00|:-
0000|00|:-
0011|00|:-
0000|00|:-
0000|00|:-
0000|00|:-
0022|00|:-
0022|00|:-
0022|00|:-
0022|00|:-
0022|00|:-
0022|00|:-
0022|00|:-
0022|00|:-
0000|00|P-
0000|00|:-
0000|00|:-
0000|00|:-
0000|00|:-
0000|00|:-
0000|00|:-
0000|00|:-
laserrange_r=2x
fx-l=
0000|10|PP
0000|10|-:
0000|10|-D
0000|10|-:
0000|10|-:
0000|10|-:
0000|10|-:
0000|10|-:
--
1000|00|-D
0000|00|-:
0000|00|-7
0000|00|-:
0100|00|-:
0000|00|-:
0000|00|-:
0000|00|-:
0010|00|-:
0000|00|-:
0000|00|-:
0000|00|-:
0001|00|-:
0000|00|-:
0000|00|-:
0000|00|-:
0000|20|-:
0000|00|-:
0000|00|-:
0000|00|-:
0000|02|-:
0000|00|-:
0000|00|-:
0000|00|-:
0000|00|-:
0000|00|-:
0000|00|-:
0000|00|-:
0110|00|-7
0000|00|-:
0000|00|-:
0000|00|-:
0000|00|-:
0000|00|-:
0000|00|-:
0000|00|-:
1000|00|-:
0000|00|-:
0000|00|-:
0000|00|-:
0100|00|-:
0000|00|-:
0000|00|-:
0000|00|-:
1000|00|-:
0000|00|-:
0000|00|-:
0000|00|-:
0000|00|-P
0000|00|-:
0000|00|-:
0000|00|-:
0000|00|-:
0000|00|-:
0000|00|-:
0000|00|-:
laserrange_l=2x
fx-r=
0000|01|7P
0000|01|:-
0000|01|h-
0000|01|--
0000|01|--
0000|01|--
0000|01|--
0000|01|--
--
0101|00|--
0000|00|--
0000|00|--
0000|00|--
0010|00|--
0000|00|--
1000|00|--
0000|00|--
0000|00|--
0000|00|--
0101|00|--
0000|00|--
0000|00|--
0000|00|--
0020|00|-o
0020|00|-:
0020|00|-P
0020|00|-:
0020|00|-F
0020|00|-:
0200|00|-A
0200|00|-:
0200|00|-F
0200|00|-:
0000|00|-o
0000|00|--
0000|00|--
0000|00|--
0100|00|--
0000|00|--
0100|00|--
0000|00|--
--
1010|00|--
0000|00|--
0000|00|--
0000|00|--
0000|00|--
0000|00|--
0000|00|--
0000|00|--
0001|00|--
0000|00|--
0000|00|--
0000|00|--
0100|00|--
0000|00|--
0000|00|--
0000|00|--
0000|00|--
0000|00|--
0000|00|--
0000|00|--
1010|00|--
0000|00|--
0000|00|--
0000|00|--
0000|00|--
0000|00|--
0000|00|--
0000|00|--
0200|00|0-
0200|00|:-
0200|00|:-
0200|00|:-
0200|00|P-
0200|00|:-
0200|00|:-
0200|00|:-
0200|00|Z-
0200|00|:-
0200|00|:-
0200|00|:-
0020|00|e-
0020|00|:-
0020|00|:-
0020|00|:-
0020|00|Z-
0020|00|:-
0020|00|:-
0020|00|:-
0000|00|0-
0000|00|:-
0000|00|o-
0000|00|--
0000|00|--
0000|00|--
0000|00|--
0000|00|--
1000|00|-o
0000|00|-:
0000|00|-0
0000|00|--
0000|00|--
0000|00|--
0000|00|--
0000|00|--
--
zoom_top=-20
zoom_bottom=-100
0001|00|0-
0000|00|:-
0000|00|o-
0000|00|:-
0000|00|:-
0000|00|:-
0000|00|:-
0000|00|:-
0000|02|:-
0000|00|:-
0000|00|:-
0000|00|:-
0000|00|:-
0000|00|:-
0000|00|:-
0000|00|:-
0000|02|:-
0000|00|:-
0000|00|:-
0000|00|:-
0000|00|:-
0000|00|:-
0000|00|:-
0000|00|:-
0000|00|:-
0000|00|:-
0000|00|:-
0000|00|:-
0000|00|:-
0000|00|:-
0000|00|:-
0000|00|:-
0000|20|:-
0000|00|:-
0000|00|:-
0000|00|:-
0000|00|:-
0000|00|:-
0000|00|:-
0000|00|:-
0000|00|:-
0000|00|:-
0000|00|:-
0000|00|:-
0000|20|:-
0000|00|:-
0000|00|:-
0000|00|:-
0000|00|:-
0000|00|:-
0000|00|:-
0000|00|:-
0000|00|:-
0000|00|:-
0000|00|:-
0000|00|:-
0000|02|:-
0000|00|:-
0000|00|:-
0000|00|:-
0000|00|:-
0000|00|:-
0000|00|:-
0000|00|:-
--
zoom_top=0
zoom_bottom=0
0110|00|0-
0000|00|:-
0000|00|o-
0000|00|:-
0000|00|:-
0000|00|:-
0000|00|:-
0000|00|:-
0110|00|o-
0000|00|:-
0000|00|0-
0000|00|--
0000|00|--
0000|00|--
0000|00|--
0000|00|--
0000|00|--
0000|00|--
0000|00|--
0000|00|--
0110|00|-o
0000|00|-:
0000|00|-0
0000|00|-:
0000|00|-:
0000|00|-:
0000|00|-:
0000|00|-:
0110|00|-0
0000|00|-:
0000|00|-o
0000|00|--
0000|00|--
0000|00|--
0000|00|--
0000|00|--
1000|00|--
0000|00|--
0100|00|--
0000|00|--
0010|00|--
0000|00|--
0000|00|--
0000|00|--
0001|00|--
0000|00|--
0000|00|--
0000|00|--
0100|00|--
0000|00|--
0000|00|--
0000|00|--
1000|00|--
0000|00|--
0100|00|--
0000|00|--
0010|00|--
0000|00|--
0000|00|--
0000|00|--
0001|00|--
0000|00|--
0000|00|--
0000|00|--
--
0010|00|0-
0000|00|:-
0000|00|o-
0000|00|:-
0000|00|:-
0000|00|:-
0000|00|:-
0000|00|:-
0001|00|:-
0000|00|:-
0100|00|:-
0000|00|:-
0001|00|:-
0000|00|:-
0100|00|:-
0000|00|:-
0001|00|:-
0000|00|:-
0100|00|:-
0000|00|:-
0001|00|:-
0000|00|:-
0100|00|:-
0000|00|:-
0001|00|:-
0000|00|:-
0100|00|:-
0000|00|:-
0001|00|:-
0000|00|:-
0100|00|:-
0000|00|:-
0001|00|:-
0000|00|:-
0100|00|:-
0000|00|:-
0001|00|:-
0000|00|:-
0100|00|:-
0000|00|:-
0000|00|:-
0000|00|:-
0000|00|:-
0000|00|:-
0010|00|:-
0000|00|:-
0000|00|:-
0000|00|:-
0000|00|:-
0000|00|:-
0000|00|:-
0000|00|:-
0100|00|:-
0000|00|:-
0000|00|:-
0000|00|:-
1000|02|:-
0000|00|:-
0000|00|:-
0000|00|:-
0000|00|:-
0000|00|:-
0001|00|:-
0000|00|:-
--
0010|00|o-
0000|00|:-
0001|00|:-
0000|00|:-
0010|00|:-
0000|00|:-
0001|00|:-
0000|00|:-
0010|00|:-
0000|00|:-
0100|00|:-
0000|00|:-
0010|00|:-
0000|00|:-
0100|00|:-
0000|00|:-
0000|00|:-
0000|00|:-
0011|00|:-
0000|00|:-
0000|00|:-
0000|00|:-
0110|00|0-
0000|00|--
0000|00|--
0000|00|--
0000|20|--
0000|00|--
fx-r=
0000|01|--
0000|01|--
0000|01|--
0000|01|--
--
1000|00|--
0000|00|--
0000|00|--
0000|00|--
0000|00|--
0000|00|--
0100|00|--
0000|00|--
0000|00|--
0000|00|--
0000|00|--
0000|00|--
0010|00|--
0000|00|--
0000|00|--
0000|00|--
0000|00|--
0000|00|--
0001|00|--
0000|00|--
0000|00|--
0000|00|--
0000|00|--
0000|00|--
fx-l=
0010|10|--
0000|10|--
0000|10|--
0000|10|--
0000|10|--
0000|10|--
1000|10|--
0000|10|--
0000|10|--
0000|10|--
0000|10|--
0000|10|--
0001|10|--
0000|10|--
0000|10|--
0000|10|--
0000|10|--
0000|10|--
0100|10|--
0000|10|--
0000|10|--
0000|10|--
0000|10|--
0000|10|--
0011|00|--
0000|00|--
0000|00|--
0000|00|--
0000|00|--
0000|00|--
0000|00|--
0000|00|--
0110|00|--
0000|00|--
0000|00|--
0000|00|--
0000|00|--
0000|00|--
0000|00|--
0000|00|--
1100|00|--
0000|00|--
0000|00|--
0000|00|--
0000|00|--
0000|00|--
0000|00|--
0000|00|--
fx-r=
0000|01|--
0000|01|--
0000|01|--
0000|01|--
0000|01|--
0000|01|--
0000|01|--
0000|01|--
0010|01|--
0000|01|--
0000|01|--
0000|01|--
0000|01|--
0000|01|--
0000|01|--
0000|01|--
0100|01|--
0000|01|--
0000|01|--
0000|01|--
0000|01|--
0000|01|--
0000|01|--
0000|01|--
--
1000|00|--
0000|00|--
0000|00|--
0000|00|--
0000|00|--
0000|00|--
0010|00|--
0000|00|--
0001|00|--
0000|00|--
0000|00|--
0000|00|--
0100|00|--
0000|00|--
0001|00|--
0000|00|--
0000|00|--
0000|00|--
1000|00|--
0000|00|--
0001|00|--
0000|00|--
0000|00|--
0000|00|--
0010|00|--
0000|00|--
0001|00|--
0000|00|--
0000|00|--
0000|00|--
0100|00|--
0000|00|--
0001|00|--
0000|00|--
0000|00|--
0000|00|--
1000|00|--
0000|00|--
0001|00|--
0000|00|--
0000|00|--
0000|00|--
0010|00|--
0000|00|--
0001|00|--
0000|00|--
0000|00|--
0000|00|--
0000|00|0-
0000|00|:-
0000|00|o-
0000|00|:-
0000|00|:-
0000|00|:-
0000|00|:-
0000|00|:-
fx-r=
0000|01|:-
0000|01|:-
0000|01|:-
0000|01|:-
0000|01|:-
0000|01|:-
0000|01|:-
0000|01|:-
--
0011|00|0-
0000|00|--
0000|00|--
0000|00|--
0000|00|--
0000|00|--
0000|00|--
0000|00|--
0000|00|--
0000|00|--
0000|00|--
0000|00|--
0000|00|--
0000|00|--
0000|00|--
0000|00|--
0000|00|--
0000|00|--
0000|00|--
0000|00|--
0000|00|--
0000|00|--
0000|00|--
0000|00|--
0000|20|--
0000|00|--
0000|00|--
0000|00|--
0000|00|--
0000|00|--
0000|00|--
0000|00|--
0000|00|--
0000|00|--
0000|00|--
0000|00|--
0001|00|--
0000|00|--
0000|00|--
0000|00|--
0000|00|--
0000|00|--
0000|00|--
0000|00|--
0000|00|--
0000|00|--
0000|00|--
0000|00|--
0001|20|--
0000|00|--
0000|00|--
0000|00|--
0000|00|--
0000|00|--
0000|00|--
0000|00|--
0000|00|--
0000|00|--
0000|00|--
0000|00|--
0010|00|--
0000|00|--
0000|00|--
0000|00|--
0000|00|--
0000|00|--
0000|00|--
0000|00|--
0000|00|--
0000|00|--
0000|00|--
0000|00|--
0100|00|--
0000|00|--
0000|00|--
0000|00|--
0000|00|--
0000|00|--
0000|00|--
0000|00|--
0000|00|--
0000|00|--
0000|00|--
0000|00|--
1000|00|--
0000|00|--
0000|00|--
0000|00|--
0000|00|--
0000|00|--
0000|00|--
0000|00|--
0000|00|--
0000|00|--
0000|00|--
0000|00|--
0000|20|--
0000|00|--
0000|00|--
0000|00|--
0000|00|--
0000|00|--
0000|00|--
0000|00|--
0000|00|--
0000|00|--
0000|00|--
0000|00|--
0001|00|--
0000|00|--
0000|00|--
0000|00|--
0000|00|--
0000|00|--
0000|00|--
0000|00|--
0000|00|--
0000|00|--
0000|00|--
0000|00|--
0000|00|--
0000|00|--
0000|00|--
0000|00|--
0000|00|--
0000|00|--
0001|00|--
0000|00|--
0000|00|--
0000|00|--
0000|00|--
0000|00|--
0000|20|--
0000|00|--
0000|00|--
0000|00|--
0000|00|--
0000|00|--
0000|00|--
0000|00|--
0000|00|--
0000|00|--
0000|00|--
0000|00|--
0001|00|--
0000|00|--
0000|00|--
0000|00|--
0000|00|--
0000|00|--
0000|00|--
0000|00|--
0000|00|--
0000|00|--
0000|00|--
0000|00|--
0000|00|--
0000|00|--
0000|00|--
0000|00|--
0110|00|--
0000|00|--
0000|00|--
0000|00|--
0000|00|--
0000|00|--
0000|00|--
0000|00|--
0000|00|--
0000|00|--
0000|00|--
0000|00|--
0000|00|--
0000|00|--
0000|00|--
0000|00|--
0110|00|--
0000|00|--
0000|00|--
0000|00|--
0000|00|--
0000|00|--
0000|00|--
0000|00|--
0000|00|--
0000|00|--
0000|00|--
0000|00|--
0000|00|--
0000|00|--
0000|00|--
0000|00|--
--
1000|00|--
0000|00|--
0000|02|--
1000|00|--
0000|00|--
0100|00|--
0000|00|--
0000|00|--
0100|02|--
0000|00|--
0000|00|--
0100|00|--
0000|00|--
0000|00|--
1000|02|--
0000|00|--
0000|00|--
1000|00|--
0000|00|--
0000|00|--
1000|02|--
0000|00|--
0000|00|--
0110|00|--
0000|00|--
0000|00|--
0110|00|--
0000|00|--
0000|00|--
0110|00|--
0000|00|--
0000|00|--
--
0002|00|--
0002|00|--
0002|00|--
0002|00|--
0002|00|--
0002|00|--
0020|20|--
0020|00|--
0020|00|--
0020|00|--
0020|00|--
0020|00|--
0200|20|--
0200|00|--
0200|00|--
0200|00|--
0200|00|--
0200|00|--
0000|00|--
0000|00|--
0010|20|--
0000|00|--
0001|00|--
0000|00|--
0010|20|--
0000|00|--
0100|00|--
0000|00|--
0010|00|--
0000|00|--
0001|00|--
0000|00|--
--
0000|00|--
0000|00|--
0000|00|--
0000|00|--
0000|00|--
0000|00|--
0000|00|--
0000|00|--
0000|00|--
0000|00|--
0000|00|--
0000|00|--
0000|00|--
0000|00|--
0000|00|--
0000|00|--
0000|00|--
0000|00|--
0000|00|--
0000|00|--
zoom_top=0
zoom_bottom=0
0010|00|--
0000|00|--
0000|00|--
0000|00|--
0000|00|--
0000|00|--
0000|00|--
0000|00|--
0100|00|--
0000|00|--
0000|00|--
0000|00|--
0000|00|--
0000|00|--
0000|00|--
0000|00|--
0010|00|--
0000|00|--
0000|00|--
0000|00|--
0000|00|--
0000|00|--
0100|00|--
0000|00|--
0000|00|--
0000|00|--
0000|00|--
0000|00|--
0010|00|--
0000|00|--
0000|00|--
0000|00|--
0000|00|--
0000|00|--
0100|00|--
0000|00|--
0000|00|--
0000|00|--
0000|00|--
0000|00|--
0010|00|--
0000|00|--
0000|00|--
0000|00|--
0000|00|--
0000|00|--
0100|00|--
0000|00|--
0000|00|--
0000|00|--
0000|00|--
0000|00|--
0010|00|--
0000|00|--
0000|00|--
0000|00|--
0000|00|--
0000|00|--
0100|00|--
0000|00|--
0000|00|--
0000|00|--
0000|00|--
0000|00|--
0010|00|--
0000|00|--
0000|00|--
0000|00|--
0000|00|--
0000|00|--
0100|00|--
0000|00|--
0000|00|--
0000|00|--
0000|00|--
0000|00|--
0010|00|--
0000|00|--
0000|00|--
0000|00|--
0000|00|--
0000|00|--
0100|00|--
0000|00|--
0000|00|--
0000|00|--
0000|00|--
0000|00|--
0010|00|--
0000|00|--
0000|00|--
0000|00|--
0000|00|--
0000|00|--
0100|00|--
0000|00|--
0000|00|--
0000|00|--
0000|00|--
0000|00|--
0010|00|--
0000|00|--
0000|00|--
0000|00|--
0000|00|--
0000|00|--
0100|00|--
0000|00|--
0000|00|--
0000|00|--
0000|00|--
0000|00|--
0010|00|--
0000|00|--
0000|00|--
0000|00|--
0000|00|--
0000|00|--
0100|00|--
0000|00|--
0000|00|--
0000|00|--
0000|00|--
0000|00|--
0010|00|--
0000|00|--
0000|00|--
0000|00|--
0000|00|--
0000|00|--
0000|00|--
0000|00|--
0000|00|--
0100|00|--
0000|00|--
0000|00|--
0000|00|--
0000|00|--
0000|00|--
0000|00|--
0000|00|--
0000|00|--
0010|00|--
0000|00|--
0000|00|--
0000|00|--
0000|00|--
0000|00|--
0000|00|--
0000|00|--
0000|00|--
0100|00|--
0000|00|--
0000|00|--
0000|00|--
0000|00|--
0000|00|--
0000|00|--
0000|00|--
0000|00|--
0010|00|--
0000|00|--
0000|00|--
0000|00|--
0000|00|--
0000|00|--
0000|00|--
0000|00|--
0000|00|--
0000|00|--
0000|00|--
0000|00|--
--
zoom_top=20
zoom_bottom=-100
fx-r=
0000|01|0-
0000|01|:-
0000|01|P-
0000|01|:-
0000|01|e-
0000|01|:-
0000|01|:-
0000|01|:-
0011|00|o-
0000|00|:-
0000|00|:-
0000|00|:-
0000|00|e-
0000|00|:-
0220|00|P-
0220|00|:-
0220|00|0-
0220|00|:-
0220|00|P-
0220|00|:-
0220|00|e-
0220|00|:-
0220|00|:-
0220|00|:-
0220|00|o-
0220|00|:-
0220|00|:-
0220|00|:-
0000|00|e-
0000|00|:-
0000|00|P-
0000|00|:-
--
fx-l=
0000|10|0-
0000|10|:-
0000|10|P-
0000|10|:-
0000|10|e-
0000|10|:-
0000|10|:-
0000|10|:-
fx-r=
0000|01|o-
0000|01|:-
0000|01|:-
0000|01|:-
0000|01|:-
0000|01|:-
0000|01|:-
0000|01|:-
1100|00|:-
0000|00|:-
0011|00|:-
0000|00|:-
0000|00|:-
0000|00|:-
0110|00|:-
0000|00|:-
0000|00|:-
0000|00|:-
0000|02|:-
0000|00|:-
0000|00|:-
0000|00|:-
0000|20|:-
0000|00|:-
--
0000|00|oo
0000|00|-:
0000|00|-P
0000|00|-:
0110|00|-A
0000|00|-:
0000|00|-:
0000|00|-:
fx-r=
0000|01|-0
0000|01|-:
0000|01|-:
0000|01|-:
0000|01|-A
0000|01|-:
0000|20|-P
0000|00|-:
0000|00|-o
0000|00|-:
0100|00|-P
0000|00|-:
0000|00|-A
0000|00|-:
0010|00|-:
0000|00|-:
0000|00|-0
0000|00|-:
0100|00|-:
0000|00|-:
0000|00|-A
0000|00|-:
1000|00|-P
0000|00|-:
--
0000|00|-o
0000|00|-:
0000|00|-:
0000|00|-:
0100|00|-P
0000|00|-:
0000|00|-:
0000|00|-:
0000|00|-A
0000|00|-:
1000|00|-:
0000|00|-:
0000|00|-:
0000|00|-:
0000|00|-:
0000|00|-:
0100|00|-0
0000|00|-:
0000|00|-:
0000|00|-:
1000|00|-:
0000|00|-:
0000|00|-:
0000|00|-:
0000|00|-:
0000|00|-:
0000|00|-:
0000|00|-:
1000|00|-:
0000|00|-:
0000|00|-:
0000|00|-:
0100|00|-0
0000|00|-:
0000|00|-o
0000|00|-:
0100|00|-o
0000|00|-:
0000|00|-0
0000|00|-:
0000|00|-:
0000|00|-:
0000|00|-:
0000|00|-:
1000|00|-0
0000|00|-:
0000|00|-o
0000|00|--
0000|00|--
0000|00|--
0000|00|--
0000|00|--
0001|00|0-
0000|00|:-
0000|00|o-
0000|00|:-
0000|00|:-
0000|00|:-
0000|00|:-
0000|00|:-
fx-r=
0000|01|o-
0000|01|:-
0000|01|0-
0000|01|:-
--
0000|01|0-
0000|01|:-
0000|01|P-
0000|01|:-
0010|00|e-
0000|00|:-
0000|00|:-
0000|00|:-
0001|00|o-
0000|00|:-
0000|00|:-
0000|00|:-
0000|00|e-
0000|00|:-
0220|00|P-
0220|00|:-
0220|00|0-
0220|00|:-
0220|00|P-
0220|00|:-
0220|00|e-
0220|00|:-
0220|00|:-
0220|00|:-
0220|00|o-
0220|00|:-
0220|00|:-
0220|00|:-
0000|00|e-
0000|00|:-
0000|00|P-
0000|00|:-
--
fx-l=
0000|10|0-
0000|10|:-
0000|10|P-
0000|10|:-
0000|10|e-
0000|10|:-
0000|10|:-
0000|10|:-
fx-r=
0000|01|o-
0000|01|:-
0000|01|:-
0000|01|:-
0000|01|:-
0000|01|:-
0000|01|:-
0000|01|:-
1100|00|:-
0000|00|:-
0011|00|:-
0000|00|:-
0000|00|:-
0000|00|:-
0110|00|:-
0000|00|:-
0000|00|:-
0000|00|:-
0000|02|:-
0000|00|:-
0000|00|:-
0000|00|:-
0000|20|:-
0000|00|:-
--
0000|00|oo
0000|00|-:
0000|00|-P
0000|00|-:
0110|00|-A
0000|00|-:
0000|00|-:
0000|00|-:
fx-r=
0000|01|-0
0000|01|-:
0000|01|-:
0000|01|-:
0000|01|-A
0000|01|-:
0000|20|-P
0000|00|-:
0000|00|-o
0000|00|-:
0000|00|-P
0000|00|-:
0100|00|-A
0000|00|-:
0000|00|-:
0000|00|-:
0100|00|-0
0000|00|-:
0000|00|-:
0000|00|-:
1001|00|-:
0000|00|-:
0000|00|-:
0000|00|-:
--
zoom_top=20
zoom_bottom=-100
0010|00|-:
0000|00|-:
0000|00|-:
0000|00|-:
0000|00|-:
0000|00|-:
0100|00|-:
0000|00|-:
0000|00|-:
0000|00|-:
0000|00|-:
0000|00|-:
0010|00|-:
0000|00|-:
0000|00|-:
0000|00|-:
0000|00|-:
0000|00|-:
0100|00|-:
0000|00|-:
0000|00|-:
0000|00|-:
0000|00|-:
0000|00|-:
0010|00|-:
0000|00|-:
0000|00|-:
0000|00|-:
0000|00|-:
0000|00|-:
0100|00|-:
0000|00|-:
0000|00|-:
0000|00|-:
0000|00|-:
0000|00|-:
0010|00|-:
0000|00|-:
0000|00|-:
0000|00|-:
0000|00|-:
0000|00|-:
0100|00|-:
0000|00|-:
0000|00|-:
0000|00|-:
0000|00|-:
0000|00|-:
0001|00|-:
0000|00|-:
0000|00|-:
0000|00|-:
0000|00|-:
0000|00|-:
0000|00|-:
0000|00|-:
1000|00|-:
0000|00|-:
0000|00|-:
0000|00|-:
0000|00|-:
0000|00|-:
0000|00|-:
0000|00|-:
0001|00|-:
0000|00|-:
0000|00|-:
0000|00|-:
0000|00|-:
0000|00|-:
0000|00|-:
0000|00|-:
1000|00|-:
0000|00|-:
0000|00|-:
0000|00|-:
0000|00|-:
0000|00|-:
0000|00|-:
0000|00|-:
0001|00|-:
0000|00|-:
0000|00|-:
0000|00|-:
0000|00|-:
0000|00|-:
0000|00|-:
0000|00|-:
1000|00|-:
0000|00|-:
0000|00|-:
0000|00|-:
0000|00|-:
0000|00|-:
0000|00|-:
0000|00|-:
zoom_top=0
zoom_bottom=0
0100|00|-0
0000|00|-:
0000|00|-:
0000|00|-:
0000|00|-:
0000|00|-:
0000|00|-o
0000|00|-:
0000|00|-:
0000|00|-:
0000|00|-:
0000|00|-:
0100|00|-o
0000|00|-:
0000|00|-:
0000|00|-:
0000|00|-:
0000|00|-:
0000|00|-0
0000|00|-:
0000|00|-:
0000|00|-:
0000|00|-:
0000|00|-:
0000|00|-:
0000|00|-:
0000|00|-:
0000|00|-:
0000|00|-:
0000|00|-:
0000|00|-:
0000|00|-:
0000|00|-:
0000|00|-:
0000|00|-:
0000|00|-:
1000|00|-0
0000|00|-:
0000|00|-:
0000|00|-:
0000|00|-:
0000|00|-:
0000|00|-o
0000|00|--
0000|00|--
0000|00|--
0000|00|--
0000|00|--
0000|00|--
0000|00|--
0000|00|--
0000|00|--
0000|00|--
0000|00|--
0000|00|--
0000|00|--
0000|00|--
0000|00|--
0000|00|--
0000|00|--
0001|00|0-
0000|00|:-
0000|00|:-
0000|00|:-
0000|00|:-
0000|00|:-
0000|00|o-
0000|00|:-
0000|00|:-
0000|00|:-
0000|00|:-
0000|00|:-
0000|00|:-
0000|00|:-
0000|00|:-
0000|00|:-
0000|00|:-
0000|00|:-
0000|00|:-
0000|00|:-
0000|00|:-
0000|00|:-
0000|00|:-
0000|00|:-
0000|00|:-
0000|00|:-
0000|00|:-
0000|00|:-
0000|00|:-
0000|00|:-
0000|00|:-
0000|00|:-
0000|00|:-
0000|00|:-
0000|00|:-
0000|00|:-
--
fx-r=
0000|01|o-
0000|01|:-
0000|01|0-
0000|01|--
0000|01|--
0000|01|--
0000|01|--
0000|01|--
0000|01|--
0000|01|--
0000|01|--
0000|01|--
0000|21|--
0000|01|--
0000|01|--
0000|01|--
0000|01|--
0000|01|--
0000|01|--
0000|01|--
0000|01|--
0000|01|--
0000|01|--
0000|01|--
0000|21|--
0000|01|--
0000|01|--
0000|01|--
0000|01|--
0000|01|--
0000|01|--
0000|01|--
0000|01|--
0000|01|--
0000|01|--
0000|01|--
0000|01|--
0000|01|--
0000|01|--
0000|01|--
0000|21|--
0000|01|--
0000|01|--
0000|01|--
0000|01|--
0000|01|--
0000|01|--
0000|01|--
0000|21|--
0000|01|--
0000|01|--
0000|01|--
0000|01|--
0000|01|--
0000|01|--
0000|01|--
0000|01|--
0000|01|--
0000|01|--
0000|01|--
0000|01|--
0000|01|--
0000|01|--
0000|01|--
--
0010|00|0-
0000|00|:-
0000|00|o-
0000|00|:-
0000|00|:-
0000|00|:-
0000|00|:-
0000|00|:-
0010|00|o-
0000|00|:-
0000|00|0-
0000|00|--
0000|00|--
0000|00|--
0000|00|--
0000|00|--
0000|00|--
0000|00|--
0000|00|--
0000|00|--
0100|00|-o
0000|00|-:
0000|00|-0
0000|00|-:
0000|00|-:
0000|00|-:
0000|00|-:
0000|00|-:
0100|00|-0
0000|00|-:
0000|00|-o
0000|00|--
1000|00|--
0000|00|--
0100|00|--
0000|00|--
0010|00|--
0000|00|--
0000|00|--
0000|00|--
0000|20|--
0000|00|--
0000|00|--
0000|00|--
0001|00|--
0000|00|--
0010|00|--
0000|00|--
0100|00|--
0000|00|--
0000|00|--
0000|00|--
0000|02|--
0000|00|--
0000|00|--
0000|00|--
1000|00|--
0000|00|--
0100|00|--
0000|00|--
0010|00|--
0000|00|--
0000|00|--
0000|00|--
--
0001|00|--
0000|00|--
0010|00|--
0000|00|--
0100|00|--
0000|00|--
fx-l=
2000|10|--
2000|10|--
2000|10|--
2000|10|--
2000|10|--
2000|10|--
2000|10|--
2000|10|--
2000|10|--
2000|10|--
2000|10|-o
2000|10|-:
2000|10|-:
2000|10|-:
2000|10|-U
2000|10|-:
2000|10|-:
2000|10|-:
2000|10|-:
2000|10|-:
2000|10|-:
2000|10|-:
2000|10|-F
2000|10|-:
2000|10|-:
2000|10|-:
0100|00|-:
0000|00|-:
0000|00|-:
0000|00|-:
0000|00|-:
0000|00|-:
0000|00|-:
0000|00|-:
1000|00|-:
0000|00|-:
0000|00|-:
0000|00|-:
0000|00|-:
0000|00|-:
0100|00|-:
0000|00|-:
0000|00|-:
0000|00|-:
0000|00|-:
0000|00|-:
0010|00|-:
0000|00|-:
0000|00|-:
0000|00|-:
0000|00|-:
0000|00|-:
0000|00|-:
0000|00|-:
0100|00|-:
0000|00|-:
0000|00|-:
0000|00|-:
--
0000|00|-0
0000|00|-:
0000|00|-:
0000|00|-:
0000|00|-:
0000|00|-:
0000|00|-:
0000|00|-:
1000|00|-:
0000|00|-:
0100|00|-:
0000|00|-:
0010|00|-:
0000|00|-:
fx-r=
0002|01|-:
0002|01|-:
0002|01|-:
0002|01|-:
0002|01|-:
0002|01|-:
0002|01|-:
0002|01|-:
0002|01|-:
0002|01|-:
0002|01|00
0002|01|:-
0002|01|:-
0002|01|:-
0002|01|:-
0002|01|:-
0002|01|:-
0002|01|:-
0002|01|:-
0002|01|:-
0002|01|:-
0002|01|:-
0002|01|:-
0002|01|:-
0002|01|:-
0002|01|:-
0002|01|5-
0002|01|:-
0002|01|:-
0002|01|:-
0002|01|:-
0002|01|:-
0002|01|:-
0002|01|:-
0002|01|A-
0002|01|:-
0002|01|:-
0002|01|:-
0002|01|:-
0002|01|:-
0002|01|:-
0002|01|:-
0002|01|K-
0002|01|:-
0002|01|:-
0002|01|:-
0002|01|U-
0002|01|:-
0002|01|:-
0002|01|:-
--
0000|00|o-
0000|00|--
--
