title=Mind Mapping(ag Remix)
artist=ag
effect=azuma
jacket=jak.jpg
illustrator=shio
difficulty=infinite
level=16
t=128
m=mxm.ogg
mvol=85
o=1848
bg=be
layer=arrow
po=0
plength=15000
pfiltergain=0
icon=../sdvx04.png
chokkakuautovol=0
chokkakuvol=0
icon=../sdvx04.png
ver=160
--
beat=4/4
1000|00|-o
0000|00|-:
0000|00|-P
0000|00|-:
0100|00|-F
0000|00|-:
0000|00|-:
0000|00|-:
0010|00|-A
0000|00|-:
0000|00|-:
0000|00|-:
0100|00|-:
0000|00|-:
0000|00|-:
0000|00|-:
fx-r=
0000|01|-:
0000|01|-:
0000|01|-:
0000|01|-:
fx-l=
0000|10|-:
0000|10|-:
0000|10|-:
0000|10|-:
0010|00|-:
0000|00|-:
0000|00|-:
0000|00|-:
0100|00|-:
0000|00|-:
0000|00|-:
0000|00|-:
--
0001|00|0:
0000|00|::
0000|00|P:
0000|00|::
0010|00|Z:
0000|00|::
0000|00|::
0000|00|::
0100|00|e:
0000|00|::
0000|00|::
0000|00|::
0010|00|::
0000|00|::
0000|00|::
0000|00|::
fx-l=
0000|10|::
0000|10|::
0000|10|::
0000|10|::
fx-r=
0000|01|::
0000|01|::
0000|01|::
0000|01|::
0110|00|::
0000|00|::
0000|00|::
0000|00|::
0000|00|::
0000|00|::
0000|00|::
0000|00|::
--
0100|00|:A
0000|00|::
0000|00|:K
0000|00|::
0010|00|:P
0000|00|::
0000|00|::
0000|00|::
0100|00|:U
0000|00|::
0000|00|::
0000|00|::
1000|00|::
0000|00|::
0000|00|::
0000|00|::
fx-l=
0000|10|::
0000|10|::
0000|10|::
0000|10|::
0000|10|::
0000|10|::
0000|10|::
0000|10|::
0000|02|::
0000|00|::
0000|00|::
0000|00|::
0000|20|::
0000|00|::
0000|00|::
0000|00|::
--
0000|00|eU
0000|00|::
0000|00|::
0000|00|::
0000|00|::
0000|00|::
0000|00|F0
0000|00|::
0000|00|eU
0000|00|::
0000|00|UU
0000|00|::
0000|00|UK
0000|00|::
0000|00|Ke
0000|00|::
--
0010|00|::
0000|00|::
1000|00|::
0000|00|::
0010|00|::
0000|00|::
1000|00|::
0000|00|::
fx-l=
fx-r=
0000|11|::
0000|11|::
0000|00|::
0000|00|::
0000|00|Ke
0000|00|::
0000|00|UA
0000|00|::
--
0100|00|::
0000|00|::
0000|00|::
0000|00|::
0001|00|::
0000|00|::
0000|00|::
0000|00|::
0100|00|::
0000|00|::
0000|00|::
0000|00|::
0001|00|::
0000|00|::
0000|00|::
0000|00|::
fx-l=
fx-r=
0000|11|::
0000|11|::
0000|11|::
0000|11|::
0000|00|::
0000|00|::
0000|00|::
0000|00|::
0000|00|UA
0000|00|::
0000|00|PP
0000|00|::
0000|00|eK
0000|00|::
0000|00|::
0000|00|::
--
1000|00|::
0000|00|::
0000|00|::
0000|00|::
0010|00|::
0000|00|::
0000|00|::
0000|00|::
1000|00|::
0000|00|::
0000|00|::
0000|00|::
0010|00|::
0000|00|::
0000|00|::
0000|00|::
fx-l=
fx-r=
0000|11|::
0000|11|::
0000|11|::
0000|11|::
0000|00|::
0000|00|::
0000|00|::
0000|00|::
0000|00|eK
0000|00|::
0000|00|PP
0000|00|::
0000|00|UA
0000|00|::
0000|00|::
0000|00|::
--
fx-l=
0000|10|::
0000|10|::
0001|10|::
0000|10|::
0010|10|::
0000|10|::
0100|10|::
0000|10|::
0010|10|::
0000|10|::
0001|10|::
0000|10|::
0010|10|::
0000|10|::
0100|00|::
0000|00|::
--
0000|02|U:
0000|00|::
0000|00|K:
0000|00|::
0000|00|::
0000|00|::
0000|00|::
0000|00|::
0000|02|K:
0000|00|::
0000|00|0:
0000|00|::
0000|00|::
0000|00|::
0000|00|::
0000|00|::
0000|20|:A
0000|00|::
0000|00|:U
0000|00|::
0000|00|::
0000|00|::
0000|00|::
0000|00|::
0000|20|:U
0000|00|::
0000|00|:o
0000|00|::
0000|00|::
0000|00|::
0000|00|::
0000|00|::
0001|00|0:
0000|00|::
0000|00|o:
0000|00|::
0000|00|::
0000|00|::
0000|00|::
0000|00|::
1000|00|:o
0000|00|::
0000|00|:0
0000|00|::
0000|00|::
0000|00|::
0000|00|::
0000|00|::
0001|00|o:
0000|00|::
0000|00|0:
0000|00|-:
0000|00|-:
0000|00|-:
0000|00|-:
0000|00|-:
1000|00|-0
0000|00|-:
0000|00|-o
0000|00|--
0000|00|--
0000|00|--
0000|00|--
0000|00|--
--
0100|00|--
0000|00|--
0010|00|--
0000|00|--
1001|00|--
0000|00|--
0010|00|--
0000|00|--
fx-r=
0000|01|P-
0000|01|:-
0000|01|:-
0000|01|:-
0001|00|0-
0000|00|--
0010|00|--
0000|00|--
--
0100|00|--
0000|00|--
0010|00|--
0000|00|--
1001|00|--
0000|00|--
0100|00|--
0000|00|--
fx-l=
0000|10|-P
0000|10|-:
0000|10|-:
0000|10|-:
1100|00|-o
0000|00|--
0000|00|--
0000|00|--
--
0010|00|--
0000|00|--
0100|00|--
0000|00|--
1001|00|--
0000|00|--
0010|00|--
0000|00|--
fx-r=
0000|01|P-
0000|01|:-
0000|01|:-
0000|01|:-
0001|00|0-
0000|00|:-
0010|00|:-
0000|00|:-
--
0200|00|0-
0200|00|:-
0200|00|U-
0200|00|:-
0200|00|e-
0200|00|:-
0200|00|:-
0200|00|:-
0200|00|o-
0200|00|:-
0200|00|:-
0200|00|:-
0010|00|:-
0000|00|:-
0000|00|:-
0000|00|:-
fx-l=
0000|10|:o
0000|10|::
0000|10|:K
0000|10|::
0000|10|:A
0000|10|::
0000|10|::
0000|10|::
1100|00|:0
0000|00|::
0000|00|::
0000|00|::
0000|00|::
0000|00|::
0000|00|::
0000|00|::
--
0011|00|::
0000|00|::
0110|00|::
0000|00|::
1100|00|::
0000|00|::
0110|00|::
0000|00|::
fx-r=
0000|01|o:
0000|01|::
0000|01|::
0000|01|::
0001|00|P:
0000|00|::
0010|00|::
0000|00|::
--
1100|00|::
0000|00|::
0110|00|::
0000|00|::
0011|00|::
0000|00|::
0110|00|::
0000|00|::
fx-l=
0000|10|:0
0000|10|::
0000|10|::
0000|10|::
1100|00|:P
0000|00|::
0000|00|::
0000|00|::
--
1001|00|::
0000|00|::
0110|00|::
0000|00|::
1001|00|::
0000|00|::
0110|00|::
0000|00|::
0002|00|P:
0002|00|::
0002|00|::
0002|00|::
0010|00|0:
0000|00|::
0100|00|::
0000|00|::
--
1000|00|:P
0000|00|::
0100|00|:Z
0000|00|::
0010|00|0:
0000|00|::
0001|00|F:
0000|00|::
1000|00|:Z
0000|00|::
0100|00|:o
0000|00|::
0010|00|F:
0000|00|::
0001|00|P:
0000|00|::
--
fx-l=
1000|10|Po
0000|10|-:
0000|10|-0
0000|10|--
0000|10|--
0000|10|--
0000|10|--
0000|10|--
0010|10|--
0000|10|--
0000|10|--
0000|10|--
0000|10|--
0000|10|--
0000|10|--
0000|10|--
0100|10|--
0000|10|--
0000|10|--
0000|10|--
0000|10|--
0000|10|--
0000|10|--
0000|10|--
fx-r=
0002|11|--
0002|11|--
0002|11|--
0002|11|--
0002|11|--
0002|11|--
0002|11|--
0002|11|--
0002|11|--
0002|11|--
0002|11|--
0002|11|--
0002|11|--
0002|11|--
0002|11|--
0002|11|--
0202|11|--
0202|11|--
0202|11|--
0202|11|--
0202|11|--
0202|11|--
0202|11|--
0202|11|--
0202|11|--
0202|11|--
0202|11|--
0202|11|--
0202|11|--
0202|11|--
0202|11|--
0202|11|--
0222|11|--
0222|11|--
0222|11|--
0222|11|--
0222|11|--
0222|11|--
0222|11|--
0222|11|--
--
0222|11|--
0222|11|--
2220|11|--
2220|11|--
2220|11|--
2220|11|--
2022|11|--
2022|11|--
2022|11|--
2022|11|--
2202|11|--
2202|11|--
2202|11|--
2202|11|--
0020|00|--
0020|00|--
--
0020|00|--
0020|00|--
0120|00|--
0020|00|--
0021|00|--
0020|00|--
2020|00|--
2020|00|--
2020|00|--
2020|00|--
2022|00|--
2022|00|--
2022|00|--
2022|00|--
2222|00|--
2222|00|--
--
2222|00|--
2222|00|--
2222|00|--
2222|00|--
2222|00|--
2222|00|--
2222|00|--
2222|00|--
2222|00|--
2222|00|--
2222|00|--
2222|00|--
2222|00|--
2222|00|--
2222|00|--
2222|00|--
0222|00|--
0222|00|--
0222|00|--
0222|00|--
0222|00|--
0222|00|--
0222|00|--
0222|00|--
zoom_top=0
zoom_bottom=0
0222|00|0-
0222|00|:-
0222|00|:-
0222|00|:-
0222|00|:-
0222|00|:-
0222|00|:-
0222|00|:-
0222|00|:-
0222|00|:-
0222|00|:-
0222|00|:-
0222|00|:-
0222|00|:-
0222|00|:-
0222|00|:-
0222|00|:-
0222|00|:-
0222|00|:-
0222|00|:-
0222|00|:-
0222|00|:-
0222|00|:-
0222|00|:-
zoom_top=-30
zoom_top=0
zoom_bottom=-50
zoom_bottom=0
0000|00|o-
0000|00|:-
0000|00|0-
0000|00|--
0000|00|--
0000|00|--
0000|00|--
0000|00|--
0000|00|--
0000|00|--
0000|00|--
0000|00|--
0000|00|--
0000|00|--
0000|00|--
0000|00|--
--
fx-r=
0001|01|--
0000|01|--
0100|01|--
0000|01|--
0010|01|--
0000|01|--
fx-l=
2000|11|--
2000|11|--
2000|11|--
2000|11|--
2020|11|--
2020|11|--
2020|11|--
2020|11|--
2220|11|--
2220|11|--
--
2220|11|--
2220|11|--
0222|11|--
0222|11|--
0222|11|--
0222|11|--
2202|11|--
2202|11|--
2202|11|--
2202|11|--
2022|11|--
2022|11|--
2022|11|--
2022|11|--
0200|00|--
0200|00|--
--
0201|00|--
0200|00|--
1200|00|--
0200|00|--
0210|00|--
0200|00|--
0202|00|--
0202|00|--
0202|00|--
0202|00|--
2202|00|--
2202|00|--
2202|00|--
2202|00|--
2022|00|--
2022|00|--
--
2022|00|--
2022|00|--
2022|00|--
2022|00|--
2022|00|--
2022|00|--
2022|00|--
2022|00|--
2220|00|--
2220|00|--
2220|00|--
2220|00|--
2220|00|--
2220|00|--
2220|00|--
2220|00|--
2220|00|--
2220|00|--
2220|00|--
2220|00|--
2220|00|--
2220|00|--
2220|00|--
2220|00|--
zoom_top=0
zoom_bottom=0
2220|00|-o
2220|00|-:
2220|00|-:
2220|00|-:
2220|00|-:
2220|00|-:
2220|00|-:
2220|00|-:
2220|00|-:
2220|00|-:
2220|00|-:
2220|00|-:
2220|00|-:
2220|00|-:
2220|00|-:
2220|00|-:
2220|00|-:
2220|00|-:
2220|00|-:
2220|00|-:
2220|00|-:
2220|00|-:
2220|00|-:
2220|00|-:
zoom_top=-30
zoom_bottom=-50
0000|00|-0
0000|00|-:
0000|00|-o
0000|00|-:
0000|00|-:
0000|00|-:
0000|00|-:
0000|00|-:
0000|00|-:
0000|00|-:
0000|00|-:
0000|00|-:
0000|00|-:
0000|00|-:
0000|00|-:
0000|00|-:
--
0000|00|Po
0000|00|::
0000|00|0:
0000|00|::
0000|00|::
0000|00|::
0000|00|o:
0000|00|::
0000|00|:0
0000|00|::
0000|00|0P
0000|00|::
0000|00|UA
0000|00|::
0000|00|FZ
0000|00|::
--
0000|00|eK
0000|00|::
0010|20|::
0000|00|::
0000|00|eK
0000|00|::
0000|00|KU
0000|00|::
0000|00|UA
0000|00|::
0100|02|::
0000|00|::
0000|00|UA
0000|00|::
0000|00|Fe
0000|00|::
--
0000|00|o:
0000|00|::
0000|00|:0
0000|00|::
0000|00|::
0000|00|::
0000|00|:o
0000|00|::
0000|00|0:
0000|00|::
0000|00|P0
0000|00|::
0000|00|AU
0000|00|::
0000|00|ZF
0000|00|::
--
0000|00|Ke
0000|00|::
0000|00|::
0000|00|::
0010|20|::
0000|00|::
0000|00|::
0000|00|::
0000|00|Ke
0000|00|::
0000|00|::
0000|00|::
0000|00|UK
0000|00|::
0000|00|::
0000|00|::
0000|00|AU
0000|00|::
0000|00|::
0000|00|::
0100|02|::
0000|00|::
0000|00|::
0000|00|::
0000|00|AU
0000|00|::
0000|00|PP
0000|00|::
0000|00|Ke
0000|00|::
0000|00|::
0000|00|::
--
zoom_top=-30
zoom_bottom=-50
1000|00|Ke
0000|00|-:
0100|00|-U
0000|00|-:
0010|00|-U
0000|00|-:
0100|00|-K
0000|00|-:
1000|00|-K
0000|00|-:
0100|00|-U
0000|00|-:
0010|00|-U
0000|00|-:
0100|00|-e
0000|00|-:
--
zoom_top=20
zoom_bottom=-80
0001|00|0:
0000|00|::
0010|00|K:
0000|00|::
0100|00|K:
0000|00|::
0010|00|U:
0000|00|::
0001|00|U:
0000|00|::
0010|00|K:
0000|00|::
0100|00|K:
0000|00|::
0010|00|A:
0000|00|::
--
0000|20|:e
0000|00|::
1000|00|:U
0000|00|::
0100|00|:U
0000|00|::
0010|00|:K
0000|00|::
0000|02|A:
0000|00|::
0001|00|K:
0000|00|::
0010|00|K:
0000|00|::
0100|00|U:
0000|00|::
--
0001|00|::
0000|00|::
0000|00|::
0000|00|::
0000|00|::
0000|00|::
0000|00|::
0000|00|::
1000|00|::
0000|00|::
0000|00|::
0000|00|::
0000|00|::
0000|00|::
0000|00|::
0000|00|::
0001|00|::
0000|00|::
0000|00|::
0000|00|::
0000|00|::
0000|00|::
0000|00|::
0000|00|::
1000|00|::
0000|00|::
0000|00|::
0000|00|::
0000|00|::
0000|00|::
0000|00|::
0000|00|::
0001|00|U:
0000|00|::
0000|00|0:
0000|00|::
0000|00|::
0000|00|::
0000|00|::
0000|00|::
1000|00|:K
0000|00|::
0000|00|:o
0000|00|::
0000|00|::
0000|00|::
0000|00|::
0000|00|::
0001|00|0:
0000|00|::
0000|00|o:
0000|00|::
0000|00|::
0000|00|::
0000|00|::
0000|00|::
1000|00|:o
0000|00|::
0000|00|:0
0000|00|::
0000|00|::
0000|00|::
0000|00|::
0000|00|::
--
zoom_top=20
zoom_bottom=-80
0001|00|o0@(192
0000|00|:-
0000|00|0-
0000|00|--
0000|00|--
0000|00|--
0000|00|--
0000|00|--
0000|00|--
0000|00|--
0000|00|--
0000|00|--
0000|00|--
0000|00|--
0000|00|--
0000|00|--
0000|00|--
0000|00|--
0000|00|--
0000|00|--
0000|00|--
0000|00|--
0000|00|--
0000|00|--
0000|00|--
0000|00|--
0000|00|--
0000|00|--
0000|00|--
0000|00|--
0000|00|--
0000|00|--
0000|00|--
0000|00|--
0000|00|--
0000|00|--
0000|00|--
0000|00|--
0000|00|--
0000|00|--
0000|00|--
0000|00|--
0000|00|--
0000|00|--
0000|00|--
0000|00|--
0000|00|--
0000|00|--
0000|00|--
0000|00|--
0000|00|--
0000|00|--
0000|00|--
0000|00|--
0000|00|--
0000|00|--
0000|00|--
0000|00|--
0000|00|--
0000|00|--
0000|00|--
0000|00|--
0000|00|--
0000|00|--
--
zoom_top=0
zoom_bottom=0
0000|00|--
--
0110|00|--
0000|00|--
0011|00|--
0000|00|--
0110|00|--
0000|00|--
1100|00|--
0000|00|--
fx-l=
0020|10|--
0020|10|--
0020|10|--
0020|10|--
1000|00|--
0000|00|--
0001|00|--
0000|00|--
--
fx-r=
0200|01|--
0200|01|--
0200|01|--
0200|01|--
0200|01|--
0200|01|--
0001|00|--
0000|00|--
fx-l=
0020|10|--
0020|10|--
0020|10|--
0020|10|--
fx-r=
0000|11|--
0000|11|--
0000|11|--
0000|11|--
--
0100|00|--
0000|00|--
0001|00|--
0000|00|--
0000|22|--
0000|00|--
1000|00|--
0000|00|--
0020|00|--
0020|00|--
0020|00|--
0020|00|--
0020|22|--
0020|00|--
0120|00|--
0020|00|--
--
0021|00|--
0020|00|--
1020|00|--
0020|00|--
0020|22|--
0020|00|--
0021|00|--
0020|00|--
0200|00|--
0200|00|--
0200|00|--
0200|00|--
0200|22|--
0200|00|--
0210|00|--
0200|00|--
--
1200|00|--
0200|00|--
0201|00|--
0200|00|--
0200|22|--
0200|00|--
1200|00|--
0200|00|--
0020|00|--
0020|00|--
0020|00|--
0020|00|--
0020|22|--
0020|00|--
0120|00|--
0020|00|--
--
zoom_top=0
zoom_bottom=0
0000|00|P-
0000|00|:-
0000|00|0P
0000|00|::
0000|00|Po
0000|00|::
0000|00|0P
0000|00|::
0000|00|:o
0000|00|::
0000|00|eK
0000|00|::
0000|00|FZ
0000|00|::
0000|00|UA
0000|00|::
--
zoom_top=-30
zoom_bottom=-50
0000|00|0U
0000|00|::
0000|00|U0
0000|00|::
0000|00|::
0000|00|::
0000|00|::
0000|00|::
0000|00|U0
0000|00|::
0000|00|AZ
0000|00|::
0000|00|::
0000|00|::
0000|00|::
0000|00|::
0000|00|AZ
0000|00|::
0000|00|eF
0000|00|::
0000|00|::
0000|00|::
0000|00|::
0000|00|::
0000|00|eF
0000|00|::
0000|00|Ko
0000|00|::
0000|00|::
0000|00|::
0000|00|::
0000|00|::
0001|00|K:
0000|00|::
0000|00|o:
0000|00|::
0000|00|::
0000|00|::
0000|00|::
0000|00|::
1000|00|:o
0000|00|::
0000|00|:0
0000|00|::
0000|00|::
0000|00|::
0000|00|::
0000|00|::
0001|00|o:
0000|00|::
0000|00|0:
0000|00|::
0000|00|::
0000|00|::
0000|00|::
0000|00|::
1000|00|:0
0000|00|::
0000|00|:o
0000|00|:-
0000|00|:-
0000|00|:-
0000|00|:-
0000|00|:-
--
0001|00|0-
0000|00|:-
0000|00|:-
0000|00|:-
0010|00|:-
0000|00|:-
0000|00|:-
0000|00|:-
0100|00|o-
0000|00|:-
0000|00|:-
0000|00|:-
1000|00|:-
0000|00|:-
0000|00|:-
0000|00|:-
fx-l=
0000|10|0-
0000|10|:-
0000|10|U-
0000|10|:-
0000|10|e-
0000|10|:-
0000|10|:-
0000|10|:-
0100|00|o-
0000|00|:-
0000|00|:-
0000|00|:-
0010|00|:-
0000|00|:-
0000|00|:-
0000|00|:-
--
1000|00|:o
0000|00|::
0000|00|::
0000|00|::
0100|00|::
0000|00|::
0000|00|::
0000|00|::
0010|00|:0
0000|00|::
0000|00|::
0000|00|::
0001|00|::
0000|00|::
0000|00|::
0000|00|::
fx-r=
0000|01|:o
0000|01|::
0000|01|:K
0000|01|::
0000|01|:A
0000|01|::
0000|01|::
0000|01|::
0010|00|:0
0000|00|::
0000|00|::
0000|00|::
0100|00|::
0000|00|::
0000|00|::
0000|00|::
--
0001|00|o:
0000|00|::
0000|00|::
0000|00|::
0010|00|::
0000|00|::
0000|00|::
0000|00|::
0100|00|0:
0000|00|::
0000|00|::
0000|00|::
1000|00|::
0000|00|::
0000|00|::
0000|00|::
fx-l=
0000|10|o:
0000|10|::
0000|10|U:
0000|10|::
0000|10|K:
0000|10|::
0000|10|::
0000|10|::
0100|00|F:
0000|00|::
0000|00|::
0000|00|::
0010|00|::
0000|00|::
0000|00|::
0000|00|::
--
0000|00|F0
0000|00|::
0000|00|::
0000|00|::
0000|00|::
0000|00|::
0000|00|oZ
0000|00|::
0000|00|F0
0000|00|::
0000|00|FF
0000|00|::
0000|00|PF
0000|00|::
0000|00|Ke
0000|00|::
--
0010|00|::
0000|00|::
1000|00|::
0000|00|::
0010|00|::
0000|00|::
1000|00|::
0000|00|::
fx-l=
fx-r=
0000|11|::
0000|11|::
0000|00|::
0000|00|::
0000|00|Ke
0000|00|::
0000|00|UA
0000|00|::
--
0100|00|::
0000|00|::
0000|00|::
0000|00|::
0001|00|::
0000|00|::
0000|00|::
0000|00|::
0100|00|::
0000|00|::
0000|00|::
0000|00|::
0001|00|::
0000|00|::
0000|00|::
0000|00|::
fx-l=
fx-r=
0000|11|::
0000|11|::
0000|11|::
0000|11|::
0000|00|::
0000|00|::
0000|00|::
0000|00|::
0000|00|UA
0000|00|::
0000|00|PP
0000|00|::
0000|00|eK
0000|00|::
0000|00|::
0000|00|::
--
1000|00|::
0000|00|::
0000|00|::
0000|00|::
0010|00|::
0000|00|::
0000|00|::
0000|00|::
1000|00|::
0000|00|::
0000|00|::
0000|00|::
0010|00|::
0000|00|::
0000|00|::
0000|00|::
fx-l=
fx-r=
0000|11|::
0000|11|::
0000|11|::
0000|11|::
0000|00|::
0000|00|::
0000|00|::
0000|00|::
0000|00|eK
0000|00|::
0000|00|PP
0000|00|::
0000|00|UA
0000|00|::
0000|00|::
0000|00|::
--
zoom_top=-30
zoom_bottom=-50
fx-l=
0000|10|::
0000|10|::
0001|10|::
0000|10|::
0010|10|::
0000|10|::
0100|10|::
0000|10|::
0010|10|::
0000|10|::
0001|10|::
0000|10|::
0010|10|::
0000|10|::
0100|00|::
0000|00|::
--
zoom_top=20
zoom_bottom=-80
0001|00|UA
0000|00|:-
0010|00|F-
0000|00|:-
0100|00|P-
0000|00|:-
0020|00|A-
0020|00|:-
0000|00|K-
0000|00|:-
2000|00|:o
2000|00|::
0000|00|:U
0000|00|::
fx-r=
0000|01|K:
0000|01|::
--
0000|00|U:
0000|00|::
fx-l=
0000|10|:U
0000|10|::
0000|00|:K
0000|00|::
0002|00|U:
0002|00|::
0000|00|e:
0000|00|::
0200|00|:K
0200|00|::
0000|00|:A
0000|00|::
fx-r=
0000|01|e:
0000|01|::
--
0000|01|::
0000|01|::
0010|00|K:
0000|00|::
0100|00|Z:
0000|00|::
0020|00|P:
0020|00|::
0000|00|e:
0000|00|::
0200|00|:A
0200|00|::
0000|00|:K
0000|00|::
fx-l=
fx-r=
0000|11|e:
0000|11|::
--
0000|11|::
0000|11|::
0000|11|::
0000|11|::
0000|11|::
0000|11|::
0000|11|::
0000|11|::
0000|11|::
0000|11|::
0000|11|::
0000|11|::
0000|11|::
0000|11|::
0000|11|::
0000|11|::
0000|00|::
0000|00|::
0000|00|::
0000|00|::
0000|00|::
0000|00|::
0000|00|::
0000|00|::
0000|00|AK
0000|00|::
0000|00|::
0000|00|::
0000|00|::
0000|00|::
0000|00|::
0000|00|::
0000|00|::
0000|00|::
0000|00|::
0000|00|::
0000|00|::
0000|00|::
0000|00|::
0000|00|::
0000|00|::
0000|00|::
0000|00|::
0000|00|::
0000|00|::
0000|00|::
0000|00|::
0000|00|::
0000|00|Zo
0000|00|-:
0000|00|-A
0000|00|-:
0000|00|-:
0000|00|-:
0000|00|-:
0000|00|-:
0000|00|-:
0000|00|-:
0000|00|-:
0000|00|-:
0000|00|-:
0000|00|-:
0000|00|-:
0000|00|-:
--
1000|00|-A
0000|00|-:
0100|00|-P
0000|00|-:
0010|00|-F
0000|00|-:
0200|00|-U
0200|00|-:
0000|00|-K
0000|00|-:
0002|00|0:
0002|00|::
0000|00|K:
0000|00|::
fx-l=
0000|10|:K
0000|10|::
--
0000|00|:U
0000|00|::
fx-r=
0000|01|K:
0000|01|::
0000|00|U:
0000|00|::
2000|00|:U
2000|00|::
0000|00|:e
0000|00|::
0020|00|U:
0020|00|::
0000|00|e:
0000|00|::
1000|00|:e
0000|00|::
--
0100|00|:K
0000|00|::
0010|00|:Z
0000|00|::
0100|00|:F
0000|00|::
fx-l=
0000|10|:U
0000|10|::
0000|00|:A
0000|00|::
fx-r=
0000|01|e:
0000|01|::
0000|00|U:
0000|00|::
2200|00|:A
2200|00|::
--
0000|00|:K
0000|00|::
0022|00|U:
0022|00|::
0000|00|K:
0000|00|::
fx-l=
fx-r=
0000|11|:K
0000|11|::
0000|11|::
0000|11|::
0000|00|:e
0000|00|::
0000|00|KA
0000|00|::
0000|00|::
0000|00|::
--
zoom_top=20
zoom_bottom=-80
0000|00|e:
0000|00|::
0000|00|Ke
0000|00|::
0000|00|eK
0000|00|::
0000|00|FZ
0000|00|::
0000|00|ZF
0000|00|::
0000|00|AU
0000|00|::
0000|00|UA
0000|00|::
zoom_top=0
zoom_bottom=0
0000|00|0P
0000|00|::
--
0000|00|P0
0000|00|--
--
