title=Melty Sweets
artist=Ironami
effect=CRAIG AKAGI
jacket=exh.png
illustrator=仔猫吸引
difficulty=extended
level=14
t=177
m=exh.ogg
o=0
bg=desert
layer=arrow
po=92203
plength=15000
pfiltergain=0
icon=../sdvx04.png
chokkakuautovol=0
chokkakuvol=0
icon=../sdvx04.png
ver=160
--
beat=4/4
0000|00|--
0000|00|--
0000|00|--
0000|00|--
0000|00|--
0000|00|--
0000|00|--
0000|00|--
0000|00|--
0000|00|--
0000|00|--
0000|00|--
1000|00|--
0100|00|--
0010|00|--
0001|00|--
--
0000|00|0-
0000|00|:-
0000|00|:-
0000|00|:-
0001|00|:-
0000|00|:-
0010|00|:-
0000|00|:-
fx-r=
0000|01|:-
0000|01|:-
0000|01|:-
0000|01|:-
0010|00|:-
0000|00|:-
0001|00|:-
0000|00|:-
--
0000|00|o-
0000|00|:-
0001|00|:-
0000|00|:-
0010|00|:-
0000|00|:-
0001|00|:-
0000|00|:-
0020|00|0-
0020|00|--
0020|00|--
0020|00|--
0100|00|--
0000|00|--
1000|00|--
0000|00|--
--
0100|00|-o
0000|00|-:
0000|00|-:
0000|00|-:
1000|00|-:
0000|00|-:
0100|00|-:
0000|00|-:
fx-l=
0000|10|-:
0000|10|-:
0000|10|-:
0000|10|-:
0100|00|-:
0000|00|-:
1000|00|-:
0000|00|-:
--
0100|00|-0
0000|00|-:
0000|00|-o
0000|00|--
0000|00|--
0000|00|--
0000|00|--
0000|00|--
0000|00|--
0000|00|--
0000|00|--
0000|00|--
0000|00|--
0000|00|--
0000|00|--
0000|00|--
0010|00|--
0000|00|--
0000|00|--
0000|00|--
0000|00|--
0000|00|--
0000|00|--
0000|00|--
0001|00|--
0000|00|--
0000|00|--
0000|00|--
0000|00|--
0000|00|--
0000|00|--
0000|00|--
0010|00|0-
0000|00|:-
0000|00|o-
0000|00|--
0000|00|--
0000|00|--
0000|00|--
0000|00|--
0000|00|--
0000|00|--
0000|00|--
0000|00|--
0000|00|--
0000|00|--
0000|00|--
0000|00|--
0100|00|--
0000|00|--
0000|00|--
0000|00|--
0000|00|--
0000|00|--
0000|00|--
0000|00|--
1000|00|--
0000|00|--
0000|00|--
0000|00|--
0000|00|--
0000|00|--
0000|00|--
0000|00|--
--
fx-r=
0000|01|--
0000|01|--
0000|01|--
0000|01|--
1000|00|--
0000|00|--
0001|00|--
0000|00|--
0010|00|--
0000|00|--
0100|00|--
0000|00|--
1000|00|--
0000|00|--
0001|00|--
0000|00|--
--
0000|00|--
0110|00|--
0000|00|--
1100|00|--
0000|00|--
0100|00|--
0010|00|--
0001|00|--
--
fx-l=
0000|10|--
0000|10|--
0000|10|--
0000|10|--
0100|00|--
0000|00|--
fx-r=
0000|01|--
0000|01|--
0000|01|--
0000|01|--
0010|00|--
0000|00|--
1000|00|--
0000|00|--
0010|00|--
0000|00|--
--
0001|00|--
0000|00|--
0100|00|--
0000|00|--
1000|00|--
0000|00|--
0000|00|--
0000|00|--
fx-l=
0000|10|--
0000|10|--
fx-r=
0000|01|--
0000|01|--
fx-l=
0000|10|--
0000|10|--
0000|10|--
0000|10|--
--
0100|00|-U
0000|00|-:
0000|00|-:
0000|00|-:
1000|00|-:
0000|00|-:
0100|00|-:
0000|00|-:
1000|00|-:
0000|00|-:
0100|00|-:
0000|00|-:
0000|00|-o
0000|00|-:
0100|00|-:
0000|00|-:
--
0000|00|-o
0000|00|-:
1000|00|-:
0000|00|-:
1000|00|-:
0000|00|-:
0100|00|-:
0000|00|-:
1000|00|-0
0000|00|--
0100|00|--
0000|00|--
0010|00|--
0000|00|--
0001|00|--
0000|00|--
--
0010|00|K-
0000|00|:-
0000|00|:-
0000|00|:-
0001|00|:-
0000|00|:-
0010|00|:-
0000|00|:-
0001|00|:-
0000|00|:-
0010|00|:-
0000|00|:-
0000|00|0-
0000|00|:-
0010|00|:-
0000|00|:-
--
0000|00|0-
0000|00|:-
0001|00|:-
0000|00|:-
0001|00|:-
0000|00|:-
0010|00|:-
0000|00|:-
0001|00|o-
0000|00|--
0010|00|--
0000|00|--
0100|00|--
0000|00|--
1000|00|--
0000|00|--
--
fx-l=
0000|10|-o
0000|10|-:
0000|10|-0
0000|10|-:
0000|10|-:
0000|10|-:
0000|10|-:
0000|10|-:
0000|10|-:
0000|10|-:
0000|10|-:
0000|10|-:
0000|10|-:
0000|10|-:
0000|10|-:
0000|10|-:
1000|00|-0
0000|00|-:
0000|00|-o
0000|00|--
0000|00|--
0000|00|--
0000|00|--
0000|00|--
0000|00|--
0000|00|--
0000|00|--
0000|00|--
0000|00|--
0000|00|--
0000|00|--
0000|00|--
0000|20|--
0000|00|--
0000|00|--
0000|00|--
0000|00|--
0000|00|--
0000|00|--
0000|00|--
0000|00|--
0000|00|--
0000|00|--
0000|00|--
1100|00|--
0000|00|--
0000|00|--
0000|00|--
0000|00|--
0000|00|--
0000|00|--
0000|00|--
0000|00|--
0000|00|--
0000|00|--
0000|00|--
0011|00|--
0000|00|--
0000|00|--
0000|00|--
0000|00|--
0000|00|--
0000|00|--
0000|00|--
--
fx-r=
0000|01|0-
0000|01|:-
0000|01|o-
0000|01|:-
0000|01|:-
0000|01|:-
0000|01|:-
0000|01|:-
0000|01|:-
0000|01|:-
0000|01|:-
0000|01|:-
0000|01|:-
0000|01|:-
0000|01|:-
0000|01|:-
0001|00|o-
0000|00|:-
0000|00|0-
0000|00|--
0000|00|--
0000|00|--
0000|00|--
0000|00|--
0000|00|--
0000|00|--
0000|00|--
0000|00|--
0000|00|--
0000|00|--
0000|00|--
0000|00|--
0000|02|--
0000|00|--
0000|00|--
0000|00|--
0000|00|--
0000|00|--
0000|00|--
0000|00|--
0000|00|--
0000|00|--
0000|00|--
0000|00|--
0011|00|--
0000|00|--
0000|00|--
0000|00|--
0000|00|--
0000|00|--
0000|00|--
0000|00|--
0000|00|--
0000|00|--
0000|00|--
0000|00|--
1100|00|--
0000|00|--
0000|00|--
0000|00|--
0000|00|--
0000|00|--
0000|00|--
0000|00|--
--
zoom_bottom=0
0000|20|--
0000|20|--
0000|02|--
0000|02|--
0000|20|--
0000|20|--
0000|02|--
0000|02|--
--
1000|00|--
0000|00|--
0100|00|--
0000|00|--
0010|00|--
0000|00|--
0001|00|--
0000|00|--
1000|00|--
0000|00|--
0100|00|--
0000|00|--
0010|00|--
0000|00|--
0001|00|--
0000|00|--
zoom_bottom=-50
fx-r=
0000|01|--
0000|01|--
0000|01|--
0000|01|--
0000|01|--
0000|01|--
0000|01|--
0000|01|--
0000|01|0-
0000|01|:-
0000|01|:-
0000|01|:-
0000|01|:-
0000|01|:-
0000|01|:-
0000|01|:-
--
zoom_bottom=0
0000|00|o-@(96
0000|00|:-
0000|00|0-
0000|00|--
0000|00|--
0000|00|--
0000|00|--
0000|00|--
0000|00|--
0000|00|--
0000|00|--
0000|00|--
0000|00|--
0000|00|--
0000|00|--
0000|00|--
0000|00|--
0000|00|--
0000|00|--
0000|00|--
0000|00|--
0000|00|--
0000|00|--
0000|00|--
0000|00|--
0000|00|--
0000|00|--
0000|00|--
0000|00|--
0000|00|--
0000|00|--
0000|00|--
0000|00|--
0000|00|--
0000|00|--
0000|00|--
0000|00|--
0000|00|--
0000|00|--
0000|00|--
0000|00|--
0000|00|--
0000|00|--
0000|00|--
0000|00|--
0000|00|--
0000|00|--
0000|00|--
0000|02|--
0000|00|--
0000|00|--
0000|00|--
0000|00|--
0000|00|--
0000|00|--
0000|00|--
0000|00|--
0000|00|--
0000|00|--
0000|00|--
0000|00|--
0000|00|--
0000|00|--
0000|00|--
--
2000|00|-o
2000|00|-:
2000|00|-0
2000|00|--
2000|00|--
2000|00|--
2000|00|--
2000|00|--
2000|00|--
2000|00|--
2000|00|--
2000|00|--
2000|00|--
2000|00|--
2000|00|--
2000|00|--
0100|00|--
0000|00|--
0000|00|--
0000|00|--
0000|00|--
0000|00|--
0000|00|--
0000|00|--
0010|00|--
0000|00|--
0000|00|--
0000|00|--
0000|00|--
0000|00|--
0000|00|--
0000|00|--
0001|00|--
0000|00|--
0000|00|--
0000|00|--
0000|00|--
0000|00|--
0000|00|--
0000|00|--
fx-r=
0000|01|0-
0000|01|:-
0000|01|o-
0000|01|:-
0000|01|:-
0000|01|:-
0000|01|:-
0000|01|:-
0000|01|:-
0000|01|:-
0000|01|:-
0000|01|:-
0000|01|:-
0000|01|:-
0000|01|:-
0000|01|:-
0000|00|o-
0000|00|:-
0000|00|0-
0000|00|--
0000|00|--
0000|00|--
0000|00|--
0000|00|--
--
0000|00|--
0000|00|--
0000|00|--
0000|00|--
0000|00|--
0000|00|--
0000|00|--
0000|00|--
fx-l=
0000|10|-o
0000|10|-:
0000|10|-0
0000|10|-:
0000|10|-:
0000|10|-:
0000|10|-:
0000|10|-:
0000|10|-:
0000|10|-:
0000|10|-:
0000|10|-:
0000|10|-:
0000|10|-:
0000|10|-:
0000|10|-:
0000|00|-0
0000|00|-:
0000|00|-o
0000|00|--
0000|00|--
0000|00|--
0000|00|--
0000|00|--
0100|00|--
0000|00|--
0000|00|--
0000|00|--
0000|00|--
0000|00|--
0000|00|--
0000|00|--
fx-r=
0000|01|--
0000|01|--
0000|01|--
0000|01|--
0000|01|--
0000|01|--
0000|01|--
0000|01|--
1000|00|--
0000|00|--
0000|00|--
0000|00|--
0100|00|--
0000|00|--
0000|00|--
0000|00|--
0010|00|--
0000|00|--
0000|00|--
0000|00|--
0001|00|--
0000|00|--
0000|00|--
0000|00|--
--
1000|00|--
0000|00|--
0000|00|--
0000|00|--
0000|00|--
0000|00|--
0000|00|--
0000|00|--
0000|00|--
0000|00|--
0000|00|--
0000|00|--
0000|00|--
0000|00|--
0000|00|--
0000|00|--
0000|00|0-
0000|00|:-
0000|00|o-
0000|00|--
0000|00|--
0000|00|--
0000|00|--
0000|00|--
0000|00|--
0000|00|--
0000|00|--
0000|00|--
0000|00|--
0000|00|--
0000|00|--
0000|00|--
0001|00|--
0000|00|--
0000|00|--
0000|00|--
0000|00|--
0000|00|--
0000|00|--
0000|00|--
0010|00|--
0000|00|--
0000|00|--
0000|00|--
0000|00|--
0000|00|--
0000|00|--
0000|00|--
1100|00|--
0000|00|--
0000|00|--
0000|00|--
0000|00|--
0000|00|--
0000|00|--
0000|00|--
fx-r=
0000|01|--
0000|01|--
0000|01|--
0000|01|--
0000|01|--
0000|01|--
0000|01|--
0000|01|--
--
0000|01|--
0000|01|--
0000|01|--
0000|01|--
fx-l=
0000|10|--
0000|10|--
0000|10|--
0000|10|--
0001|00|--
0000|00|--
0010|00|--
0000|00|--
0100|00|--
0000|00|--
1000|00|--
0000|00|--
0010|00|--
0000|00|--
0000|00|--
0000|00|--
0010|00|--
0000|00|--
0000|00|--
0000|00|--
0001|00|--
0000|00|--
0000|00|--
0000|00|--
0100|00|--
0000|00|--
0000|00|--
0000|00|--
--
0010|00|--
0000|00|--
0000|00|--
0000|00|--
0000|00|--
0000|00|--
0000|00|--
0000|00|--
1000|00|--
0000|00|--
0000|00|--
0000|00|--
0000|00|--
0000|00|--
0000|00|--
0000|00|--
fx-l=
fx-r=
0000|11|--
0000|11|--
0000|11|--
0000|11|--
0000|11|--
0000|11|--
0000|11|--
0000|11|--
0001|11|--
0000|11|--
0000|11|--
0000|11|--
0000|11|--
0000|11|--
0000|11|--
0000|11|--
0010|00|--
0000|00|--
0000|00|--
0000|00|--
0000|00|--
0000|00|--
0000|00|--
0000|00|--
0100|00|--
0000|00|--
0000|00|--
0000|00|--
0000|00|--
0000|00|--
0000|00|--
0000|00|--
1000|00|--
0000|00|--
0000|00|--
0000|00|--
0000|00|--
0000|00|--
0000|00|--
0000|00|--
0000|00|-o
0000|00|-:
0000|00|-0
0000|00|-:
0000|00|-:
0000|00|-:
0000|00|-:
0000|00|-:
--
0000|00|-:
0000|00|-:
0000|00|-:
0000|00|-:
0000|00|-:
0000|00|-:
0000|00|-:
0000|00|-:
0000|00|-:
0000|00|-:
0000|00|-:
0000|00|-:
0000|00|-:
0000|00|-:
0000|00|-:
0000|00|-:
0000|00|0:
0000|00|::
0000|00|o:
0000|00|::
0000|00|::
0000|00|::
0000|00|::
0000|00|::
0000|00|::
0000|00|::
0000|00|::
0000|00|::
0000|00|::
0000|00|::
0000|00|::
0000|00|::
0000|00|::
0000|00|::
0000|00|::
0000|00|::
0000|00|::
0000|00|::
0000|00|::
0000|00|::
0000|00|:0
0000|00|::
0000|00|:o
0000|00|::
0000|00|::
0000|00|::
0000|00|::
0000|00|::
0000|00|::
0000|00|::
0000|00|::
0000|00|::
0000|00|::
0000|00|::
0000|00|::
0000|00|::
0000|00|::
0000|00|::
0000|00|::
0000|00|::
0000|00|::
0000|00|::
0000|00|::
0000|00|::
--
0001|00|o:
0000|00|::
0000|00|0:
0000|00|::
0000|00|::
0000|00|::
0000|00|::
0000|00|::
0000|00|::
0000|00|::
0000|00|::
0000|00|::
0000|00|::
0000|00|::
0000|00|::
0000|00|::
0000|00|::
0000|00|::
0000|00|::
0000|00|::
0000|00|::
0000|00|::
0000|00|::
0000|00|::
1000|00|:o
0000|00|::
0000|00|:0
0000|00|::
0000|00|::
0000|00|::
0000|00|::
0000|00|::
0000|00|::
0000|00|::
0000|00|::
0000|00|::
0000|00|::
0000|00|::
0000|00|::
0000|00|::
0000|00|::
0000|00|::
0000|00|::
0000|00|::
0000|00|::
0000|00|::
0000|00|::
0000|00|::
0001|00|0:
0000|00|::
0000|00|o:
0000|00|::
0000|00|::
0000|00|::
0000|00|::
0000|00|::
0000|00|::
0000|00|::
0000|00|::
0000|00|::
0000|00|::
0000|00|::
0000|00|::
0000|00|::
--
0000|00|::
0000|00|::
0000|00|::
0000|00|::
0000|00|::
0000|00|::
0000|00|::
0000|00|::
1000|00|:0
0000|00|::
0000|00|:o
0000|00|:-
0000|00|:-
0000|00|:-
0000|00|:-
0000|00|:-
0000|00|:-
0000|00|:-
0000|00|:-
0000|00|:-
0000|00|:-
0000|00|:-
0000|00|:-
0000|00|:-
0000|00|:-
0000|00|:-
0000|00|:-
0000|00|:-
0000|00|:-
0000|00|:-
0000|00|:-
0000|00|:-
0001|00|o-
0000|00|:-
0000|00|0-
0000|00|--
0000|00|--
0000|00|--
0000|00|--
0000|00|--
0010|00|--
0000|00|--
0000|00|--
0000|00|--
0000|00|--
0000|00|--
0000|00|--
0000|00|--
0100|00|--
0000|00|--
0000|00|--
0000|00|--
0000|00|--
0000|00|--
0000|00|--
0000|00|--
1000|00|--
0000|00|--
0000|00|--
0000|00|--
0000|00|--
0000|00|--
0000|00|--
0000|00|--
--
fx-l=
0000|10|-o
0000|10|-:
0000|10|-:
0000|10|-:
1000|00|-:
0000|00|-:
0100|00|-:
0000|00|-:
0100|00|-0
0000|00|-:
2000|00|-:
2000|00|-:
2000|00|-:
2000|00|-:
0100|00|-o
0000|00|--
--
0000|00|--
0000|00|--
0000|00|--
0000|00|--
fx-r=
0000|01|0-
0000|01|:-
0000|01|:-
0000|01|:-
0000|01|:-
0000|01|:-
0000|01|:-
0000|01|:-
0000|01|:-
0000|01|:-
0000|01|:-
0000|01|:-
0001|00|o-
0000|00|:-
0000|00|:-
0000|00|:-
0000|00|:-
0000|00|:-
0010|00|:-
0000|00|:-
0000|00|:-
0000|00|:-
0000|00|:-
0000|00|:-
0010|00|:-
0000|00|:-
0000|00|:-
0000|00|:-
--
0001|00|0-
0000|00|:-
0000|00|o-
0000|00|--
0000|00|--
0000|00|--
0000|00|--
0000|00|--
0000|00|--
0000|00|--
0000|00|--
0000|00|--
0000|00|--
0000|00|--
0000|00|--
0000|00|--
fx-l=
0000|10|-o
0000|10|-:
0000|10|-0
0000|10|--
0000|10|--
0000|10|--
0000|10|--
0000|10|--
0000|10|--
0000|10|--
0000|10|--
0000|10|--
0000|10|--
0000|10|--
0000|10|--
0000|10|--
0001|00|--
0000|00|--
0000|00|--
0000|00|--
0000|00|--
0000|00|--
0000|00|--
0000|00|--
0100|00|--
0000|00|--
0000|00|--
0000|00|--
0000|00|--
0000|00|--
0000|00|--
0000|00|--
0010|00|--
0000|00|--
0000|00|--
0000|00|--
0000|00|--
0000|00|--
0000|00|--
0000|00|--
0001|00|--
0000|00|--
0000|00|--
0000|00|--
0000|00|--
0000|00|--
0000|00|--
0000|00|--
--
2000|00|--
2000|00|--
2000|00|--
2000|00|--
2000|00|--
2000|00|--
2000|00|--
2000|00|--
0000|00|--
0000|00|--
0000|00|--
0000|00|--
0001|00|--
0000|00|--
0010|00|--
0000|00|--
0100|00|--
0000|00|--
0000|00|--
0000|00|--
0100|00|--
0000|00|--
0000|00|--
0000|00|--
0010|00|--
0000|00|--
1000|00|--
0000|00|--
0000|00|--
0000|00|--
0000|00|--
0000|00|--
--
0000|00|--
0000|00|--
0001|00|--
0000|00|--
0010|00|--
0000|00|--
0100|00|--
0000|00|--
0000|02|--
0000|00|--
0000|20|--
0000|00|--
0010|00|--
0000|00|--
fx-l=
0000|10|--
0000|10|--
--
0000|10|--
0000|10|--
fx-r=
0000|01|--
0000|01|--
fx-l=
0000|10|--
0000|10|--
fx-r=
0000|01|--
0000|01|--
1000|00|--
0000|00|--
0100|00|--
0000|00|--
0001|00|--
0000|00|--
0010|00|--
0000|00|--
--
fx-r=
0000|01|0-
0000|01|:-
0000|01|o-
0000|01|:-
0000|01|:-
0000|01|:-
0000|01|:-
0000|01|:-
0000|01|:-
0000|01|:-
0000|01|:-
0000|01|:-
0000|01|:-
0000|01|:-
0000|01|:-
0000|01|:-
0001|00|:-
0000|00|:-
0000|00|:-
0000|00|:-
0000|00|:-
0000|00|:-
0000|00|:-
0000|00|:-
0010|00|o-
0000|00|:-
0000|00|0-
0000|00|--
0000|00|--
0000|00|--
0000|00|--
0000|00|--
0000|00|--
0000|00|--
0000|00|--
0000|00|--
0000|00|--
0000|00|--
0000|00|--
0000|00|--
0000|00|--
0000|00|--
0000|00|--
0000|00|--
0000|00|--
0000|00|--
0000|00|--
0000|00|--
fx-l=
0000|10|-o
0000|10|-:
0000|10|-0
0000|10|-:
0000|10|-:
0000|10|-:
0000|10|-:
0000|10|-:
0000|10|-:
0000|10|-:
0000|10|-:
0000|10|-:
0000|10|-:
0000|10|-:
0000|10|-:
0000|10|-:
--
1000|00|-:
0000|00|-:
0000|00|-:
0000|00|-:
0000|00|-:
0000|00|-:
0000|00|-:
0000|00|-:
0100|00|-0
0000|00|-:
0000|00|-o
0000|00|--
0000|00|--
0000|00|--
0000|00|--
0000|00|--
0000|00|--
0000|00|--
0000|00|--
0000|00|--
0000|00|--
0000|00|--
0000|00|--
0000|00|--
0000|00|--
0000|00|--
0000|00|--
0000|00|--
0000|00|--
0000|00|--
0000|00|--
0000|00|--
0001|00|0-
0000|00|:-
0000|00|o-
0000|00|--
0000|00|--
0000|00|--
0000|00|--
0000|00|--
0000|00|--
0000|00|--
0000|00|--
0000|00|--
0000|00|--
0000|00|--
0000|00|--
0000|00|--
fx-r=
0000|21|--
0000|01|--
0000|01|--
0000|01|--
0000|01|--
0000|01|--
0000|01|--
0000|01|--
0000|01|--
0000|01|--
0000|01|--
0000|01|--
0000|01|--
0000|01|--
0000|01|--
0000|01|--
--
0001|00|--
0000|00|--
0000|00|--
0000|00|--
0010|20|--
0000|00|--
0000|00|--
0000|00|--
1000|00|--
0000|00|--
0100|00|--
0000|00|--
0010|20|--
0000|00|--
0001|00|--
0000|00|--
--
0000|00|--
0000|00|--
0010|00|--
0000|00|--
0000|20|--
0000|00|--
fx-r=
0000|01|--
0000|01|--
0000|01|--
0000|01|--
0001|00|--
0000|00|--
0010|20|--
0000|00|--
0100|00|--
0000|00|--
--
0010|00|--
0000|00|--
0001|20|--
0010|00|--
0100|00|--
0010|00|--
0000|20|--
0001|00|--
--
0000|00|--
0000|00|--
0100|00|--
0000|00|--
0001|20|--
0000|00|--
0010|00|--
0000|00|--
fx-r=
0001|01|--
0000|01|--
0100|01|--
0000|01|--
fx-l=
0000|10|--
0000|10|--
0000|10|--
0000|10|--
--
0100|00|--
0000|00|--
0000|00|--
0000|00|--
1000|02|--
0000|00|--
0000|00|--
0000|00|--
0100|00|--
0000|00|--
1000|00|--
0000|00|--
0100|02|--
0000|00|--
0010|00|--
0000|00|--
--
0000|00|--
0000|00|--
1000|00|--
0000|00|--
0000|02|--
0000|00|--
fx-l=
0000|10|--
0000|10|--
0000|10|--
0000|10|--
0010|00|--
0000|00|--
0100|02|--
0000|00|--
1000|00|--
0000|00|--
--
0010|00|--
0000|00|--
1000|02|--
0100|00|--
0001|00|--
0010|00|--
0000|02|--
0100|00|--
--
0000|00|--
0000|00|--
1000|00|--
0000|00|--
0100|02|--
0000|00|--
0010|00|--
0000|00|--
fx-l=
0001|10|--
0000|10|--
0001|10|--
0000|10|--
fx-r=
0010|01|--
0000|01|--
0100|01|--
0000|01|--
--
fx-l=
0000|10|--
0000|10|--
0000|10|--
0000|10|--
0000|10|--
0000|10|--
0000|10|--
0000|10|--
0000|10|--
0000|10|--
0000|10|--
0000|10|--
0000|10|--
0000|10|--
0000|10|--
0000|10|--
zoom_bottom=0
0000|00|-o
0000|00|-:
0000|00|-0
0000|00|--
0000|00|--
0000|00|--
0000|00|--
0000|00|--
0000|00|--
0000|00|--
0000|00|--
0000|00|--
0000|00|--
0000|00|--
0000|00|--
0000|00|--
zoom_bottom=-50
1000|00|--
0000|00|--
0000|00|--
0000|00|--
0000|00|--
0000|00|--
0000|00|--
0000|00|--
0100|00|--
0000|00|--
0000|00|--
0000|00|--
0000|00|--
0000|00|--
0000|00|--
0000|00|--
0010|00|--
0000|00|--
0000|00|--
0000|00|--
0000|00|--
0000|00|--
0000|00|--
0000|00|--
laserrange_l=2x
0001|00|7-
0000|00|:-
0000|00|h-
0000|00|--
0000|00|--
0000|00|--
0000|00|--
0000|00|--
--
0000|00|--
0000|00|--
0000|00|--
0000|00|--
0000|00|--
0000|00|--
0000|00|--
0000|00|--
laserrange_r=2x
0000|20|-P
0000|00|-:
0000|00|-h
0000|00|--
0000|00|--
0000|00|--
0000|00|--
0000|00|--
0000|00|--
0000|00|--
0000|00|--
0000|00|--
0000|00|--
0000|00|--
0000|00|--
0000|00|--
laserrange_l=2x
0000|02|P-
0000|00|:-
0000|00|7-
0000|00|--
0000|00|--
0000|00|--
0000|00|--
0000|00|--
0000|00|--
0000|00|--
0000|00|--
0000|00|--
0000|00|--
0000|00|--
0000|00|--
0000|00|--
0010|00|--
0000|00|--
0000|00|--
0000|00|--
0000|00|--
0000|00|--
0000|00|--
0000|00|--
0100|00|--
0000|00|--
0000|00|--
0000|00|--
0000|00|--
0000|00|--
0000|00|--
0000|00|--
1000|00|--
0000|00|--
0000|00|--
0000|00|--
0000|00|--
0000|00|--
0000|00|--
0000|00|--
--
fx-r=
0000|01|--
0000|01|--
0000|01|--
0000|01|--
0000|01|--
0000|01|--
0000|01|--
0000|01|--
0000|01|--
0000|01|--
0000|01|--
0000|01|--
0000|01|--
0000|01|--
0000|01|--
0000|01|--
laserrange_l=2x
0000|00|7-
0000|00|:-
0000|00|h-
0000|00|--
0000|00|--
0000|00|--
0000|00|--
0000|00|--
0000|00|--
0000|00|--
0000|00|--
0000|00|--
0000|00|--
0000|00|--
0000|00|--
0000|00|--
0010|00|--
0000|00|--
0000|00|--
0000|00|--
0000|00|--
0000|00|--
0000|00|--
0000|00|--
0100|00|--
0000|00|--
0000|00|--
0000|00|--
0000|00|--
0000|00|--
0000|00|--
0000|00|--
laserrange_r=2x
0000|00|-h
0000|00|-:
0000|00|-K
0000|00|-:
0000|00|-:
0000|00|-:
0000|00|-:
0000|00|-:
laserrange_l=2x
0000|00|7:
0000|00|::
0000|00|U:
0000|00|::
0000|00|::
0000|00|::
0000|00|::
0000|00|::
--
0000|00|::
0000|00|::
0000|00|::
0000|00|::
0000|00|::
0000|00|::
0000|00|::
0000|00|::
0000|00|:K
0000|00|::
0000|00|:h
0000|00|:-
0000|00|:-
0000|00|:-
0000|00|:-
0000|00|:-
0000|00|:-
0000|00|:-
0000|00|:-
0000|00|:-
0000|00|:-
0000|00|:-
0000|00|:-
0000|00|:-
0000|00|U-
0000|00|:-
0000|00|7-
0000|00|--
0000|00|--
0000|00|--
0000|00|--
0000|00|--
0010|00|--
0000|00|--
0000|00|--
0000|00|--
0000|00|--
0000|00|--
0000|00|--
0000|00|--
0001|00|--
0000|00|--
0000|00|--
0000|00|--
0000|00|--
0000|00|--
0000|00|--
0000|00|--
fx-l=
0000|10|--
0000|10|--
0000|10|--
0000|10|--
0000|10|--
0000|10|--
0000|10|--
0000|10|--
0000|10|--
0000|10|--
0000|10|--
0000|10|--
0000|10|--
0000|10|--
0000|10|--
0000|10|--
--
laserrange_r=2x
1000|00|-P
0000|00|-:
0000|00|-h
0000|00|-:
0000|00|-:
0000|00|-:
0000|00|-:
0000|00|-:
0000|00|-:
0000|00|-:
0000|00|-:
0000|00|-:
0000|00|-:
0000|00|-:
0000|00|-:
0000|00|-:
0000|00|-:
0000|00|-:
0000|00|-:
0000|00|-:
0000|00|-:
0000|00|-:
0000|00|-:
0000|00|-:
laserrange_l=2x
0001|00|P:
0000|00|::
0000|00|7:
0000|00|::
0000|00|::
0000|00|::
0000|00|::
0000|00|::
0000|00|::
0000|00|::
0000|00|::
0000|00|::
0000|00|::
0000|00|::
0000|00|::
0000|00|::
0000|00|::
0000|00|::
0000|00|::
0000|00|::
0000|00|::
0000|00|::
0000|00|::
0000|00|::
0000|00|::
0000|00|::
0000|00|::
0000|00|::
0000|00|::
0000|00|::
0000|00|::
0000|00|::
0000|20|:h
0000|00|::
0000|00|:7
0000|00|::
0000|00|::
0000|00|::
0000|00|::
0000|00|::
--
0000|00|::
0000|00|::
0000|00|::
0000|00|::
0000|00|::
0000|00|::
0000|00|::
0000|00|::
0000|00|::
0000|00|::
0000|00|::
0000|00|::
0000|00|::
0000|00|::
0000|00|::
0000|00|::
0000|02|7:
0000|00|::
0000|00|h:
0000|00|-:
0000|00|-:
0000|00|-:
0000|00|-:
0000|00|-:
0000|00|-:
0000|00|-:
0000|00|-:
0000|00|-:
0000|00|-:
0000|00|-:
0000|00|-:
0000|00|-:
0000|00|-:
0000|00|-:
0000|00|-:
0000|00|-:
0000|00|-:
0000|00|-:
0000|00|-:
0000|00|-:
0000|20|-7
0000|00|-:
0000|00|-h
0000|00|--
0000|00|--
0000|00|--
0000|00|--
0000|00|--
0100|00|--
0000|00|--
0000|00|--
0000|00|--
0000|00|--
0000|00|--
0000|00|--
0000|00|--
0010|00|--
0000|00|--
0000|00|--
0000|00|--
0000|00|--
0000|00|--
0000|00|--
0000|00|--
--
1000|00|--
0000|00|--
0100|00|--
0010|00|--
0001|00|--
1100|00|--
0000|00|--
0110|00|--
--
fx-l=
0000|10|--
0000|10|--
0001|10|--
0000|10|--
0010|10|--
0000|10|--
0100|10|--
0000|10|--
fx-r=
1000|01|--
0000|01|--
0100|01|--
0000|01|--
0010|01|--
0000|01|--
0001|01|--
0000|01|--
--
zoom_bottom=-50
0010|00|0-
0000|00|:-
0000|00|:-
0000|00|:-
0010|00|:-
0000|00|:-
0001|00|:-
0000|00|:-
fx-r=
0000|01|:-
0000|01|:-
0000|01|:-
0000|01|:-
0010|00|:-
0000|00|:-
0010|00|o-
0000|00|:-
--
0000|00|:-
0000|00|:-
0001|00|:-
0000|00|:-
0010|00|:-
0000|00|:-
0000|00|:-
0000|00|:-
fx-r=
0000|01|0-
0000|01|:-
0000|01|:-
0000|01|:-
0000|00|o-
0000|00|--
0000|00|--
0000|00|--
--
fx-l=
0000|10|-o
0000|10|-:
0000|10|-:
0000|10|-:
0100|00|-:
0000|00|-:
0100|00|-:
0000|00|-:
fx-l=
0000|10|-0
0000|10|-:
0000|10|-:
0000|10|-:
1000|00|-:
0000|00|-:
1000|00|-:
0000|00|-:
--
0100|00|-Z
0000|00|-:
1000|00|-:
0000|00|-:
0100|00|-:
0000|00|-:
1000|00|-:
0000|00|-:
fx-l=
0000|10|-0
0000|10|-:
0000|10|-:
0000|10|-:
0000|00|-o
0000|00|--
0000|00|--
0000|00|--
--
zoom_bottom=0
0002|00|K-
0002|00|:-
0002|00|:-
0002|00|:-
0010|00|:-
0000|00|:-
0001|00|:-
0000|00|:-
0010|00|0-
0000|00|:-
0001|00|:-
0000|00|:-
0010|00|:-
0000|00|:-
0001|00|o-
0000|00|:-
--
0000|00|:-
0000|00|:-
0010|00|:-
0000|00|:-
0000|00|:-
0000|00|:-
0001|00|0-
0000|00|--
0000|00|--
0000|00|--
0010|00|--
0000|00|--
0100|00|--
0000|00|--
1000|00|--
0000|00|--
--
0100|00|-U
0000|00|-:
0000|00|-:
0000|00|-:
1000|00|-:
0000|00|-:
0100|00|-:
0000|00|-:
0000|00|-o
0000|00|-:
0100|00|-:
0000|00|-:
0000|00|-:
0000|00|-:
1000|00|-:
0000|00|-:
--
0200|00|-0
0200|00|-:
0200|00|-:
0200|00|-:
0200|00|-:
0200|00|-:
0200|00|-:
0200|00|-:
0200|00|-:
0200|00|-:
0200|00|-:
0200|00|-:
0200|00|-:
0200|00|-:
0200|00|-:
0200|00|-:
1000|00|-o
0000|00|-:
0000|00|-:
0000|00|-:
0000|00|-:
0000|00|-:
0000|00|-:
0000|00|-:
0000|00|-:
0000|00|-:
0000|00|-:
0000|00|-:
0000|00|-:
0000|00|-:
0000|00|-:
0000|00|-:
fx-l=
0000|10|-o
0000|10|-:
0000|10|-:
0000|10|-:
0000|10|-:
0000|10|-:
0000|10|-:
0000|10|-:
0000|10|-:
0000|10|-:
0000|10|-:
0000|10|-:
0000|10|-:
0000|10|-:
0000|10|-:
0000|10|-:
0000|00|-0
0000|00|-:
0000|00|-o
0000|00|--
0000|00|--
0000|00|--
0000|00|--
0000|00|--
0000|00|--
0000|00|--
0000|00|--
0000|00|--
0000|00|--
0000|00|--
0000|00|--
0000|00|--
--
0001|00|0-
0000|00|:-
0000|00|o-
0000|00|--
0000|00|--
0000|00|--
0000|00|--
0000|00|--
0000|00|--
0000|00|--
0000|00|--
0000|00|--
0000|00|--
0000|00|--
0000|00|--
0000|00|--
0100|00|--
0000|00|--
0000|00|--
0000|00|--
0000|00|--
0000|00|--
0000|00|--
0000|00|--
fx-l=
0000|10|-o
0000|10|-:
0000|10|-0
0000|10|--
0000|10|--
0000|10|--
0000|10|--
0000|10|--
0000|10|--
0000|10|--
0000|10|--
0000|10|--
0000|10|--
0000|10|--
0000|10|--
0000|10|--
0010|00|--
0000|00|--
0000|00|--
0000|00|--
0000|00|--
0000|00|--
0000|00|--
0000|00|--
0000|00|--
0000|00|--
0000|00|--
0000|00|--
0000|00|--
0000|00|--
0000|00|--
0000|00|--
fx-r=
0000|01|--
0000|01|--
0000|01|--
0000|01|--
0000|01|--
0000|01|--
0000|01|--
0000|01|--
--
0000|01|--
0000|01|--
0100|00|--
0000|00|--
0010|00|--
0000|00|--
0001|00|--
0000|00|--
0010|00|--
0000|00|--
0100|00|--
0000|00|--
1000|00|--
0000|00|--
0000|00|--
0000|00|--
--
0100|00|-o
0000|00|-:
0000|00|-0
0000|00|--
0000|00|--
0000|00|--
0000|00|--
0000|00|--
0000|00|--
0000|00|--
0000|00|--
0000|00|--
0000|00|--
0000|00|--
0000|00|--
0000|00|--
0001|00|--
0000|00|--
0000|00|--
0000|00|--
0000|00|--
0000|00|--
0000|00|--
0000|00|--
fx-r=
0000|01|0-
0000|01|:-
0000|01|o-
0000|01|--
0000|01|--
0000|01|--
0000|01|--
0000|01|--
0000|01|--
0000|01|--
0000|01|--
0000|01|--
0000|01|--
0000|01|--
0000|01|--
0000|01|--
1000|00|--
0000|00|--
0000|00|--
0000|00|--
0000|00|--
0000|00|--
0000|00|--
0000|00|--
0000|00|--
0000|00|--
0000|00|--
0000|00|--
0000|00|--
0000|00|--
0000|00|--
0000|00|--
fx-l=
0000|10|--
0000|10|--
0000|10|--
0000|10|--
0000|10|--
0000|10|--
0000|10|--
0000|10|--
--
0000|10|--
0000|10|--
0010|00|--
0000|00|--
0100|00|--
0000|00|--
1000|00|--
0000|00|--
0100|00|--
0000|00|--
0010|00|--
0000|00|--
0001|00|--
0000|00|--
0100|00|--
0000|00|--
--
fx-l=
fx-r=
0000|11|--
0000|11|--
0000|11|--
0000|11|--
0000|11|--
0000|11|--
0000|11|--
0000|11|--
0110|00|--
0000|00|--
0000|00|--
0000|00|--
0000|00|--
0000|00|--
0000|00|--
0000|00|--
1100|00|--
0000|00|--
0000|00|--
0000|00|--
0000|00|--
0000|00|--
0110|00|--
0000|00|--
0000|00|--
0000|00|--
0000|00|--
0000|00|--
0011|00|--
0000|00|--
0000|00|--
0000|00|--
--
fx-l=
fx-r=
0000|11|--
0000|11|--
0000|11|--
0000|11|--
0000|11|--
0000|11|--
0000|11|--
0000|11|--
0110|00|--
0000|00|--
0000|00|--
0000|00|--
0000|00|--
0000|00|--
0000|00|--
0000|00|--
0011|00|--
0000|00|--
0000|00|--
0000|00|--
0000|00|--
0000|00|--
0110|00|--
0000|00|--
0000|00|--
0000|00|--
0000|00|--
0000|00|--
1100|00|--
0000|00|--
0000|00|--
0000|00|--
--
0000|02|--
0000|02|--
0000|20|--
0000|20|--
0000|02|--
0000|20|--
0000|02|--
0000|20|--
--
0001|00|--
0000|00|--
0010|00|--
0000|00|--
0100|00|--
0000|00|--
1000|00|--
0000|00|--
0001|00|--
0000|00|--
0010|00|--
0000|00|--
0100|00|--
0000|00|--
1000|00|--
0000|00|--
fx-l=
0000|10|--
0000|10|--
0000|10|--
0000|10|--
0000|10|--
0000|10|--
0000|10|--
0000|10|--
0000|10|-o
0000|10|-:
0000|10|-:
0000|10|-:
0000|10|-:
0000|10|-:
0000|10|-:
0000|10|-:
--
0000|00|-0
0000|00|-:
0000|00|-o
0000|00|--
0000|00|--
0000|00|--
0000|00|--
0000|00|--
0000|00|--
0000|00|--
0000|00|--
0000|00|--
0000|00|--
0000|00|--
0000|00|--
0000|00|--
1000|00|--
0000|00|--
0100|00|--
0000|00|--
0000|00|--
0000|00|--
0000|00|--
0000|00|--
0000|00|--
0000|00|--
0000|00|--
0000|00|--
0000|00|--
0000|00|--
0000|00|--
0000|00|--
0010|00|--
0000|00|--
0001|00|--
0000|00|--
0000|00|--
0000|00|--
0000|00|--
0000|00|--
0000|00|--
0000|00|--
0000|00|--
0000|00|--
0000|20|--
0000|00|--
0000|00|--
0000|00|--
0000|00|--
0000|00|--
0000|00|--
0000|00|--
0000|00|--
0000|00|--
0000|00|--
0000|00|--
0000|02|--
0000|00|--
0000|00|--
0000|00|--
0000|00|--
0000|00|--
0000|00|--
0000|00|--
--
0000|00|0-
0000|00|:-
0000|00|o-
0000|00|--
0000|00|--
0000|00|--
0000|00|--
0000|00|--
0001|00|--
0000|00|--
0000|00|--
0000|00|--
0000|00|--
0000|00|--
0000|00|--
0000|00|--
0010|00|--
0000|00|--
0000|00|--
0000|00|--
0000|00|--
0000|00|--
0000|00|--
0000|00|--
0100|00|--
0000|00|--
0000|00|--
0000|00|--
0000|00|--
0000|00|--
0000|00|--
0000|00|--
fx-r=
0010|01|--
0000|01|--
0000|01|--
0000|01|--
0000|01|--
0000|01|--
0000|01|--
0000|01|--
0010|01|--
0000|01|--
0000|01|--
0000|01|--
0000|01|--
0000|01|--
0000|01|--
0000|01|--
fx-l=
0100|10|--
0000|10|--
0000|10|--
0000|10|--
0000|10|--
0000|10|--
0000|10|--
0000|10|--
0100|10|--
0000|10|--
0000|10|--
0000|10|--
0000|10|--
0000|10|--
0000|10|--
0000|10|--
--
0000|00|-o
0000|00|-:
0000|00|-0
0000|00|--
0000|00|--
0000|00|--
0000|00|--
0000|00|--
0000|00|--
0000|00|--
0000|00|--
0000|00|--
0000|00|--
0000|00|--
0000|00|--
0000|00|--
0010|20|--
0000|00|--
0000|00|--
0000|00|--
0000|00|--
0000|00|--
0000|00|--
0000|00|--
0010|00|--
0000|00|--
0000|00|--
0000|00|--
0000|00|--
0000|00|--
0000|00|--
0000|00|--
1000|00|--
0000|00|--
0000|00|--
0000|00|--
0000|00|--
0000|00|--
0000|00|--
0000|00|--
0100|00|--
0000|00|--
0000|00|--
0000|00|--
0000|00|--
0000|00|--
0000|00|--
0000|00|--
0001|20|--
0000|00|--
0000|00|--
0000|00|--
0000|00|--
0000|00|--
0000|00|--
0000|00|--
0020|00|--
0020|00|--
0020|00|--
0020|00|--
0020|00|--
0020|00|--
0020|00|--
0020|00|--
--
0020|00|--
0020|00|--
0020|00|--
0020|00|--
fx-r=
0000|01|--
0000|01|--
0000|01|--
0000|01|--
0000|21|--
0000|01|--
0000|01|--
0000|01|--
0100|00|--
0000|00|--
0000|00|--
0000|00|--
0001|00|--
0000|00|--
0000|00|--
0000|00|--
0000|00|--
0000|00|--
0010|00|--
0000|00|--
0000|20|--
0000|00|--
0000|00|--
0000|00|--
0100|00|--
0000|00|--
0000|00|--
0000|00|--
--
0010|00|--
0000|00|--
0000|00|--
0000|00|--
1000|02|--
0000|00|--
0100|00|--
0000|00|--
1000|00|--
0000|00|--
0010|00|--
0000|00|--
0100|02|--
0000|00|--
2000|00|--
2000|00|--
--
2000|00|--
2000|00|--
fx-l=
0000|10|--
0000|10|--
0000|12|--
0000|10|--
0010|00|--
0000|00|--
0100|00|--
0000|00|--
1000|00|--
0000|00|--
0100|02|--
0000|00|--
0010|00|--
0000|00|--
--
0001|00|0-
0000|00|:-
0000|00|:-
0000|00|:-
fx-r=
0000|01|:-
0000|01|:-
0000|01|:-
0000|01|:-
0010|00|o-
0000|00|:-
0001|00|:-
0000|00|:-
0010|00|:-
0000|00|:-
0002|00|0-
0002|00|:-
--
0002|00|:-
0002|00|:-
0000|00|o-
0000|00|--
fx-r=
0000|01|--
0000|01|--
0000|01|--
0000|01|--
0000|00|--
0000|00|--
0200|00|--
0200|00|--
0200|00|--
0200|00|--
0000|00|--
0000|00|--
--
1000|00|-o
0000|00|-:
0000|00|-:
0000|00|-:
0100|00|-0
0000|00|-:
1000|00|-:
0000|00|-:
0100|00|-:
0000|00|-:
1000|00|-:
0000|00|-:
fx-l=
0000|10|-o
0000|10|-:
0000|10|-:
0000|10|-:
--
zoom_top=0
zoom_bottom=0
0000|00|-0
0000|00|--
0200|00|--
0200|00|--
0200|00|--
0200|00|--
0000|00|--
0000|00|--
1000|00|--
0000|00|--
0100|00|--
0000|00|--
0010|00|--
0000|00|--
0001|00|--
0000|00|--
--
zoom_top=50
zoom_bottom=-50
fx-r=
0000|01|--
0000|01|--
0000|01|--
0000|01|--
0000|01|--
0000|01|--
0000|01|--
0000|01|--
0000|01|--
0000|01|--
0000|01|--
0000|01|--
0000|01|--
0000|01|--
0000|01|--
0000|01|--
0001|00|0-
0000|00|:-
0000|00|o-
0000|00|--
0000|00|--
0000|00|--
0000|00|--
0000|00|--
0001|00|--
0000|00|--
0000|00|--
0000|00|--
0000|00|--
0000|00|--
0000|00|--
0000|00|--
0010|00|--
0000|00|--
0000|00|--
0000|00|--
0000|00|--
0000|00|--
0000|00|--
0000|00|--
0001|00|--
0000|00|--
0000|00|--
0000|00|--
0000|00|--
0000|00|--
0000|00|--
0000|00|--
0010|00|0-
0000|00|:-
0000|00|o-
0000|00|--
0000|00|--
0000|00|--
0000|00|--
0000|00|--
fx-r=
0000|01|--
0000|01|--
0000|01|--
0000|01|--
0000|01|--
0000|01|--
0000|01|--
0000|01|--
--
0000|01|--
0000|01|--
0000|01|--
0000|01|--
0000|01|--
0000|01|--
0000|01|--
0000|01|--
0001|00|--
0000|00|--
0000|00|--
0000|00|--
0000|00|--
0000|00|--
0000|00|--
0000|00|--
0010|00|0-
0000|00|:-
0000|00|o-
0000|00|--
0000|00|--
0000|00|--
0000|00|--
0000|00|--
0000|00|--
0000|00|--
0000|00|--
0000|00|--
0000|00|--
0000|00|--
0000|00|--
0000|00|--
0001|00|--
0000|00|--
0000|00|--
0000|00|--
0000|00|--
0000|00|--
0000|00|--
0000|00|--
0000|00|--
0000|00|--
0000|00|--
0000|00|--
0001|00|--
0000|00|--
0000|00|--
0000|00|--
0000|00|0-
0000|00|:-
0000|00|o-
0000|00|--
0000|00|--
0000|00|--
0000|00|--
0000|00|--
0010|00|--
0000|00|--
0000|00|--
0000|00|--
0000|00|--
0000|00|--
0000|00|--
0000|00|--
--
fx-l=
0000|10|--
0000|10|--
0000|10|--
0000|10|--
0000|10|--
0000|10|--
0000|10|--
0000|10|--
0000|10|--
0000|10|--
0000|10|--
0000|10|--
0000|10|--
0000|10|--
0000|10|--
0000|10|--
1000|00|-o
0000|00|-:
0000|00|-0
0000|00|--
0000|00|--
0000|00|--
0000|00|--
0000|00|--
0100|00|--
0000|00|--
0000|00|--
0000|00|--
0000|00|--
0000|00|--
0000|00|--
0000|00|--
0100|00|--
0000|00|--
0000|00|--
0000|00|--
0000|00|--
0000|00|--
0000|00|--
0000|00|--
1000|00|--
0000|00|--
0000|00|--
0000|00|--
0000|00|--
0000|00|--
0000|00|--
0000|00|--
0000|00|-o
0000|00|-:
0000|00|-0
0000|00|--
0000|00|--
0000|00|--
0000|00|--
0000|00|--
fx-l=
0000|10|--
0000|10|--
0000|10|--
0000|10|--
0000|10|--
0000|10|--
0000|10|--
0000|10|--
--
0000|10|--
0000|10|--
0000|10|--
0000|10|--
0000|10|--
0000|10|--
0000|10|--
0000|10|--
1000|00|--
0000|00|--
0000|00|--
0000|00|--
0000|00|--
0000|00|--
0000|00|--
0000|00|--
0100|00|-o
0000|00|-:
0000|00|-0
0000|00|--
0000|00|--
0000|00|--
0000|00|--
0000|00|--
0000|00|--
0000|00|--
0000|00|--
0000|00|--
0000|00|--
0000|00|--
0000|00|--
0000|00|--
1000|00|--
0000|00|--
0000|00|--
0000|00|--
0000|00|--
0000|00|--
0000|00|--
0000|00|--
0000|00|--
0000|00|--
0000|00|--
0000|00|--
1000|00|--
0000|00|--
0000|00|--
0000|00|--
0000|00|-o
0000|00|-:
0000|00|-0
0000|00|--
0000|00|--
0000|00|--
0000|00|--
0000|00|--
0100|00|--
0000|00|--
0000|00|--
0000|00|--
0000|00|--
0000|00|--
0000|00|--
0000|00|--
--
fx-r=
0000|01|--
0000|01|--
0000|01|--
0000|01|--
0000|01|--
0000|01|--
0000|01|--
0000|01|--
0000|01|--
0000|01|--
0000|01|--
0000|01|--
0000|01|--
0000|01|--
0000|01|--
0000|01|--
laserrange_l=2x
0001|00|P-
0000|00|:-
0000|00|7-
0000|00|--
0000|00|--
0000|00|--
0000|00|--
0000|00|--
0010|00|--
0000|00|--
0000|00|--
0000|00|--
0000|00|--
0000|00|--
0000|00|--
0000|00|--
0001|00|--
0000|00|--
0000|00|--
0000|00|--
0000|00|--
0000|00|--
0000|00|--
0000|00|--
0010|00|--
0000|00|--
0000|00|--
0000|00|--
0000|00|--
0000|00|--
0000|00|--
0000|00|--
laserrange_l=2x
0001|00|P-
0000|00|:-
0000|00|7-
0000|00|--
0000|00|--
0000|00|--
0000|00|--
0000|00|--
0001|00|--
0000|00|--
0000|00|--
0000|00|--
0000|00|--
0000|00|--
0000|00|--
0000|00|--
--
0000|00|--
0000|00|--
0000|00|--
0000|00|--
0000|00|--
0000|00|--
0000|00|--
0000|00|--
fx-l=
0000|10|--
0000|10|--
0000|10|--
0000|10|--
0000|10|--
0000|10|--
0000|10|--
0000|10|--
laserrange_r=2x
0000|10|-P
0000|10|-:
0000|10|-h
0000|10|--
0000|10|--
0000|10|--
0000|10|--
0000|10|--
1000|00|--
0000|00|--
0000|00|--
0000|00|--
0000|00|--
0000|00|--
0000|00|--
0000|00|--
1000|00|--
0000|00|--
0000|00|--
0000|00|--
0000|00|--
0000|00|--
0000|00|--
0000|00|--
0100|00|--
0000|00|--
0000|00|--
0000|00|--
0000|00|--
0000|00|--
0000|00|--
0000|00|--
laserrange_r=2x
1000|00|-P
0000|00|-:
0000|00|-h
0000|00|--
0000|00|--
0000|00|--
0000|00|--
0000|00|--
0100|00|--
0000|00|--
0000|00|--
0000|00|--
0000|00|--
0000|00|--
0000|00|--
0000|00|--
--
fx-r=
0000|01|--
0000|01|--
0000|01|--
0000|01|--
0000|01|--
0000|01|--
0000|01|--
0000|01|--
0000|01|--
0000|01|--
0000|01|--
0000|01|--
0000|01|--
0000|01|--
0000|01|--
0000|01|--
0001|00|0-
0000|00|:-
0000|00|o-
0000|00|:-
0000|00|:-
0000|00|:-
0000|00|:-
0000|00|:-
0010|00|:-
0000|00|:-
0000|00|:-
0000|00|:-
0000|00|:-
0000|00|:-
0000|00|:-
0000|00|:-
fx-l=
0000|10|:-
0000|10|:-
0000|10|:-
0000|10|:-
0000|10|:-
0000|10|:-
0000|10|:-
0000|10|:-
0000|10|:-
0000|10|:-
0000|10|:-
0000|10|:-
0000|10|:-
0000|10|:-
0000|10|:-
0000|10|:-
1000|00|:o
0000|00|::
0000|00|:0
0000|00|::
0000|00|::
0000|00|::
0000|00|::
0000|00|::
0100|00|::
0000|00|::
0000|00|::
0000|00|::
0000|00|::
0000|00|::
0000|00|::
0000|00|::
--
fx-r=
0000|01|::
0000|01|::
0000|01|::
0000|01|::
0000|01|::
0000|01|::
0000|01|::
0000|01|::
0000|01|::
0000|01|::
0000|01|::
0000|01|::
0000|01|::
0000|01|::
0000|01|::
0000|01|::
0010|00|o:
0000|00|::
0000|00|0:
0000|00|-:
0000|00|-:
0000|00|-:
0000|00|-:
0000|00|-:
0001|00|-:
0000|00|-:
0000|00|-:
0000|00|-:
0000|00|-:
0000|00|-:
0000|00|-:
0000|00|-:
fx-l=
0000|10|-:
0000|10|-:
0000|10|-:
0000|10|-:
0000|10|-:
0000|10|-:
0000|10|-:
0000|10|-:
0000|10|-:
0000|10|-:
0000|10|-:
0000|10|-:
0000|10|-:
0000|10|-:
0000|10|-:
0000|10|-:
0100|00|-0
0000|00|-:
0000|00|-o
0000|00|--
0000|00|--
0000|00|--
0000|00|--
0000|00|--
1000|00|--
0000|00|--
0000|00|--
0000|00|--
0000|00|--
0000|00|--
0000|00|--
0000|00|--
--
0100|00|--
0000|00|--
0000|00|--
0000|00|--
0000|00|--
0000|00|--
0000|00|--
0000|00|--
0000|00|--
0000|00|--
0000|00|--
0000|00|--
0000|00|--
0000|00|--
0000|00|--
0000|00|--
0010|00|--
0000|00|--
0000|00|--
0000|00|--
0000|00|--
0000|00|--
0000|00|--
0000|00|--
fx-r=
0000|01|0-
0000|01|:-
0000|01|o-
0000|01|:-
0000|01|:-
0000|01|:-
0000|01|:-
0000|01|:-
0000|01|:-
0000|01|:-
0000|01|:-
0000|01|:-
0000|01|:-
0000|01|:-
0000|01|:-
0000|01|:-
0001|00|:-
0000|00|:-
0000|00|:-
0000|00|:-
0000|00|:-
0000|00|:-
0000|00|:-
0000|00|:-
zoom_top=50
zoom_bottom=-50
0020|00|o-
0020|00|:-
0020|00|0-
0020|00|--
0020|00|--
0020|00|--
0020|00|--
0020|00|--
0020|00|--
0020|00|--
0020|00|--
0020|00|--
0020|00|--
0020|00|--
0020|00|--
0020|00|--
--
0020|00|--
0020|00|--
0020|00|--
0020|00|--
fx-l=
0000|10|--
0000|10|--
0000|10|--
0000|10|--
fx-r=
0000|01|--
0000|01|--
fx-l=
0000|10|--
0000|10|--
zoom_top=0
zoom_bottom=0
0000|02|--
0000|00|--
0000|20|--
0000|00|--
--
0010|00|--
0000|00|--
0000|00|--
0000|00|--
0000|00|--
0000|00|--
0000|00|--
0000|00|--
0000|00|--
0000|00|--
0000|00|--
0000|00|--
0000|00|--
0000|00|--
0000|00|--
0000|00|--
0100|00|--
0000|00|--
0000|00|--
0000|00|--
0000|00|--
0000|00|--
0000|00|--
0000|00|--
fx-l=
0000|10|-o
0000|10|-:
0000|10|-0
0000|10|-:
0000|10|-:
0000|10|-:
0000|10|-:
0000|10|-:
0000|10|-:
0000|10|-:
0000|10|-:
0000|10|-:
0000|10|-:
0000|10|-:
0000|10|-:
0000|10|-:
1000|00|-:
0000|00|-:
0000|00|-:
0000|00|-:
0000|00|-:
0000|00|-:
0000|00|-:
0000|00|-:
0200|00|-0@)120
0200|00|-:
0200|00|-o
0200|00|--
0200|00|--
0200|00|--
0200|00|--
0200|00|--
0200|00|--
0200|00|--
0200|00|--
0200|00|--
0200|00|--
0200|00|--
0200|00|--
0200|00|--
--
0200|00|--
0200|00|--
0200|00|--
0200|00|--
0200|00|--
0200|00|--
0000|00|--
0000|00|--
--
