title=いーあるふぁんくらぶ
artist=みきとP
effect=
jacket=002_0278_1_b.jpg
illustrator=
difficulty=light
level=3
t=145
m=Yie-ar fanclub_lt_f.ogg;Yie-ar fanclub_lt_f.ogg
o=0
bg=desert
layer=arrow
po=50000
plength=15000
pfiltergain=50
filtertype=peak
chokkakuvol=50
pfilterdelay=0
information=By MasakaWillKillMe
icon=../voltex2.png
ver=140d
--
beat=4/4
0000|00|--
--
0000|00|--
--
1000|00|--
0100|00|--
--
0001|00|--
0010|00|--
--
1000|00|--
0100|00|--
--
0000|0I|--
0000|0I|--
0000|00|--
0000|00|--
--
1000|00|--
0001|00|--
1000|00|--
0001|00|--
--
1000|00|--
0001|00|--
1000|00|--
0001|00|--
--
1000|00|--
0001|00|--
1000|00|--
0001|00|--
--
1000|00|--
0001|00|--
1000|00|--
0000|00|--
--
0000|0F|--
0000|0F|--
0000|0F|--
0000|0F|--
0000|0F|--
0000|0F|--
0000|00|--
0000|00|--
--
0000|F0|--
0000|F0|--
0000|00|--
0000|00|--
0000|0F|--
0000|0F|--
0000|00|--
0000|00|--
--
0100|00|--
0100|00|--
--
0010|00|--
0010|00|--
--
0100|00|--
0100|00|--
--
0000|0I|--
0000|0I|--
0000|00|--
0000|00|--
0000|0I|--
0000|0I|--
0000|00|--
0000|00|--
--
0100|00|--
0100|00|--
--
0100|00|--
0000|00|--
0000|00|--
0000|00|--
0000|0H|--
0000|0H|--
0000|00|--
0000|00|--
--
0100|00|--
0100|00|--
--
0010|00|--
0000|00|--
0000|00|--
0000|00|--
0000|I0|--
0000|I0|--
0000|00|--
0000|00|--
--
0010|00|--
0010|00|--
--
0010|00|--
0000|00|--
0000|00|--
0000|00|--
0000|T0|--
0000|T0|--
0000|00|--
0000|00|--
--
0001|00|--
0001|00|--
1000|00|--
1000|00|--
--
0000|0F|--
0000|0F|--
0000|00|--
0000|00|--
--
1000|00|--
0001|00|--
1000|00|--
0001|00|--
--
1000|00|--
0000|00|--
0001|00|--
0000|00|--
0000|F0|--
0000|F0|--
0000|00|--
0000|00|--
--
0001|00|--
1000|00|--
0001|00|--
1000|00|--
--
0001|00|--
0000|00|--
1000|00|--
0000|00|--
0000|0I|--
0000|0I|--
0000|00|--
0000|00|--
--
1000|00|--
0001|00|--
1000|00|--
0001|00|--
--
1000|00|--
0000|00|--
0001|00|--
0000|00|--
0000|T0|--
0000|T0|--
0000|00|--
0000|00|--
--
0001|00|--
0001|00|--
0100|00|--
0100|00|--
--
1000|00|--
1000|00|--
0000|00|--
0000|00|--
--
0000|00|-o
0000|00|-:
--
0000|00|-0
0000|00|-:
0000|00|-:
0000|00|-:
0000|00|-:
0000|00|-:
0000|00|-o
0000|00|--
--
0000|00|0-
0000|00|:-
--
0000|00|o-
0000|00|:-
0000|00|:-
0000|00|:-
0000|00|:-
0000|00|:-
0000|00|0-
0000|00|--
--
0000|00|-o
0000|00|-:
--
0000|00|-:
0000|00|-:
0000|00|-0
0000|00|-:
--
0000|00|-0
0000|00|-:
0000|00|-o
0000|00|--
--
1001|00|--
1001|00|--
1001|00|--
0000|00|--
--
0100|00|--
0100|00|--
--
0000|00|-o
0000|00|-:
0000|00|-0
0000|00|--
--
1000|00|--
1000|00|--
--
0001|00|--
0001|00|--
0001|00|--
0000|00|--
--
0100|00|--
0010|00|--
0100|00|--
0010|00|--
--
0100|00|--
0010|00|--
0100|00|--
0010|00|--
--
0000|F0|--
0000|F0|--
0000|00|--
0000|00|--
0000|I0|--
0000|I0|--
0000|00|--
0000|00|--
--
0000|0F|--
0000|0F|--
0000|00|--
0000|00|--
--
0000|00|0-
0000|00|:-
--
0000|00|o-
0000|00|:-
0000|00|0-
0000|00|--
--
0001|00|--
1000|00|--
0001|00|--
1000|00|--
--
0001|00|--
1000|00|--
0001|00|--
1000|00|--
--
0000|0F|--
0000|0F|--
0000|00|--
0000|00|--
0000|I0|--
0000|I0|--
0000|00|--
0000|00|--
--
0000|0H|--
0000|0H|--
0000|00|--
0000|00|--
--
0100|00|--
0100|00|--
0010|00|--
0010|00|--
--
0100|00|--
0100|00|--
0010|00|--
0010|00|--
--
0000|F0|--
0000|F0|--
0000|00|--
0000|00|--
0000|I0|--
0000|I0|--
0000|00|--
0000|00|--
--
0000|0X|--
0000|0X|--
0000|00|--
0000|00|--
--
1001|00|--
1001|00|--
--
0000|FF|--
0000|FF|--
0000|00|--
0000|00|--
--
0000|00|-o
0000|00|-:
--
0000|00|-:
--
0000|00|-:
0000|00|-:
0000|00|-0
0000|00|--
0000|00|--
0000|00|--
0000|00|--
0000|00|--
--
