title=Xepher Light and Darkness Dragon REMIX
artist=デッドボールP
effect=レッドホットスクリューズ
jacket=001_0030_3_b.jpg
illustrator=もとこ
difficulty=extended
level=16
t=180
m=Xepher Light and Darkness Dragon REMIX_ex_f.ogg;Xepher Light and Darkness Dragon REMIX_ex_f.ogg
o=0
bg=desert
layer=arrow
po=58500
plength=15000
pfiltergain=50
filtertype=peak
chokkakuvol=50
pfilterdelay=0
information=By MasakaWillKillMe
ver=140d
--
beat=4/4
0000|00|--
--
0000|00|--
1111|00|--
--
0000|00|--
--
0000|00|--
0011|00|--
--
1100|00|--
0110|00|--
--
0000|00|0-
0000|00|:-
0000|00|o-
0000|00|--
0000|00|--
0000|00|--
0000|00|--
0000|00|--
0000|00|--
0000|00|--
0000|00|--
0000|00|--
0000|00|--
0000|00|--
0000|00|--
0000|00|--
0000|00|--
0000|00|--
0000|00|--
0000|00|--
0000|00|--
0000|00|--
0000|00|--
0000|00|--
0000|00|--
0000|00|--
0000|00|--
0000|00|--
0000|00|--
0000|00|--
0000|00|--
0000|00|--
0000|00|--
0000|00|--
0000|00|--
0000|00|--
0000|00|--
0000|00|--
0000|00|--
0000|00|--
0000|00|--
0000|00|--
0000|00|--
0000|00|--
0000|00|--
0000|00|--
0000|00|--
0000|00|--
0000|00|--
0000|00|--
0000|00|--
0000|00|--
0000|00|--
0000|00|--
0000|00|--
0000|00|--
0000|00|--
0000|00|--
0000|00|--
0000|00|--
0000|00|--
0000|00|--
0000|00|--
0000|00|--
--
0000|00|--
--
0000|00|-o
0000|00|-:
0000|00|-0
0000|00|--
0000|00|--
0000|00|--
0000|00|--
0000|00|--
0000|00|--
0000|00|--
0000|00|--
0000|00|--
0000|00|--
0000|00|--
0000|00|--
0000|00|--
0000|00|--
0000|00|--
0000|00|--
0000|00|--
0000|00|--
0000|00|--
0000|00|--
0000|00|--
0000|00|--
0000|00|--
0000|00|--
0000|00|--
0000|00|--
0000|00|--
0000|00|--
0000|00|--
0000|00|--
0000|00|--
0000|00|--
0000|00|--
0000|00|--
0000|00|--
0000|00|--
0000|00|--
0000|00|--
0000|00|--
0000|00|--
0000|00|--
0000|00|--
0000|00|--
0000|00|--
0000|00|--
0000|00|--
0000|00|--
0000|00|--
0000|00|--
0000|00|--
0000|00|--
0000|00|--
0000|00|--
0000|00|--
0000|00|--
0000|00|--
0000|00|--
0000|00|--
0000|00|--
0000|00|--
0000|00|--
--
0000|00|--
0000|00|--
0000|00|--
0000|00|--
0000|00|--
0000|00|--
0000|00|--
0000|00|--
0000|00|--
0000|00|--
0000|00|--
0000|00|--
1000|00|--
0100|00|--
0010|00|--
0001|00|--
--
0000|0F|--
0000|0F|--
0000|0F|--
0000|0F|--
0000|0F|--
0000|0F|--
0000|0F|--
0000|0F|--
0000|0F|--
0000|0F|--
0000|0F|--
0000|0F|--
0000|0F|--
0000|0F|--
0000|0F|--
0000|0F|--
0000|0F|--
0000|0F|--
0000|0F|--
0000|0F|--
0000|0F|--
0000|0F|--
0000|0F|--
0000|0F|--
0000|0F|--
0000|0F|--
0000|0F|--
0000|0F|--
0100|00|--
0000|00|--
0010|00|--
0000|00|--
--
0000|F0|--
0000|F0|--
0000|F0|--
0000|F0|--
0000|F0|--
0000|F0|--
0010|00|--
0000|00|--
--
0000|00|-o
0000|00|-:
--
0000|0I|-0
0000|0I|-:
0000|F0|-:
0000|F0|-:
--
0000|00|-o
0000|00|--
0000|00|0-
0000|00|:-
0000|00|:-
0000|00|:-
0000|00|:-
0000|00|:-
0000|0I|o-
0000|0I|:-
0000|0I|:-
0000|0I|:-
0000|0I|:-
0000|0I|:-
0000|0I|:-
0000|0I|:-
--
0000|00|0-
0000|00|--
0000|00|-o
0000|00|-:
0000|00|-:
0000|00|-:
0000|00|-:
0000|00|-:
0000|I0|-0
0000|I0|-:
0000|I0|-:
0000|I0|-:
0000|I0|-:
0000|I0|-:
0000|I0|-:
0000|I0|-:
--
0000|00|-o
0000|00|--
0000|00|0-
0000|00|:-
0000|00|:-
0000|00|:-
0000|00|:-
0000|00|:-
0000|0F|o-
0000|0F|:-
0000|0F|:-
0000|0F|:-
0000|0F|:-
0000|0F|:-
0000|0F|:-
0000|0F|:-
--
0000|00|0-
0000|00|:-
0000|00|:-
0000|00|:-
0000|00|:-
0000|00|:-
0000|00|o-
0000|00|:-
--
0000|00|0-
0000|00|:-
--
0000|00|o-
0000|00|--
--
0000|00|--
--
0000|F0|-o
0000|F0|-:
0000|F0|-:
0000|F0|-:
0000|F0|-:
0000|F0|-:
0000|F0|-:
0000|F0|-:
0000|F0|-:
0000|F0|-:
0000|F0|-:
0000|F0|-:
1100|00|-0
0000|00|--
1100|00|--
0000|00|--
--
0001|00|--
0000|00|--
0000|I0|--
0000|I0|--
0000|0F|--
0000|0F|--
0110|00|--
0000|00|--
--
0000|0F|0-
0000|0F|:-
0000|0F|:-
0000|0F|:-
0000|0F|:-
0000|0F|:-
0000|0F|:-
0000|0F|:-
0000|0F|:-
0000|0F|:-
0000|0F|:-
0000|0F|:-
0011|00|o-
0000|00|--
0011|00|--
0000|00|--
--
1000|00|--
0000|00|--
0000|I0|--
0000|I0|--
0000|0F|--
0000|0F|--
0110|00|--
0000|00|--
--
0000|F0|-o
0000|F0|-:
0000|F0|-:
0000|F0|-:
0000|F0|-:
0000|F0|-:
0000|F0|-:
0000|F0|-:
0000|F0|-:
0000|F0|-:
0000|F0|-:
0000|F0|-:
1100|00|-0
0000|00|--
1100|00|--
0000|00|--
--
0001|00|--
0000|00|--
0000|I0|--
0000|I0|--
0000|0F|--
0000|0F|--
0110|00|--
0000|00|--
--
0000|0F|0-
0000|0F|:-
--
0000|00|o-
0000|00|--
0000|00|--
0000|00|--
0110|00|--
0000|00|--
0000|00|--
0000|00|--
0110|00|--
0000|00|--
0000|00|--
0000|00|--
0110|00|--
0000|00|--
0000|00|--
0000|00|--
0110|00|--
0000|00|--
1001|00|--
0000|00|--
0000|00|--
0000|00|--
1001|00|--
0000|00|--
0000|TT|--
0000|TT|--
0000|TT|--
0000|TT|--
0000|TT|--
0000|TT|--
0000|TT|--
0000|TT|--
--
0010|00|--
0000|00|--
0100|00|--
0000|00|--
1000|00|--
0000|00|--
0010|00|--
0000|00|--
0100|00|--
0000|00|--
1000|00|--
0000|00|--
0010|00|--
0000|00|--
0100|00|--
0000|00|--
1000|00|--
0000|00|--
0010|00|--
0000|00|--
0100|00|--
0000|00|--
1000|00|--
0000|00|--
0010|00|--
0000|00|--
0000|00|--
0000|00|--
0010|00|--
0000|00|--
0000|00|--
0000|00|--
--
0000|00|0-
0000|00|:-
0000|0I|:-
0000|0I|:-
0000|00|o-
0000|00|:-
0000|0F|:-
0000|0F|:-
--
0010|00|0-
0000|00|--
0100|00|--
0000|00|--
1000|00|--
0000|00|--
0010|00|--
0000|00|--
0100|00|--
0000|00|--
1000|00|--
0000|00|--
0010|00|--
0000|00|--
0100|00|--
0000|00|--
1000|00|--
0000|00|--
0010|00|--
0000|00|--
0100|00|--
0000|00|--
1000|00|--
0000|00|--
0010|00|--
0000|00|--
0000|00|--
0000|00|--
0010|00|--
0000|00|--
0000|00|--
0000|00|--
--
0000|00|0-
0000|00|:-
0000|0I|:-
0000|0I|:-
0000|00|o-
0000|00|:-
0000|0F|:-
0000|0F|:-
--
0100|00|0-
0000|00|--
0010|00|--
0000|00|--
0001|00|--
0000|00|--
0100|00|--
0000|00|--
0010|00|--
0000|00|--
0001|00|--
0000|00|--
0100|00|--
0000|00|--
0010|00|--
0000|00|--
0001|00|--
0000|00|--
0100|00|--
0000|00|--
0010|00|--
0000|00|--
0001|00|--
0000|00|--
0100|00|--
0000|00|--
0000|00|--
0000|00|--
0100|00|--
0000|00|--
0000|00|--
0000|00|--
--
0000|00|-o
0000|00|-:
0000|I0|-:
0000|I0|-:
0000|00|-0
0000|00|-:
0000|F0|-:
0000|F0|-:
--
1000|00|-o
0000|00|--
0100|00|--
0000|00|--
0010|00|--
0000|00|--
1000|00|--
0000|00|--
0100|00|--
0000|00|--
0010|00|--
0000|00|--
1000|00|--
0000|00|--
0100|00|--
0000|00|--
0010|00|--
0000|00|--
1000|00|--
0000|00|--
0100|00|--
0000|00|--
0010|00|--
0000|00|--
1000|00|--
0000|00|--
0100|00|--
0000|00|--
0010|00|--
0000|00|--
0000|00|--
0000|00|--
--
0000|00|--
0000|00|--
0110|00|--
0000|00|--
0110|00|--
0000|00|--
0110|00|--
0000|00|--
1001|00|--
0110|00|--
1001|00|--
0110|00|--
1001|00|--
0110|00|--
1001|00|--
0110|00|--
--
0000|00|--
0000|00|--
0000|00|0o
0000|00|::
0000|00|::
0000|00|::
0000|00|::
0000|00|::
0000|00|::
0000|00|::
0000|00|::
0000|00|::
0000|00|::
0000|00|::
0000|00|::
0000|00|::
0000|00|::
0000|00|::
0000|00|::
0000|00|::
0000|00|::
0000|00|::
0000|00|::
0000|00|::
0000|00|o0
0000|00|--
0000|00|--
0000|00|--
0000|00|--
0000|00|--
0000|00|--
0000|00|--
--
0001|00|--
1000|00|--
0100|00|--
0010|00|--
1000|00|--
0010|00|--
1000|00|--
0001|00|--
0100|00|--
0010|00|--
1000|00|--
0001|00|--
0100|00|--
1000|00|--
0100|00|--
0010|00|--
--
0001|00|--
0010|00|--
0100|00|--
0001|00|--
1000|00|--
0100|00|--
1000|00|--
0010|00|--
0001|00|--
0010|00|--
1000|00|--
0010|00|--
0100|00|--
0001|00|--
0100|00|--
0010|00|--
--
0001|00|--
0010|00|--
0100|00|--
0010|00|--
1000|00|--
0100|00|--
1000|00|--
0001|00|--
0010|00|--
0100|00|--
0010|00|--
0001|00|--
0010|00|--
1000|00|--
0100|00|--
1000|00|--
--
0001|00|--
0000|00|--
0010|00|--
0000|00|--
1000|00|--
0000|00|--
0100|00|--
0000|00|--
0010|00|--
0000|00|--
0001|00|--
0000|00|--
0100|00|--
0000|00|--
0001|00|--
0000|00|--
1000|00|--
0000|00|--
0010|00|--
0000|00|--
0100|00|--
0000|00|--
0010|00|--
0000|00|--
0000|UU|--
0000|UU|--
0000|UU|--
0000|UU|--
0000|UU|--
0000|UU|--
0000|UU|--
0000|UU|--
--
1001|00|--
0000|00|--
0010|00|--
0000|00|--
0100|00|--
0000|00|--
1000|00|--
0000|00|--
0010|00|--
0000|00|--
0001|00|--
0000|00|--
1000|00|--
0000|00|--
0100|00|--
0000|00|--
0001|00|--
0000|00|--
0100|00|--
0000|00|--
0010|00|--
0000|00|--
1000|00|--
0000|00|--
0000|S0|--
0000|S0|--
0000|S0|--
0000|S0|--
0000|0T|--
0000|0T|--
0000|0T|--
0000|0T|--
--
1001|00|--
0000|00|--
0100|00|--
0000|00|--
0010|00|--
0000|00|--
1000|00|--
0000|00|--
0001|00|--
0000|00|--
0010|00|--
0000|00|--
0100|00|--
0000|00|--
1000|00|--
0000|00|--
0001|00|--
0000|00|--
0100|00|--
0000|00|--
0010|00|--
0000|00|--
1000|00|--
0000|00|--
0000|0T|--
0000|0T|--
0000|0T|--
0000|0T|--
0000|S0|--
0000|S0|--
0000|S0|--
0000|S0|--
--
1000|00|--
0000|00|--
0100|00|--
0000|00|--
0010|00|--
0000|00|--
0001|00|--
0000|00|--
0000|U0|--
0000|U0|--
0000|U0|--
0000|U0|--
0000|U0|--
0000|U0|--
0000|U0|--
0000|U0|--
0001|00|--
0000|00|--
0010|00|--
0000|00|--
0100|00|--
0000|00|--
1000|00|--
0000|00|--
0000|0S|--
0000|0S|--
0000|0S|--
0000|0S|--
0000|0S|--
0000|0S|--
0000|0S|--
0000|0S|--
--
1001|00|--
0000|00|--
0100|00|--
0000|00|--
0010|00|--
0000|00|--
0100|00|--
0000|00|--
0001|00|--
0000|00|--
0010|00|--
0000|00|--
0100|00|--
0000|00|--
1000|00|--
0000|00|--
0001|I0|--
0000|I0|--
0100|I0|--
0000|I0|--
0010|I0|--
0000|I0|--
1000|I0|--
0000|I0|--
0001|00|--
0000|00|--
0010|00|--
0000|00|--
0100|00|--
0000|00|--
1000|00|--
0000|00|--
--
0011|00|--
0001|00|--
1001|00|--
0101|00|--
--
0011|F0|--
0000|F0|--
0001|F0|--
0000|F0|--
1001|00|--
0000|00|--
0100|0T|--
0000|0T|--
--
0011|00|--
0000|00|--
0001|00|--
0000|00|--
1001|00|--
0000|00|--
0101|00|--
0000|00|--
--
0011|I0|--
0000|I0|--
0000|I0|--
0000|I0|--
0000|I0|--
0000|I0|--
0000|I0|--
0000|I0|--
0101|I0|--
0000|I0|--
0000|I0|--
0000|I0|--
0000|I0|--
0000|I0|--
0000|I0|--
0000|I0|--
0101|00|--
0000|00|--
0000|00|--
0000|00|--
0010|00|--
0000|00|--
0001|00|--
0000|00|--
1010|00|--
0000|00|--
0000|00|--
0000|00|--
0001|00|--
0000|00|--
0000|00|--
0000|00|--
--
0111|00|--
0000|00|--
1000|0S|--
0000|0S|--
1001|00|--
0000|00|--
0101|00|--
0000|00|--
--
0011|00|--
0000|00|--
1000|0T|--
0000|0T|--
1001|00|--
0000|00|--
0011|00|--
0000|00|--
--
0101|00|--
0000|00|--
0001|I0|--
0000|I0|--
1001|00|--
0000|00|--
0100|0F|--
0000|0F|--
--
0001|00|--
0000|00|--
0000|S0|--
0000|S0|--
0001|00|--
0000|00|--
0000|I0|--
0000|I0|--
0000|0U|--
0000|0U|--
0000|0U|--
0000|0U|--
0000|T0|--
0000|T0|--
0000|T0|--
0000|T0|--
--
0001|00|0-
0000|00|:-
0010|00|:-
0000|00|:-
0100|00|o-
0000|00|:-
0010|00|:-
0000|00|:-
--
0001|00|0-
0000|00|:-
0010|00|:-
0000|00|:-
0100|00|:-
0000|00|:-
1000|00|:-
0000|00|:-
--
0000|00|o-
0000|00|:-
0000|00|0-
0000|00|--
0000|00|--
0000|00|--
0000|00|--
0000|00|--
0000|00|--
0000|00|--
0000|00|--
0000|00|--
0000|00|--
0000|00|--
0000|00|--
0000|00|--
0000|00|--
0000|00|--
0000|00|--
0000|00|--
0000|00|--
0000|00|--
0000|00|--
0000|00|--
0000|00|--
0000|00|--
0000|00|--
0000|00|--
0000|00|--
0000|00|--
0000|00|--
0000|00|--
0000|00|--
0000|00|--
0000|00|--
0000|00|--
0000|00|--
0000|00|--
0000|00|--
0000|00|--
0000|00|--
0000|00|--
0000|00|--
0000|00|--
0000|00|--
0000|00|--
0000|00|--
0000|00|--
0000|00|--
0000|00|--
0000|00|--
0000|00|--
0000|00|--
0000|00|--
0000|00|--
0000|00|--
0000|00|--
0000|00|--
0000|00|--
0000|00|--
0000|00|--
0000|00|--
0000|00|--
0000|00|--
--
0000|00|--
--
0001|00|--
1000|00|--
0010|00|--
1000|00|--
0001|00|--
0100|00|--
0010|00|--
0100|00|--
0001|00|--
1000|00|--
0010|00|--
1000|00|--
0001|00|--
0100|00|--
0010|00|--
0100|00|--
--
0001|00|--
0100|00|--
0001|00|--
1000|00|--
0010|00|--
0100|00|--
0001|00|--
1000|00|--
0001|00|--
0100|00|--
0001|00|--
1000|00|--
0010|00|--
0100|00|--
0001|00|--
1000|00|--
--
0001|00|--
0100|00|--
0010|00|--
0100|00|--
0010|00|--
0100|00|--
0001|00|--
0100|00|--
0001|00|--
0100|00|--
0010|00|--
0100|00|--
0010|00|--
0100|00|--
0001|00|--
0100|00|--
--
0010|00|--
1000|00|--
0010|00|--
0100|00|--
0010|00|--
0100|00|--
0010|00|--
1000|00|--
0010|00|--
1000|00|--
0010|00|--
0100|00|--
0010|00|--
0100|00|--
0010|00|--
1000|00|--
--
0001|00|--
0100|00|--
0010|00|--
1000|00|--
0001|00|--
0100|00|--
0001|00|--
1000|00|--
0010|00|--
0100|00|--
0010|00|--
1000|00|--
0010|00|--
1000|00|--
0001|00|--
0100|00|--
--
0001|00|--
1000|00|--
0010|00|--
1000|00|--
0010|00|--
1000|00|--
0001|00|--
1000|00|--
0001|00|--
0100|00|--
0010|00|--
0100|00|--
0010|00|--
0100|00|--
0001|00|--
0100|00|--
--
0010|00|--
1000|00|--
0001|00|--
0100|00|--
0010|00|--
1000|00|--
0010|00|--
0100|00|--
0001|00|--
1000|00|--
0001|00|--
0100|00|--
0010|00|--
1000|00|--
0001|00|--
0100|00|--
--
0010|00|--
0000|00|--
1000|00|--
0000|00|--
0001|00|--
0000|00|--
0100|00|--
0000|00|--
0001|00|--
0000|00|--
1000|00|--
0000|00|--
0010|00|--
0000|00|--
0100|00|--
0000|00|--
0001|0I|--
0000|0I|--
0010|0I|--
0000|0I|--
0100|0I|--
0000|0I|--
1000|0I|--
0000|0I|--
0001|I0|--
0000|I0|--
0010|I0|--
0000|I0|--
0100|I0|--
0000|I0|--
1000|I0|--
0000|I0|--
--
0011|00|--
0000|00|--
0000|0T|--
0000|0T|--
1100|00|--
0000|00|--
0110|00|--
0000|00|--
--
0011|00|0-
0000|00|:-
0000|0F|:-
0000|0F|:-
0011|00|o-
0000|00|:-
0000|0I|:-
0000|0I|:-
--
0011|00|0-
0000|00|--
0000|0T|--
0000|0T|--
1100|00|--
0000|00|--
0110|00|--
0000|00|--
--
0011|00|0-
0000|00|:-
0110|00|:-
0000|00|:-
1100|00|o-
0000|00|:-
0110|00|:-
0000|00|:-
--
0011|00|0-
0000|00|--
0000|0U|--
0000|0U|--
1100|00|--
0000|00|--
0110|00|--
0000|00|--
--
0011|00|0-
0000|00|:-
0000|0F|:-
0000|0F|:-
0011|00|o-
0000|00|:-
0000|0I|:-
0000|0I|:-
--
0110|00|0-
0000|00|--
0000|0S|--
0000|0S|--
1100|00|--
0000|00|--
0000|0F|--
0000|0F|--
--
0000|I0|--
0000|I0|--
0000|I0|--
0000|I0|--
0000|I0|--
0000|I0|--
0000|I0|-o
0000|I0|-:
0000|I0|-:
0000|I0|-:
0000|I0|-:
0000|I0|-:
0000|I0|-:
0000|I0|-:
0000|I0|-:
0000|I0|-:
0000|I0|-0
0000|I0|-:
0000|I0|-:
0000|I0|-:
0000|I0|-:
0000|I0|-:
0000|I0|-:
0000|I0|-:
0000|I0|-:
0000|I0|-:
0000|I0|-:
0000|I0|-:
0000|I0|-:
0000|I0|-:
0000|I0|-:
0000|I0|-:
--
1100|00|-o
0000|00|-:
0000|S0|-:
0000|S0|-:
1100|00|-D
0000|00|-:
0000|0T|-:
0000|0T|-:
--
0011|00|-d
0000|00|-:
--
0000|00|-0
0000|00|-:
0000|00|-o
0000|00|--
0000|00|--
0000|00|--
0000|00|--
0000|00|--
0000|00|--
0000|00|--
0000|00|--
0000|00|--
0000|00|--
0000|00|--
0000|00|--
0000|00|--
0000|00|--
0000|00|--
0000|00|--
0000|00|--
0000|00|--
0000|00|--
0000|00|--
0000|00|--
0000|00|--
0000|00|--
0000|00|--
0000|00|--
0000|00|--
0000|00|--
0000|00|--
0000|00|--
0000|00|--
0000|00|--
0000|00|--
0000|00|--
0000|00|--
0000|00|--
0000|00|--
0000|00|--
0000|00|--
0000|00|--
0000|00|--
0000|00|--
0000|00|--
0000|00|--
0000|00|--
0000|00|--
0000|00|--
0000|00|--
0000|00|--
0000|00|--
0000|00|--
0000|00|--
0000|00|--
0000|00|--
0000|00|--
0000|00|--
0000|00|--
0000|00|--
0000|00|--
0000|00|--
0000|00|--
0000|00|--
--
0000|00|--
--
0010|00|0-
0000|00|:-
0001|00|:-
0000|00|:-
0010|00|:-
0000|00|:-
0001|00|:-
0000|00|:-
0010|00|:-
0000|00|:-
0000|00|:-
0000|00|:-
0010|00|:-
0000|00|:-
0001|00|:-
0000|00|:-
0000|00|:-
0000|00|:-
0010|00|:-
0000|00|:-
0001|00|:-
0000|00|:-
0000|00|:-
0000|00|:-
0010|00|o-
0000|00|--
0000|00|--
0000|00|--
0110|00|--
0000|00|--
0000|00|--
0000|00|--
--
1000|00|-o
0000|00|-:
0100|00|-:
0000|00|-:
1000|00|-:
0000|00|-:
0100|00|-:
0000|00|-:
1000|00|-:
0000|00|-:
0000|00|-:
0000|00|-:
1000|00|-:
0000|00|-:
0100|00|-:
0000|00|-:
0000|00|-:
0000|00|-:
1000|00|-:
0000|00|-:
0100|00|-:
0000|00|-:
0000|00|-:
0000|00|-:
1000|00|-0
0000|00|--
0000|00|--
0000|00|--
0110|00|--
0000|00|--
0000|00|--
0000|00|--
--
0010|00|0-
0000|00|:-
0001|00|:-
0000|00|:-
0010|00|:-
0000|00|:-
0001|00|:-
0000|00|:-
0010|00|:-
0000|00|:-
0000|00|:-
0000|00|:-
0010|00|:-
0000|00|:-
0001|00|:-
0000|00|:-
0000|00|:-
0000|00|:-
0010|00|:-
0000|00|:-
0001|00|:-
0000|00|:-
0000|00|:-
0000|00|:-
0001|00|o-
0000|00|--
0000|00|--
0000|00|--
0110|00|--
0000|00|--
0000|00|--
0000|00|--
--
0000|00|--
--
1000|FF|--
0000|FF|--
0100|FF|--
0000|FF|--
0010|FF|--
0000|FF|--
0001|FF|--
0000|FF|--
0100|FF|--
0000|FF|--
0001|FF|--
0000|FF|--
0010|FF|--
0000|FF|--
0100|FF|--
0000|FF|--
1000|FF|--
0000|FF|--
0100|FF|--
0000|FF|--
0010|FF|--
0000|FF|--
0001|FF|--
0000|FF|--
1000|FF|--
0000|FF|--
0100|FF|--
0000|FF|--
0010|FF|--
0000|FF|--
0001|FF|--
0000|FF|--
--
1111|00|--
0000|00|--
--
