title=World Vertex
artist=void
effect=
jacket=001_0069_1_b.jpg
illustrator=
difficulty=light
level=4
t=160
m=World Vertex_lt_f.ogg;World Vertex_lt_f.ogg
o=0
bg=desert
layer=arrow
po=0
plength=15000
pfiltergain=50
filtertype=peak
chokkakuvol=50
pfilterdelay=0
information=By MasakaWillKillMe
ver=140d
--
beat=4/4
0000|00|--
--
0000|00|--
--
0101|00|--
0000|00|--
0000|00|--
0101|00|--
--
0000|00|--
1010|00|--
--
0101|00|--
0000|00|--
0000|00|--
1010|00|--
--
0000|00|--
0000|00|--
0010|00|--
0100|00|--
--
1001|00|--
--
1001|00|--
--
0110|00|--
--
0101|00|--
--
0010|00|--
0000|00|--
0000|00|--
0010|00|--
0000|00|--
0000|00|--
0010|00|--
0000|00|--
--
0000|00|--
0100|00|--
0000|00|--
0000|00|--
0010|00|--
0000|00|--
0001|00|--
0000|00|--
--
0010|00|--
0000|00|--
0000|00|--
0010|00|--
0000|00|--
0000|00|--
0100|00|--
0000|00|--
--
0000|00|--
0010|00|--
0000|00|--
0000|00|--
0100|00|--
0000|00|--
1000|00|--
0000|00|--
--
0010|00|--
0000|00|--
0000|00|--
0001|00|--
0000|00|--
0000|00|--
0010|00|--
0000|00|--
--
0000|00|--
0100|00|--
0000|00|--
0000|00|--
0001|00|--
0000|00|--
1000|00|--
0000|00|--
--
0010|00|--
0000|00|--
0000|00|--
0100|00|--
0000|00|--
0000|00|--
0010|00|--
0000|00|--
--
0000|00|--
0001|00|--
0000|00|--
0000|00|--
1000|00|--
0000|00|--
0001|00|--
0000|00|--
--
0000|F0|--
0000|F0|--
--
0000|F0|--
0000|F0|--
0000|F0|--
0000|F0|--
0000|F0|--
0000|F0|--
0000|00|--
0000|00|--
--
0010|00|--
0100|00|--
0010|00|--
0001|00|--
--
1000|00|--
0100|00|--
0010|00|--
0100|00|--
--
1000|00|--
0010|00|--
0100|00|--
0010|00|--
--
1000|00|--
0001|00|--
0010|00|--
0100|00|--
--
1000|00|--
0010|00|--
0100|00|--
0010|00|--
--
1000|00|--
0001|00|--
0100|00|--
0010|00|--
--
1000|00|--
0010|00|--
0100|00|--
0001|00|--
--
0001|00|--
0010|00|--
0100|00|--
1000|00|--
--
0000|00|--
0000|00|--
0001|00|--
0100|00|--
0000|00|--
0000|00|--
1000|00|--
0000|00|--
--
0010|00|--
0000|00|--
0000|00|--
0001|00|--
0000|00|--
0000|00|--
0010|00|--
0000|00|--
--
1000|00|--
0000|00|--
0000|00|--
0001|00|--
0000|00|--
0000|00|--
0000|00|--
0000|00|--
--
0010|00|--
0000|00|--
0000|00|--
0100|00|--
0000|00|--
0000|00|--
0010|00|--
0000|00|--
--
0001|00|--
0000|00|--
0000|00|--
1000|00|--
0000|00|--
0000|00|--
0001|00|--
0000|00|--
--
0000|00|--
0100|00|--
0000|00|--
0010|00|--
0000|00|--
0000|00|--
1000|00|--
0000|00|--
--
0011|00|--
0000|00|--
0000|00|--
1100|00|--
0000|00|--
0000|00|--
0011|00|--
0000|00|--
--
0000|F0|--
0000|F0|--
0000|F0|--
0000|F0|--
0000|F0|--
0000|F0|--
0000|00|--
0000|00|--
--
0001|00|--
0010|00|--
0001|00|--
0010|00|--
--
1000|00|--
0010|00|--
0100|00|--
1000|00|--
--
0001|00|--
0010|00|--
0001|00|--
0010|00|--
--
0001|00|--
0000|00|--
0000|00|--
0010|00|--
0000|00|--
0000|00|--
0100|00|--
0000|00|--
1000|00|--
0000|00|--
0000|00|--
0000|00|--
0100|00|--
0000|00|--
0000|00|--
0000|00|--
--
0010|00|--
--
0000|0I|--
0000|0I|--
0000|T0|--
0000|T0|--
--
0000|0S|--
0000|0S|--
0000|I0|--
0000|I0|--
--
0000|0F|--
0000|0F|--
--
0000|00|0-
0000|00|:-
--
0000|00|:-
0000|00|:-
0000|00|o-
0000|00|:-
--
0000|00|0-
0000|00|:-
--
0000|00|o-
0000|00|:-
0000|00|0-
0000|00|:-
--
0000|00|o-
0000|00|:-
--
0000|00|:-
0000|00|:-
0000|00|0-
0000|00|:-
--
0000|00|o-
0000|00|:-
--
0000|00|0-
0000|00|:-
0000|00|o-
0000|00|:-
--
0000|00|0o
0000|00|-:
--
0000|00|-:
0000|00|-:
0000|00|-0
0000|00|-:
--
0000|00|-o
0000|00|-:
--
0000|00|-0
0000|00|-:
0000|00|-o
0000|00|--
--
0110|00|--
--
0110|00|--
0101|00|--
--
1001|00|--
--
0000|00|--
0000|00|--
0000|00|--
0000|00|--
0000|00|--
0000|00|--
0000|00|--
0000|00|--
0000|00|--
0000|00|--
0000|00|--
0000|00|--
0000|00|--
0000|00|--
0000|00|--
0000|00|--
0000|00|--
0000|00|--
0000|00|--
0000|00|--
0000|00|--
0000|00|--
0000|00|--
0000|00|--
0000|00|--
0000|00|--
0000|00|--
0000|00|--
0000|00|--
0000|00|--
0000|00|--
0000|00|--
0000|00|--
0000|00|--
0000|00|--
0000|00|--
0000|00|--
0000|00|--
0000|00|--
0000|00|--
0000|00|--
0000|00|--
0000|00|--
0000|00|--
0000|00|--
0000|00|--
0000|00|--
0000|00|--
0000|00|0-
0000|00|:-
0000|00|o-
0000|00|--
0000|00|--
0000|00|--
0000|00|--
0000|00|--
0000|00|--
0000|00|--
0000|00|--
0000|00|--
0000|00|--
0000|00|--
0000|00|--
0000|00|--
--
0001|00|--
0000|00|--
0001|00|--
0000|00|--
0000|S0|--
0000|S0|--
0000|S0|--
0000|S0|--
--
0010|00|--
0000|00|--
0010|00|--
0000|00|--
0000|S0|--
0000|S0|--
0000|S0|--
0000|S0|--
--
0001|00|--
0000|00|--
0001|00|--
0000|00|--
0000|T0|--
0000|T0|--
0000|T0|--
0000|T0|--
--
0001|00|--
0000|00|--
0001|00|--
0000|00|--
0000|I0|--
0000|I0|--
0000|I0|--
0000|I0|--
--
0000|01|--
0000|01|--
0000|00|--
0000|00|--
1000|00|--
0000|00|--
1000|00|--
0000|00|--
--
0000|0S|--
0000|0S|--
0000|0S|--
0000|0S|--
1000|00|--
0000|00|--
0100|00|--
0000|00|--
--
0100|00|--
0000|00|--
0010|00|--
0001|00|--
0000|00|--
0100|00|--
0000|00|--
0010|00|--
--
0000|00|--
0100|00|--
0000|00|--
1000|00|--
0000|00|--
0000|00|--
0000|00|--
0000|00|--
--
0000|00|0-
0000|00|:-
--
0000|00|o-
0000|00|:-
--
0000|00|0o
0000|00|-:
--
0000|00|-0
0000|00|-:
0000|00|-:
0000|00|-:
0000|00|-:
0000|00|-:
0000|00|-o
0000|00|--
--
1000|00|--
1000|00|--
0100|00|--
0010|00|--
--
0001|00|--
0001|00|--
0010|00|--
0100|00|--
--
1000|00|--
0100|00|--
0010|00|--
1000|00|--
--
0000|0F|--
0000|0F|--
0000|I0|--
0000|I0|--
--
0001|00|--
0000|00|--
--
0010|00|--
0100|00|--
--
0000|00|-o
0000|00|-:
--
0000|00|-:
--
0000|00|-0
0000|00|-:
0000|00|-o
0000|00|--
0000|00|--
0000|00|--
0000|00|--
0000|00|--
0000|00|--
0000|00|--
0000|00|--
0000|00|--
0000|00|--
0000|00|--
0000|00|--
0000|00|--
0000|00|--
0000|00|--
0000|00|--
0000|00|--
0000|00|--
0000|00|--
0000|00|--
0000|00|--
0000|00|--
0000|00|--
0000|00|--
0000|00|--
0000|00|--
0000|00|--
0000|00|--
0000|00|--
0000|00|--
0000|00|--
0000|00|--
0000|00|--
0000|00|--
0000|00|--
0000|00|--
0000|00|--
0000|00|--
0000|00|--
0000|00|--
0000|00|--
0000|00|--
0000|00|--
0000|00|--
0000|00|--
0000|00|--
0000|00|--
0000|00|--
0000|00|--
0000|00|--
0000|00|--
0000|00|--
0000|00|--
0000|00|--
0000|00|--
0000|00|--
0000|00|--
0000|00|--
0000|00|--
0000|00|--
0000|00|--
--
