title=VOLTEXES
artist=Sota Fujimori
effect=PHQUASE ver.I
jacket=icon.png
illustrator=M-TC
difficulty=extended
level=15
t=150
m=exh.ogg;exh.ogg
o=-1020
bg=cyber
layer=arrow
po=8500
plength=15000
pfiltergain=0
filtertype=fx;bitc
chokkakuvol=0
icon=../voltex03.png
ver=140d
--
beat=4/4
0000|00|--
--
0000|00|0-
0000|00|:-
0000|00|o-
0000|00|:-
0000|00|:-
0000|00|:-
0000|00|:-
0000|00|:-
0000|00|:-
0000|00|:-
0000|00|:-
0000|00|:-
0000|00|:-
0000|00|:-
0000|00|:-
0000|00|:-
0000|00|:-
0000|00|:-
0000|00|:-
0000|00|:-
0000|00|:-
0000|00|:-
0000|00|:-
0000|00|:-
0000|00|:-
0000|00|:-
0000|00|:-
0000|00|:-
0000|00|:-
0000|00|:-
0000|00|:-
0000|00|:-
0000|01|0-
0000|01|--
0000|01|--
0000|01|--
0000|01|--
0000|01|--
0000|01|--
0000|01|--
0000|01|--
0000|01|--
0000|01|--
0000|01|--
0000|10|--
0000|10|--
0000|10|--
0000|10|--
0000|10|--
0000|10|--
0000|10|--
0000|10|--
0000|10|--
0000|10|--
0000|10|--
0000|10|--
0000|01|--
0000|01|--
0000|01|--
0000|01|--
0000|01|--
0000|01|--
0000|01|--
0000|01|--
--
1001|00|--
0000|00|--
0000|00|--
0000|00|--
0010|00|--
0000|00|--
0000|00|--
0000|00|--
1010|00|--
0000|00|--
0000|00|--
0000|00|--
0000|00|--
0000|00|--
0010|00|--
0000|00|--
1000|00|--
0000|00|--
0010|00|--
0000|00|--
0000|00|--
0000|00|--
0010|00|--
0000|00|--
1010|00|--
0000|00|--
0000|00|--
0000|00|--
0010|00|--
0000|00|--
0010|00|--
0000|00|--
--
1100|00|--
0000|00|--
0000|00|--
0000|00|--
0010|00|--
0000|00|--
0000|00|--
0000|00|--
1010|00|--
0000|00|--
0000|00|--
0000|00|--
0000|00|--
0000|00|--
0010|00|--
0000|00|--
1000|01|--
0000|01|--
0000|01|--
0000|01|--
1000|01|--
0000|01|--
0000|01|--
0000|01|--
1000|00|--
0000|00|--
0010|00|--
0000|00|--
0000|00|--
0000|00|--
0100|00|--
0000|00|--
--
1000|00|--
0000|00|--
0000|00|--
0000|00|--
0010|00|--
0000|00|--
0000|00|--
0000|00|--
1000|01|--
0000|01|--
0100|01|--
0000|01|--
0010|01|--
0000|01|--
0001|01|--
0000|01|--
1000|00|--
0000|00|--
0010|00|--
0000|00|--
0000|00|--
0000|00|--
0100|00|--
0000|00|--
0000|01|--
0000|01|--
0000|01|--
0000|01|--
0000|01|--
0000|01|--
0000|01|--
0000|01|--
--
0001|10|--
0000|10|--
0010|10|--
0000|10|--
0001|10|--
0000|10|--
0010|10|--
0000|10|--
0001|10|--
0000|10|--
0010|10|--
0000|10|--
0001|10|--
0000|10|--
0010|10|--
0000|10|--
1000|01|--
0000|01|--
0100|01|--
0000|01|--
1000|01|--
0000|01|--
0100|01|--
0000|01|--
1000|01|--
0000|01|--
0100|01|--
0000|01|--
0000|11|--
0000|11|--
0000|11|--
0000|11|--
--
0101|00|--
0000|00|--
0010|00|--
0000|00|--
0000|00|--
0000|00|--
0010|00|--
0000|00|--
0100|00|--
0000|00|--
0010|00|--
0000|00|--
0001|00|--
0000|00|--
0010|00|--
0000|00|--
1001|00|--
0000|00|--
0000|00|--
0000|00|--
0001|00|--
0000|00|--
0010|00|--
0000|00|--
1000|00|--
0000|00|--
0100|00|--
0000|00|--
0000|00|--
0000|00|--
0001|00|--
0000|00|--
--
1100|00|--
0010|00|--
0000|00|--
0010|00|--
0100|00|--
0001|00|--
0100|00|--
0010|00|--
1000|00|--
0010|00|--
0000|00|--
0010|00|--
1100|00|--
0000|00|--
0001|00|--
0001|00|--
--
1000|00|--
0010|00|--
0000|00|--
0010|00|--
0100|00|--
0010|00|--
0000|00|--
0010|00|--
1001|00|--
0000|00|--
0100|00|--
0001|00|--
1000|00|--
0010|00|--
0000|00|--
0100|00|--
--
1000|00|--
0001|00|--
0010|00|--
0001|00|--
0100|00|--
0001|00|--
0010|00|--
0100|00|--
1000|00|--
0001|00|--
1000|00|--
0001|00|--
1000|00|--
0001|00|--
0100|00|--
0010|00|--
--
0001|10|--
0000|10|--
0000|10|--
0000|10|--
0001|10|--
0000|10|--
0000|10|--
0000|10|--
0001|10|--
0000|10|--
0000|10|--
0000|10|--
0001|10|--
0000|10|--
0000|10|--
0000|10|--
0010|00|--
0000|00|--
0100|00|--
0000|00|--
0010|00|--
0000|00|--
1000|00|--
0000|00|--
0100|00|--
0000|00|--
0010|00|--
0000|00|--
0100|00|--
0000|00|--
0001|00|--
0000|00|--
--
1000|01|--
0000|01|--
0000|01|--
0000|01|--
1000|01|--
0000|01|--
0000|01|--
0000|01|--
1000|01|--
0000|01|--
0000|01|--
0000|01|--
1000|01|--
0000|01|--
0000|01|--
0000|01|--
0100|00|--
0000|00|--
0010|00|--
0000|00|--
0100|00|--
0000|00|--
0001|00|--
0000|00|--
1000|00|--
0000|00|--
0000|00|--
0000|00|--
0100|00|--
0000|00|--
0100|00|--
0000|00|--
--
0000|01|--
0000|01|--
0000|01|--
0000|01|--
0000|01|--
0000|01|--
0000|01|--
0000|01|--
0000|10|--
0000|10|--
0000|10|--
0000|10|--
0000|10|--
0000|10|--
0000|10|--
0000|10|--
0010|00|--
0000|00|--
0100|00|--
0000|00|--
0001|00|--
0000|00|--
0010|00|--
0000|00|--
1000|00|--
0000|00|--
0010|00|--
0000|00|--
0100|00|--
0000|00|--
0001|00|--
0000|00|--
--
0000|10|--
0000|10|--
0000|10|--
0000|10|--
0000|10|--
0000|10|--
0000|10|--
0000|10|--
0000|10|--
0000|10|--
0000|10|--
0000|10|--
0000|10|--
0000|10|--
0000|10|--
0000|10|--
0000|01|--
0000|01|--
0000|01|--
0000|01|--
0000|01|--
0000|01|--
0000|01|--
0000|01|--
0000|01|--
0000|01|--
0000|01|--
0000|01|--
0000|01|--
0000|01|--
0000|01|--
0000|01|--
0001|00|0-
0000|00|:-
0000|00|o-
0000|00|--
0000|00|--
0000|00|--
0000|00|--
0000|00|--
0000|00|--
0000|00|--
0000|00|--
0000|00|--
1000|00|-o
0000|00|-:
0000|00|-0
0000|00|--
0000|00|--
0000|00|--
0000|00|--
0000|00|--
0000|00|--
0000|00|--
0000|00|--
0000|00|--
0100|00|--
0000|00|--
0000|00|--
0000|00|--
0010|00|--
0000|00|--
0000|00|--
0000|00|--
--
0001|00|0-@)96
0000|00|:-
0000|00|o-
0000|00|--
0000|00|--
0000|00|--
0000|00|--
0000|00|--
0000|00|--
0000|00|--
0000|00|--
0000|00|--
0000|00|--
0000|00|--
0000|00|--
0000|00|--
0000|00|--
0000|00|--
0000|00|--
0000|00|--
0000|00|--
0000|00|--
0000|00|--
0000|00|--
0000|00|--
0000|00|--
0000|00|--
0000|00|--
0000|00|--
0000|00|--
0000|00|--
0000|00|--
0000|00|--
0000|00|--
0000|00|--
0000|00|--
0000|00|--
0000|00|--
0000|00|--
0000|00|--
0000|00|--
0000|00|--
0000|00|--
0000|00|--
0000|00|--
0000|00|--
0000|00|--
0000|00|--
0000|00|--
0000|00|--
0000|00|--
0000|00|--
0000|00|--
0000|00|--
0000|00|--
0000|00|--
0000|00|--
0000|00|--
0000|00|--
0000|00|--
0000|00|--
0000|00|--
0000|00|--
0000|00|--
--
0000|10|-o
0000|10|-:
0000|10|-:
0000|10|-:
0000|10|-:
0000|10|-:
0000|10|-:
0000|10|-:
0000|10|-:
0000|10|-:
0000|10|-:
0000|10|-:
0000|10|-:
0000|10|-:
0000|10|-:
0000|10|-:
0000|01|-:
0000|01|-:
0000|01|-:
0000|01|-:
0000|01|-:
0000|01|-:
0000|01|-:
0000|01|-:
0000|01|-:
0000|01|-:
0000|01|-:
0000|01|-:
0000|01|-:
0000|01|-:
0000|01|-:
0000|01|-:
0000|10|-0
0000|10|-:
0000|10|-:
0000|10|-:
0000|10|-:
0000|10|-:
0000|10|-:
0000|10|-:
0000|10|-:
0000|10|-:
0000|10|-:
0000|10|-:
0000|10|-:
0000|10|-:
0000|10|-:
0000|10|-:
0000|00|-0
0000|00|-:
0000|00|-o
0000|00|--
0000|00|--
0000|00|--
0000|00|--
0000|00|--
0000|00|--
0000|00|--
0000|00|--
0000|00|--
0000|00|--
0000|00|--
0000|00|--
0000|00|--
--
0010|00|--
0000|00|--
0000|00|--
0000|00|--
0000|00|--
0000|00|--
0000|00|--
0000|00|--
0100|00|--
0000|00|--
0000|00|--
0000|00|--
0000|00|--
0000|00|--
0000|00|--
0000|00|--
0010|00|0-
0000|00|:-
0000|00|o-
0000|00|--
0000|00|--
0000|00|--
0000|00|--
0000|00|--
0001|00|--
0000|00|--
0000|00|--
0000|00|--
0000|00|--
0000|00|--
0000|00|--
0000|00|--
0000|00|--
0000|00|--
0000|00|--
0000|00|--
0000|00|--
0000|00|--
0000|00|--
0000|00|--
0000|00|--
0000|00|--
0000|00|--
0000|00|--
0000|00|--
0000|00|--
0000|00|--
0000|00|--
0000|00|0-
0000|00|:-
0000|00|o-
0000|00|--
0000|00|--
0000|00|--
0000|00|--
0000|00|--
0110|00|--
0000|00|--
0000|00|--
0000|00|--
0000|00|--
0000|00|--
0000|00|--
0000|00|--
--
0000|00|--
0000|00|--
0000|00|--
0000|00|--
0000|00|--
0000|00|--
0000|00|--
0000|00|--
0000|00|--
0000|00|--
0000|00|--
0000|00|--
0000|00|--
0000|00|--
0000|00|--
0000|00|--
0000|00|0o
0000|00|::
0000|00|o:
0000|00|-:
0000|00|-:
0000|00|-:
0000|00|-:
0000|00|-:
0000|00|-:
0000|00|-:
0000|00|-:
0000|00|-:
0000|00|-:
0000|00|-:
0000|00|-:
0000|00|-:
0000|10|-:
0000|10|-:
0000|10|-:
0000|10|-:
0000|10|-:
0000|10|-:
0000|10|-:
0000|10|-:
0000|10|-:
0000|10|-:
0000|10|-:
0000|10|-:
0000|10|-:
0000|10|-:
0000|10|-:
0000|10|-:
1000|00|-0
0000|00|-:
0000|00|-o
0000|00|--
0000|00|--
0000|00|--
0000|00|--
0000|00|--
0100|00|--
0000|00|--
0000|00|--
0000|00|--
0000|00|--
0000|00|--
0000|00|--
0000|00|--
--
1000|00|--
0000|00|--
0000|00|--
0000|00|--
0000|00|--
0000|00|--
0000|00|--
0000|00|--
0000|00|--
0000|00|--
0000|00|--
0000|00|--
0000|00|--
0000|00|--
0000|00|--
0000|00|--
0000|00|-o
0000|00|-:
0000|00|-0
0000|00|--
0000|00|--
0000|00|--
0000|00|--
0000|00|--
0010|00|--
0000|00|--
0000|00|--
0000|00|--
0000|00|--
0000|00|--
0000|00|--
0000|00|--
0000|00|--
0000|00|--
0000|00|--
0000|00|--
0000|00|--
0000|00|--
0000|00|--
0000|00|--
0000|00|--
0000|00|--
0000|00|--
0000|00|--
0000|00|--
0000|00|--
0000|00|--
0000|00|--
0100|00|-o
0000|00|-:
0000|00|-0
0000|00|--
0000|00|--
0000|00|--
0000|00|--
0000|00|--
0000|00|--
0000|00|--
0000|00|--
0000|00|--
0000|00|--
0000|00|--
0000|00|--
0000|00|--
--
0000|10|--
0000|10|--
0000|10|--
0000|10|--
0000|10|--
0000|10|--
0000|10|--
0000|10|--
0000|10|--
0000|10|--
0000|10|--
0000|10|--
0000|10|--
0000|10|--
0000|10|--
0000|10|--
0000|00|-o
0000|00|-:
0000|00|-0
0000|00|--
0000|00|--
0000|00|--
0000|00|--
0000|00|--
0000|00|--
0000|00|--
0000|00|--
0000|00|--
0000|00|--
0000|00|--
0000|00|--
0000|00|--
0000|01|--
0000|01|--
0000|01|--
0000|01|--
0000|01|--
0000|01|--
0000|01|--
0000|01|--
0010|01|--
0000|01|--
0000|01|--
0000|01|--
0000|01|--
0000|01|--
0000|01|--
0000|01|--
0000|10|--
0000|10|--
0000|10|--
0000|10|--
0000|10|--
0000|10|--
0000|10|--
0000|10|--
0100|10|--
0000|10|--
0000|10|--
0000|10|--
0000|10|--
0000|10|--
0000|10|--
0000|10|--
--
1000|00|--
0000|00|--
0000|00|--
0000|00|--
0000|00|--
0000|00|--
0000|00|--
0000|00|--
0100|00|--
0000|00|--
0000|00|--
0000|00|--
0000|00|--
0000|00|--
0000|00|--
0000|00|--
1000|00|-o
0000|00|-:
0000|00|-0
0000|00|--
0000|00|--
0000|00|--
0000|00|--
0000|00|--
0010|00|--
0000|00|--
0000|00|--
0000|00|--
0000|00|--
0000|00|--
0000|00|--
0000|00|--
0000|00|--
0000|00|--
0000|00|--
0000|00|--
0000|00|--
0000|00|--
0000|00|--
0000|00|--
0000|00|--
0000|00|--
0000|00|--
0000|00|--
0000|00|--
0000|00|--
0000|00|--
0000|00|--
1000|00|-o
0000|00|-:
0000|00|-0
0000|00|--
0000|00|--
0000|00|--
0000|00|--
0000|00|--
0100|00|--
0000|00|--
0000|00|--
0000|00|--
0000|00|--
0000|00|--
0000|00|--
0000|00|--
--
0000|00|--
0000|00|--
0000|00|--
0000|00|--
0000|00|--
0000|00|--
0000|00|--
0000|00|--
0000|00|--
0000|00|--
0000|00|--
0000|00|--
0000|00|--
0000|00|--
0000|00|--
0000|00|--
0000|00|0o
0000|00|::
0000|00|:0
0000|00|:-
0000|00|:-
0000|00|:-
0000|00|:-
0000|00|:-
0000|00|:-
0000|00|:-
0000|00|:-
0000|00|:-
0000|00|:-
0000|00|:-
0000|00|:-
0000|00|:-
0000|01|:-
0000|01|:-
0000|01|:-
0000|01|:-
0000|01|:-
0000|01|:-
0000|01|:-
0000|01|:-
0000|01|:-
0000|01|:-
0000|01|:-
0000|01|:-
0000|01|:-
0000|01|:-
0000|01|:-
0000|01|:-
0010|00|o-
0000|00|:-
0000|00|0-
0000|00|--
0000|00|--
0000|00|--
0000|00|--
0000|00|--
0001|00|--
0000|00|--
0000|00|--
0000|00|--
0000|00|--
0000|00|--
0000|00|--
0000|00|--
--
0010|00|--
0000|00|--
0000|00|--
0000|00|--
0000|00|--
0000|00|--
0000|00|--
0000|00|--
0000|00|--
0000|00|--
0000|00|--
0000|00|--
0000|00|--
0000|00|--
0000|00|--
0000|00|--
0000|00|0-
0000|00|:-
0000|00|o-
0000|00|--
0000|00|--
0000|00|--
0000|00|--
0000|00|--
0100|00|--
0000|00|--
0000|00|--
0000|00|--
0000|00|--
0000|00|--
0000|00|--
0000|00|--
0000|00|--
0000|00|--
0000|00|--
0000|00|--
0000|00|--
0000|00|--
0000|00|--
0000|00|--
0000|00|--
0000|00|--
0000|00|--
0000|00|--
0000|00|--
0000|00|--
0000|00|--
0000|00|--
0001|00|0-
0000|00|:-
0000|00|o-
0000|00|--
0000|00|--
0000|00|--
0000|00|--
0000|00|--
0000|00|--
0000|00|--
0000|00|--
0000|00|--
0000|00|--
0000|00|--
0000|00|--
0000|00|--
--
0000|01|--
0000|01|--
0000|01|--
0000|01|--
0000|01|--
0000|01|--
0000|01|--
0000|01|--
0000|01|--
0000|01|--
0000|01|--
0000|01|--
0000|01|--
0000|01|--
0000|01|--
0000|01|--
0000|00|0-
0000|00|:-
0000|00|o-
0000|00|--
0000|00|--
0000|00|--
0000|00|--
0000|00|--
0000|00|--
0000|00|--
0000|00|--
0000|00|--
0000|00|--
0000|00|--
0000|00|--
0000|00|--
0000|00|--
0000|00|--
0000|00|--
0000|00|--
0000|00|--
0000|00|--
0000|00|--
0000|00|--
0101|00|--
0000|00|--
0000|00|--
0000|00|--
0000|00|--
0000|00|--
0000|00|--
0000|00|--
0000|00|--
0000|00|--
0000|00|--
0000|00|--
0000|00|--
0000|00|--
0000|00|--
0000|00|--
1010|00|--
0000|00|--
0000|00|--
0000|00|--
0000|00|--
0000|00|--
0000|00|--
0000|00|--
--
0100|00|-o
0000|00|-:
1000|00|-:
0000|00|-:
0100|00|-:
0000|00|-:
0010|00|-F
0000|00|-:
0000|00|-:
0000|00|-:
0000|00|-:
0000|00|-:
0000|00|-Z
0000|00|-:
1000|00|-Z
0000|00|-:
--
0000|00|-:
0000|00|-:
0000|00|-:
0000|00|-:
0000|00|-A
0000|00|-:
0000|00|-:
0000|00|-:
0000|10|-o
0000|10|-:
0000|10|-:
0000|10|-:
0100|00|-A
0000|00|-:
1000|00|-:
0000|00|-:
--
0100|00|-A
0000|00|-:
0000|00|-:
0000|00|-:
0000|00|-:
0000|00|-:
0010|00|-e
0000|00|-:
0000|00|-:
0000|00|-:
0000|00|-:
0000|00|-:
1000|00|-0
0000|00|-:
0000|00|-:
0000|00|-:
--
0000|10|-0
0000|10|-:
0000|10|-:
0000|10|-:
0000|10|-:
0000|10|-:
0000|00|-o
0000|00|--
0100|00|--
0000|00|--
0001|01|--
0000|01|--
1000|00|--
0000|00|--
0010|01|--
0000|01|--
--
0001|00|0-
0000|00|:-
0010|00|:-
0000|00|:-
0001|00|:-
0000|00|:-
0100|00|Z-
0000|00|:-
0000|00|:-
0000|00|:-
0000|00|:-
0000|00|:-
0100|00|F-
0000|00|:-
0010|00|F-
0000|00|:-
--
0000|00|:-
0000|00|:-
0000|00|:-
0000|00|:-
0000|10|:-
0000|10|:-
0000|10|:-
0000|10|:-
0000|01|o-
0000|01|:-
0000|01|:-
0000|01|:-
1010|00|:-
0000|00|:-
0101|00|:-
0000|00|:-
--
0010|10|:-
0000|10|:-
0000|10|:-
0000|10|:-
0000|10|:-
0000|10|:-
0100|01|:-
0000|01|:-
0000|01|:-
0000|01|:-
0000|01|:-
0000|01|:-
1001|00|:-
0000|00|:-
0000|00|:-
0000|00|:-
--
0000|01|o-
0000|01|:-
0000|01|:-
0000|01|:-
0000|01|:-
0000|01|:-
0000|01|:-
0000|01|:-
0000|00|0-
0000|00|--
0111|00|--
0000|00|--
0000|00|--
0000|00|--
1110|00|--
0000|00|--
--
0000|00|-o@(96
0000|00|-:
0000|00|-0
0000|00|--
0000|00|--
0000|00|--
0000|00|--
0000|00|--
0000|00|--
0000|00|--
0000|00|--
0000|00|--
0000|00|--
0000|00|--
0000|00|--
0000|00|--
0000|00|--
0000|00|--
0000|00|--
0000|00|--
0000|00|--
0000|00|--
0000|00|--
0000|00|--
0000|00|--
0000|00|--
0000|00|--
0000|00|--
0000|00|--
0000|00|--
0000|00|--
0000|00|--
0000|00|--
0000|00|--
0000|00|--
0000|00|--
0000|00|--
0000|00|--
0000|00|--
0000|00|--
0000|00|--
0000|00|--
0000|00|--
0000|00|--
0000|00|--
0000|00|--
0000|00|--
0000|00|--
0000|00|--
0000|00|--
0000|00|--
0000|00|--
0000|00|--
0000|00|--
0000|00|--
0000|00|--
0000|00|--
0000|00|--
0000|00|--
0000|00|--
0000|00|--
0000|00|--
0000|00|--
0000|00|--
--
0000|00|0o
0000|00|::
0000|00|KU
0000|00|::
0000|00|0o
0000|00|::
0000|00|::
0000|00|::
--
0000|00|o0
0000|00|:-
0000|00|0-
0000|00|--
0000|00|--
0000|00|--
0000|00|--
0000|00|--
0000|00|--
0000|00|--
0000|00|--
0000|00|--
0000|00|--
0000|00|--
0000|00|--
0000|00|--
0001|00|--
0000|00|--
0000|00|--
0000|00|--
0010|00|--
0000|00|--
0000|00|--
0000|00|--
0100|00|--
0000|00|--
0000|00|--
0000|00|--
1000|00|--
0000|00|--
0000|00|--
0000|00|--
0001|10|--
0000|10|--
0000|10|--
0000|10|--
0000|10|--
0000|10|--
0000|10|--
0000|10|--
0000|10|--
0000|10|--
0000|10|--
0000|10|--
0000|10|--
0000|10|--
0000|10|--
0000|10|--
0000|10|-o
0000|10|-:
0000|10|-:
0000|10|-:
0000|10|-:
0000|10|-:
0000|10|-:
0000|10|-:
0000|10|-:
0000|10|-:
0000|10|-:
0000|10|-:
0000|10|-:
0000|10|-:
0000|10|-:
0000|10|-:
--
0000|00|-0
0000|00|-:
0000|00|-o
0000|00|--
0000|00|--
0000|00|--
0000|00|--
0000|00|--
0000|00|--
0000|00|--
0000|00|--
0000|00|--
0000|00|--
0000|00|--
0000|00|--
0000|00|--
1000|00|--
0000|00|--
0000|00|--
0000|00|--
0100|00|--
0000|00|--
0000|00|--
0000|00|--
0010|00|--
0000|00|--
0000|00|--
0000|00|--
0001|00|--
0000|00|--
0000|00|--
0000|00|--
1000|01|--
0000|01|--
0000|01|--
0000|01|--
0000|01|--
0000|01|--
0000|01|--
0000|01|--
0000|01|--
0000|01|--
0000|01|--
0000|01|--
0000|01|--
0000|01|--
0000|01|--
0000|01|--
0000|01|0-
0000|01|:-
0000|01|:-
0000|01|:-
0000|01|:-
0000|01|:-
0000|01|:-
0000|01|:-
0000|01|:-
0000|01|:-
0000|01|:-
0000|01|:-
0000|01|:-
0000|01|:-
0000|01|:-
0000|01|:-
--
0001|00|o-
0000|00|:-
0000|00|0-
0000|00|--
0010|00|--
0000|00|--
0000|00|--
0000|00|--
0001|00|--
0000|00|--
0000|00|--
0000|00|--
1000|00|--
0000|00|--
0000|00|--
0000|00|--
0000|00|--
0000|00|--
0000|00|--
0000|00|--
0100|00|--
0000|00|--
0000|00|--
0000|00|--
0010|00|--
0000|00|--
0000|00|--
0000|00|--
0000|00|--
0000|00|--
0000|00|--
0000|00|--
1000|00|--
0000|00|--
0000|00|--
0000|00|--
0001|00|--
0000|00|--
0000|00|--
0000|00|--
1000|00|--
0000|00|--
0000|00|--
0000|00|--
0010|00|--
0000|00|--
0000|00|--
0000|00|--
0000|00|--
0000|00|--
0000|00|--
0000|00|--
0100|00|--
0000|00|--
0000|00|--
0000|00|--
0000|00|--
0000|00|--
0000|00|--
0000|00|--
1000|00|--
0000|00|--
0000|00|--
0000|00|--
--
0000|00|--
0010|00|--
0100|00|--
1000|00|--
0000|00|--
0001|00|--
0100|00|--
0000|00|--
0010|00|--
1000|00|--
0100|00|--
0001|00|--
0000|00|--
0010|00|--
0000|00|--
0100|00|--
--
0000|00|-o
0000|00|-:
0000|00|-:
0000|00|-:
0000|00|-:
0000|00|-:
0000|00|-:
0000|00|-:
1000|00|-0
0000|00|--
0100|00|--
0000|00|--
0010|00|--
0000|00|--
0001|00|--
0000|00|--
0000|10|--
0000|10|--
0000|10|--
0000|10|--
0000|01|--
0000|01|--
0000|01|--
0000|01|--
0000|10|--
0000|10|--
0000|10|--
0000|10|--
0000|01|--
0000|01|--
0000|01|--
0000|01|--
--
0000|00|0-
0000|00|:-
0000|00|:-
0000|00|:-
0000|00|:-
0000|00|:-
0000|00|:-
0000|00|:-
0001|00|o-
0000|00|--
0010|00|--
0000|00|--
0100|00|--
0000|00|--
1000|00|--
0000|00|--
0000|10|--
0000|10|--
0000|10|--
0000|10|--
0101|00|--
0000|00|--
0000|00|--
0000|00|--
1010|00|--
0000|00|--
0000|00|--
0000|00|--
0000|01|--
0000|01|--
0000|01|--
0000|01|--
--
1100|00|--
0000|00|--
0010|00|--
0000|00|--
0001|00|--
0000|00|--
1000|00|--
0000|00|--
0000|00|--
0000|00|--
0010|00|--
0000|00|--
0100|00|--
0000|00|--
0000|00|--
0000|00|--
1000|00|--
0000|00|--
0010|00|--
0000|00|--
0100|00|--
0000|00|--
0001|00|--
0000|00|--
0000|00|--
0000|00|--
1000|00|--
0000|00|--
1000|00|--
0000|00|--
0001|00|--
0000|00|--
--
0000|00|--
0010|00|--
0100|00|--
1000|00|--
0000|00|--
0001|00|--
0100|00|--
0000|00|--
0010|00|--
1000|00|--
0010|00|--
0001|00|--
0000|00|--
0010|00|--
0010|00|--
0100|00|--
--
0000|00|-o
0000|00|-:
0000|00|-0
0000|00|-:
0000|00|-:
0000|00|-:
0000|00|-:
0000|00|-:
0000|00|-:
0000|00|-:
0000|00|-:
0000|00|-:
0000|00|-:
0000|00|-:
0000|00|-:
0000|00|-:
0100|00|-:
0000|00|-:
0000|00|-:
0000|00|-:
1010|00|-:
0000|00|-:
0000|00|-:
0000|00|-:
0101|00|-:
0000|00|-:
0000|00|-:
0000|00|-:
0010|00|-:
0000|00|-:
0000|00|-:
0000|00|-:
0000|00|0:
0000|00|::
0000|00|::
0000|00|::
0000|00|::
0000|00|::
0000|00|::
0000|00|::
0000|00|::
0000|00|::
0000|00|::
0000|00|::
0000|00|::
0000|00|::
0000|00|::
0000|00|::
0000|00|o0
0000|00|-:
0000|00|-:
0000|00|-:
0000|00|-:
0000|00|-:
0000|00|-:
0000|00|-:
0000|00|-:
0000|00|-:
0000|00|-:
0000|00|-:
0000|00|-:
0000|00|-:
0000|00|-:
0000|00|-:
--
0000|00|0o
0000|00|:-
0000|00|o-
0000|00|:-
0000|00|:-
0000|00|:-
0000|00|:-
0000|00|:-
0000|00|:-
0000|00|:-
0000|00|:-
0000|00|:-
0000|00|:-
0000|00|:-
0000|00|:-
0000|00|:-
0010|00|:-
0000|00|:-
0000|00|:-
0000|00|:-
0101|00|:-
0000|00|:-
0000|00|:-
0000|00|:-
1010|00|:-
0000|00|:-
0000|00|:-
0000|00|:-
0100|00|:-
0000|00|:-
0000|00|:-
0000|00|:-
0000|00|:o
0000|00|::
0000|00|::
0000|00|::
0000|00|::
0000|00|::
0000|00|::
0000|00|::
0000|00|::
0000|00|::
0000|00|::
0000|00|::
0000|00|::
0000|00|::
0000|00|::
0000|00|::
0000|00|o0
0000|00|:-
0000|00|:-
0000|00|:-
0000|00|:-
0000|00|:-
0000|00|:-
0000|00|:-
0000|00|:-
0000|00|:-
0000|00|:-
0000|00|:-
0000|00|:-
0000|00|:-
0000|00|:-
0000|00|:-
--
0001|01|0-
0000|01|--
0000|01|--
0000|01|--
0100|01|--
0000|01|--
0010|01|--
0000|01|--
0000|01|--
0000|01|--
1000|01|--
0000|01|--
0000|01|--
0000|01|--
0010|01|--
0000|01|--
0000|01|--
0000|01|--
0001|01|--
0000|01|--
0000|01|--
0000|01|--
1000|01|--
0000|01|--
0010|01|--
0000|01|--
0100|01|--
0000|01|--
1000|01|--
0000|01|--
0000|01|--
0000|01|--
--
0001|01|--
0000|01|--
0100|01|--
0010|01|--
0000|01|--
1000|01|--
0001|01|--
0010|01|--
0000|01|--
1000|01|--
0000|01|--
0010|01|--
0100|01|--
0000|01|--
0010|01|--
0000|01|--
--
0000|00|0-
0000|00|:-
0000|00|o-
0000|00|--
0000|00|--
0000|00|--
0000|00|--
0000|00|--
0000|00|--
0000|00|--
0000|00|--
0000|00|--
0000|00|--
0000|00|--
0000|00|--
0000|00|--
0010|00|--
0000|00|--
0000|00|--
0000|00|--
0101|00|--
0000|00|--
0000|00|--
0000|00|--
1010|00|--
0000|00|--
0000|00|--
0000|00|--
0100|00|--
0000|00|--
0000|00|--
0000|00|--
0000|01|--
0000|01|--
0000|01|--
0000|01|--
0000|01|--
0000|01|--
0000|01|--
0000|01|--
0000|10|--
0000|10|--
0000|10|--
0000|10|--
0000|10|--
0000|10|--
0000|10|--
0000|10|--
0000|01|--
0000|01|--
0000|01|--
0000|01|--
0000|01|--
0000|01|--
0000|01|--
0000|01|--
0000|10|--
0000|10|--
0000|10|--
0000|10|--
0000|10|--
0000|10|--
0000|10|--
0000|10|--
--
0000|00|-o
0000|00|-:
0000|00|-0
0000|00|--
0000|00|--
0000|00|--
0000|00|--
0000|00|--
0000|00|--
0000|00|--
0000|00|--
0000|00|--
0000|00|--
0000|00|--
0000|00|--
0000|00|--
0100|00|--
0000|00|--
0000|00|--
0000|00|--
1010|00|--
0000|00|--
0000|00|--
0000|00|--
0101|00|--
0000|00|--
0000|00|--
0000|00|--
0010|00|--
0000|00|--
0000|00|--
0000|00|--
0000|10|--
0000|10|--
0000|10|--
0000|10|--
0000|10|--
0000|10|--
0000|10|--
0000|10|--
0101|00|--
0000|00|--
0000|00|--
0000|00|--
0000|00|--
0000|00|--
0000|00|--
0000|00|--
1010|00|--
0000|00|--
0000|00|--
0000|00|--
0000|00|--
0000|00|--
0000|00|--
0000|00|--
0000|01|--
0000|01|--
0000|01|--
0000|01|--
0000|01|--
0000|01|--
0000|01|--
0000|01|--
--
0001|10|--
0000|10|--
0000|10|--
0000|10|--
0100|10|--
0000|10|--
0010|10|--
0000|10|--
0000|10|--
0000|10|--
0100|10|--
0000|10|--
0000|10|--
0000|10|--
1000|10|--
0000|10|--
0000|10|--
0000|10|--
0001|10|--
0000|10|--
0000|10|--
0000|10|--
0100|10|--
0000|10|--
0010|10|--
0000|10|--
0100|10|--
0000|10|--
0001|10|--
0000|10|--
0000|10|--
0000|10|--
--
1100|00|-o
0000|00|-:
0000|00|-0
0000|00|-:
0000|00|-:
0000|00|-:
0000|00|-:
0000|00|-:
0000|00|-:
0000|00|-:
0000|00|-:
0000|00|-:
1100|00|-0
0000|00|-:
0000|00|-o
0000|00|-:
0000|00|-:
0000|00|-:
0000|00|-:
0000|00|-:
0000|00|-:
0000|00|-:
0000|00|-:
0000|00|-:
0000|10|-o
0000|10|-:
0000|10|-0
0000|10|--
0000|10|--
0000|10|--
0000|10|--
0000|10|--
0000|10|--
0000|10|--
0000|10|--
0000|10|--
0000|10|--
0000|10|--
0000|10|--
0000|10|--
0000|01|--
0000|01|--
0000|01|--
0000|01|--
0000|01|--
0000|01|--
0000|01|--
0000|01|--
0000|00|0-
0000|00|:-
0000|00|o-
0000|00|:-
0000|00|:-
0000|00|:-
0000|00|:-
0000|00|:-
0000|00|:o
0000|00|::
0000|00|:0
0000|00|::
0000|00|::
0000|00|::
0000|00|::
0000|00|::
--
0000|00|::
0000|00|::
0000|00|::
0000|00|::
0000|00|::
0000|00|::
0000|00|::
0000|00|::
0000|00|o0
0000|00|::
0000|00|::
0000|00|::
0000|00|::
0000|00|::
0000|00|0o
0000|00|-:
--
0000|10|-o
0000|10|-:
0000|10|-:
0000|10|-:
0000|10|-U
0000|10|-:
0000|10|-:
0000|10|-:
0000|10|-K
0000|10|-:
0000|10|-:
0000|10|-:
0000|10|-:
0000|10|-:
0000|10|-:
0000|10|-:
0000|01|-A
0000|01|-:
0000|01|-:
0000|01|-:
0000|01|-:
0000|01|-:
0000|01|-:
0000|01|-:
0000|01|-:
0000|01|-:
0000|01|-:
0000|01|-:
0000|01|-:
0000|01|-:
0000|01|-:
0000|01|-:
0110|00|-0
0000|00|-:
0000|00|-o
0000|00|--
0000|00|--
0000|00|--
0000|00|--
0000|00|--
0000|00|--
0000|00|--
0000|00|--
0000|00|--
0000|00|--
0000|00|--
0000|00|--
0000|00|--
0000|00|--
0000|00|--
0000|00|--
0000|00|--
0000|00|--
0000|00|--
0000|00|--
0000|00|--
0010|00|0-
0000|00|:-
0000|00|:-
0000|00|:-
0100|00|:-
0000|00|:-
0000|00|:-
0000|00|:-
--
0000|00|:-
0000|00|:-
0000|00|:-
0000|00|:-
0100|00|:-
0000|00|:-
0000|00|:-
0000|00|:-
0000|00|:-
0000|00|:-
0000|00|:-
0000|00|:-
0000|00|:-
0000|00|:-
0000|00|:-
0000|00|:-
0010|00|:-
0000|00|:-
0000|00|:-
0000|00|:-
0000|00|:-
0000|00|:-
0000|00|:-
0000|00|:-
0100|00|:-
0000|00|:-
0000|00|:-
0000|00|:-
0000|00|:-
0000|00|:-
0000|00|:-
0000|00|:-
0000|11|o-
0000|11|:-
0000|11|0-
0000|11|--
0000|11|--
0000|11|--
0000|11|--
0000|11|--
0000|11|--
0000|11|--
0000|11|--
0000|11|--
0000|11|--
0000|11|--
0000|11|--
0000|11|--
0000|11|--
0000|11|--
0000|11|--
0000|11|--
0000|11|--
0000|11|--
0000|11|--
0000|11|--
0000|11|--
0000|11|--
0000|11|--
0000|11|--
0000|11|--
0000|11|--
0000|11|--
0000|11|--
--
0010|00|--
0000|00|--
0000|00|--
0000|00|--
0000|00|--
0000|00|--
0000|00|--
0000|00|--
0010|00|--
0000|00|--
0000|00|--
0000|00|--
0000|00|--
0000|00|--
0000|00|--
0000|00|--
0100|00|--
0000|00|--
0000|00|--
0000|00|--
0010|00|--
0000|00|--
0000|00|--
0000|00|--
0000|00|--
0000|00|--
0000|00|--
0000|00|--
0000|00|--
0000|00|--
0000|00|--
0000|00|--
1000|01|--
0000|01|--
0000|01|--
0000|01|--
0100|01|--
0000|01|--
0000|01|--
0000|01|--
1000|01|--
0000|01|--
0000|01|--
0000|01|--
0100|01|--
0000|01|--
0000|01|--
0000|01|--
0000|00|--
0000|00|--
0000|00|--
0000|00|--
0000|00|--
0000|00|--
0000|00|--
0000|00|--
0011|00|0-
0000|00|:-
0000|00|o-
0000|00|:-
0000|00|:-
0000|00|:-
0000|00|:-
0000|00|:-
--
0000|00|o-
0000|00|:-
0000|00|:-
0000|00|:-
0000|00|:-
0000|00|:-
0000|00|:-
0000|00|:-
1100|00|:o
0000|00|::
0000|00|:0
0000|00|:-
0000|00|:-
0000|00|:-
0000|00|:-
0000|00|:-
0000|00|:-
0000|00|:-
0000|00|:-
0000|00|:-
0000|00|:-
0000|00|:-
0000|00|:-
0000|00|:-
0000|00|:-
0000|00|:-
0000|00|:-
0000|00|:-
0000|00|:-
0000|00|:-
0000|00|:-
0000|00|:-
0000|01|o-
0000|01|:-
0000|01|:-
0000|01|:-
0000|01|:-
0000|01|:-
0000|01|:-
0000|01|:-
0000|01|:-
0000|01|:-
0000|01|:-
0000|01|:-
0000|01|:-
0000|01|:-
0000|01|:-
0000|01|:-
0000|10|:-
0000|10|:-
0000|10|:-
0000|10|:-
0000|10|:-
0000|10|:-
0000|10|:-
0000|10|:-
0000|10|:-
0000|10|:-
0000|10|:-
0000|10|:-
0000|10|:-
0000|10|:-
0000|10|:-
0000|10|:-
--
0000|00|0-
0000|00|:-
1000|00|:-
0000|00|:-
0000|00|:-
0000|00|:-
1000|00|:-
0000|00|:-
0000|00|:-
0000|00|:-
0100|00|:-
0000|00|:-
0000|00|:-
0000|00|:-
0010|00|:-
0000|00|:-
--
0000|00|:-
0000|00|:-
0001|00|o-
0000|00|:-
0000|00|:-
0000|00|:-
0010|00|:-
0000|00|:-
0000|00|:-
0000|00|:-
0010|00|:-
0000|00|:-
0000|00|:-
0000|00|:-
0100|00|0-
0000|00|--
--
0000|00|--
0000|00|--
1000|00|-o
0000|00|-:
0000|00|-:
0000|00|-:
1000|00|-:
0000|00|-:
0000|00|-:
0000|00|-:
0100|00|-:
0000|00|-:
0000|00|-:
0000|00|-:
1000|00|-:
0000|00|-:
--
0000|00|-:
0000|00|-:
0010|00|-0
0000|00|-:
0000|00|-:
0000|00|-:
0100|00|-:
0000|00|-:
0000|00|-:
0000|00|-:
0100|00|-:
0000|00|-:
0000|00|-:
0000|00|-:
1000|00|-:
0000|00|-:
--
0000|10|-o
0000|10|-:
0000|10|-U
0000|10|-:
0000|10|-:
0000|10|-:
0000|10|-:
0000|10|-:
0000|10|-:
0000|10|-:
0000|10|-:
0000|10|-:
0000|10|-:
0000|10|-:
0000|10|-:
0000|10|-:
0000|10|-U
0000|10|-:
0000|10|-K
0000|10|-:
0000|10|-:
0000|10|-:
0000|10|-:
0000|10|-:
0000|10|-:
0000|10|-:
0000|10|-:
0000|10|-:
0000|10|-:
0000|10|-:
0000|10|-:
0000|10|-:
0000|10|-K
0000|10|-:
0000|10|-0
0000|10|-:
0000|10|-:
0000|10|-:
0000|10|-:
0000|10|-:
0000|10|-:
0000|10|-:
0000|10|-:
0000|10|-:
0000|10|-:
0000|10|-:
0000|10|-:
0000|10|-:
0000|00|-0
0000|00|-:
0000|00|-:
0000|00|-:
0000|00|-:
0000|00|-:
0000|00|-:
0000|00|-:
0000|00|-:
0000|00|-:
0000|00|-:
0000|00|-:
1000|00|-:
0000|00|-:
0000|00|-:
0000|00|-:
--
0100|00|-o
0000|00|--
0000|00|--
0000|00|--
1000|00|--
0000|00|--
0000|00|--
0000|00|--
0000|00|--
0000|00|--
0000|00|--
0000|00|--
0000|00|--
0000|00|--
0000|00|--
0000|00|--
0000|01|--
0000|01|--
0000|01|--
0000|01|--
0000|01|--
0000|01|--
0000|01|--
0000|01|--
0000|01|--
0000|01|--
0000|01|--
0000|01|--
0000|01|--
0000|01|--
0000|01|--
0000|01|--
0000|00|0-
0000|00|:-
0000|00|o-
0000|00|:-
0000|00|:-
0000|00|:-
0000|00|:-
0000|00|:-
0010|00|:-
0000|00|:-
0000|00|:-
0000|00|:-
0000|00|:-
0000|00|:-
0000|00|:-
0000|00|:-
0000|00|:-
0000|00|:-
0000|00|:-
0000|00|:-
0000|00|:-
0000|00|:-
0000|00|:-
0000|00|:-
0100|00|:-
0000|00|:-
0000|00|:-
0000|00|:-
0000|00|:-
0000|00|:-
0000|00|:-
0000|00|:-
--
0000|01|0-
0000|01|:-
0000|01|:-
0000|01|:-
0000|01|K-
0000|01|:-
0000|01|:-
0000|01|:-
0000|01|U-
0000|01|:-
0000|01|:-
0000|01|:-
0000|01|:-
0000|01|:-
0000|01|:-
0000|01|:-
0000|01|e-
0000|01|:-
0000|01|:-
0000|01|:-
0000|01|:-
0000|01|:-
0000|01|:-
0000|01|:-
0000|01|:-
0000|01|:-
0000|01|:-
0000|01|:-
0000|01|:-
0000|01|:-
0000|01|:-
0000|01|:-
0000|00|o-
0000|00|:-
0000|00|0-
0000|00|--
0000|00|--
0000|00|--
0000|00|--
0000|00|--
1010|00|--
0000|00|--
0000|00|--
0000|00|--
0000|00|--
0000|00|--
0000|00|--
0000|00|--
0000|00|--
0000|00|--
0000|00|--
0000|00|--
0000|00|--
0000|00|--
0000|00|--
0000|00|--
0101|00|--
0000|00|--
0000|00|--
0000|00|--
1000|00|--
0000|00|--
0000|00|--
0000|00|--
--
0000|00|--
0000|00|--
0000|00|--
0000|00|--
1000|00|--
0000|00|--
0000|00|--
0000|00|--
0000|00|--
0000|00|--
0000|00|--
0000|00|--
0000|00|-o
0000|00|-:
0000|00|-0
0000|00|--
0000|00|--
0000|00|--
0000|00|--
0000|00|--
0000|00|--
0000|00|--
0000|00|--
0000|00|--
1000|00|--
0000|00|--
0000|00|--
0000|00|--
0000|00|--
0000|00|--
0000|00|--
0000|00|--
0100|10|--
0000|10|--
0000|10|--
0000|10|--
0010|10|--
0000|10|--
0000|10|--
0000|10|--
0100|10|--
0000|10|--
0000|10|--
0000|10|--
0010|10|--
0000|10|--
0000|10|--
0000|10|--
1000|01|--
0000|01|--
0000|01|--
0000|01|--
0100|01|--
0000|01|--
0000|01|--
0000|01|--
0010|01|--
0000|01|--
0000|01|--
0000|01|--
0001|01|--
0000|01|--
0000|01|--
0000|01|--
--
0000|00|0-
0000|00|:-
0000|00|oo
0000|00|::
0000|00|:0
0000|00|::
0000|00|oo
0000|00|::
--
0000|00|0o
0000|00|::
0000|00|KU
0000|00|::
0000|00|::
0000|00|::
0000|00|::
0000|00|::
0000|00|::
0000|00|::
0000|00|::
0000|00|::
0000|00|::
0000|00|::
0000|00|::
0000|00|::
0000|00|KU
0000|00|::
0000|00|UK
0000|00|::
0000|00|::
0000|00|::
0000|00|::
0000|00|::
0000|00|::
0000|00|::
0000|00|::
0000|00|::
0000|00|::
0000|00|::
0000|00|::
0000|00|::
0000|00|UK
0000|00|::
0000|00|o0
0000|00|::
0000|00|::
0000|00|::
0000|00|::
0000|00|::
0000|00|::
0000|00|::
0000|00|::
0000|00|::
0000|00|::
0000|00|::
0000|00|::
0000|00|::
1111|00|o0
0000|00|--
0000|00|--
0000|00|--
0000|00|--
0000|00|--
0000|00|--
0000|00|--
0000|00|--
0000|00|--
0000|00|--
0000|00|--
0000|00|--
0000|00|--
0000|00|--
0000|00|--
--
