title=ウバワレ
artist=TAKU1175
effect=レッドホットスクリューズ
jacket=ubaware_taku1175_in.png
illustrator=あゆり XVIII remixed あゆり XVIII
difficulty=infinite
level=17
t=190
m=ubaware_taku1175.wav
o=0
bg=desert
layer=arrow
po=0
plength=15000
pfiltergain=50
filtertype=peak
chokkakuautovol=0
chokkakuvol=50
ver=140d
--
beat=4/4
t=190
tilt=normal
zoom_top=-30
zoom_bottom=15
0000|00|--
0000|00|--
0000|00|--
0000|00|--
0000|00|--
0000|00|--
0000|00|--
0000|00|--
0000|00|--
0000|00|--
0000|00|--
0000|00|--
0000|00|--
0000|00|--
0000|00|--
0000|00|--
--
0000|22|--
0000|00|--
0000|00|--
0000|00|--
0000|22|--
0000|00|--
0000|00|--
0000|00|--
0000|22|--
0000|00|--
0000|00|--
0000|00|--
0000|22|--
0000|00|--
0000|00|--
0000|00|--
--
0000|00|-o
0000|00|-0
0000|00|-:
0000|00|-:
1100|00|-:
0000|00|-:
0000|00|-:
0000|00|-:
0000|00|-:
0000|00|-:
0000|00|-:
0000|00|-:
1100|00|-:
0000|00|-:
0000|00|-:
0000|00|-:
0000|00|-:
0000|00|-:
0000|00|-:
0000|00|-:
1100|00|-:
0000|00|-:
0000|00|-:
0000|00|-:
0000|00|-:
0000|00|-:
0000|00|-:
0000|00|-:
1100|00|-:
0000|00|-:
0000|00|-:
0000|00|-:
--
0010|00|-:
0000|00|-:
1100|00|-:
0000|00|-:
0000|00|-:
0000|00|-:
1100|00|-:
0000|00|-:
0000|00|-:
0000|00|-:
1100|00|-:
0000|00|-:
0000|00|-:
0000|00|-:
1100|00|-o
0000|00|--
--
0001|00|--
0000|00|--
0110|00|0-
0000|00|:-
0000|00|:-
0000|00|:-
0110|00|:-
0000|00|:-
0000|00|:-
0000|00|:-
0101|00|:-
0000|00|:-
0000|00|:-
0000|00|:-
0011|00|:-
0000|00|:-
--
0000|0F|o-
0000|0F|0-
0000|0F|--
0000|0F|--
0000|0F|--
0000|0F|--
0000|0F|--
0000|0F|--
0000|0F|--
0000|0F|--
0000|0F|--
0000|0F|--
0000|0F|--
0000|0F|--
0000|0F|--
0000|0F|--
0000|0F|--
0000|0F|--
0000|0F|--
0000|0F|--
0000|0F|--
0000|0F|--
0000|0F|--
0000|0F|--
0000|0F|--
0000|0F|--
0000|0F|--
0000|0F|--
0000|0F|--
0000|0F|--
0000|0F|--
0000|0F|--
--
0100|00|--
0000|00|--
0000|00|--
0010|00|--
0000|00|--
0000|00|--
0100|00|--
0000|00|--
0000|00|--
0010|00|--
0000|00|--
0000|00|--
0100|00|--
0000|00|--
0010|00|--
0000|00|--
0100|00|--
0000|00|--
0010|00|--
0000|00|--
0100|00|--
0000|00|--
0010|00|--
0000|00|--
0001|H0|--
0000|H0|--
0000|H0|--
0000|H0|--
0000|H0|--
0000|H0|--
0001|H0|--
0000|H0|--
0000|H0|--
0000|H0|--
0000|H0|--
0000|H0|--
0001|H0|--
0000|H0|--
0000|H0|--
0000|H0|--
0000|H0|--
0000|H0|--
0001|H0|--
0000|H0|--
0000|H0|--
0000|H0|--
0000|H0|--
0000|H0|--
--
0200|00|--
0200|00|--
0200|02|--
0200|00|--
1000|00|--
0000|00|--
0100|02|--
0000|00|--
0020|00|--
0020|00|--
0020|20|--
0020|00|--
0001|00|--
0000|00|--
0010|20|--
0000|00|--
--
2000|00|--
2000|00|--
2000|02|--
2000|00|--
0100|00|--
0000|00|--
1000|02|--
0000|00|--
0002|00|--
0002|00|--
0002|20|--
0002|00|--
0010|00|--
0000|00|--
0001|20|--
0000|00|--
-- fx-r_param1=10
0020|0B|--
0020|0B|--
0020|0B|--
1100|00|--
0000|00|--
0000|00|--
0011|00|--
0000|00|-- fx-l_param1=10
0200|B0|--
0200|B0|--
0200|B0|--
0011|00|--
0000|00|--
0000|00|--
1100|00|--
0000|00|--
--
0020|00|--
0020|00|--
0020|00|--
0020|00|--
filtertype=lpf1
0020|02|0-
0020|00|o-
0020|00|:-
0020|00|:-
0020|00|:-
0020|00|:-
0020|00|:-
0020|00|:-
0020|02|P-
0020|00|o-
0020|00|:-
0020|00|:-
0020|00|:-
0020|00|:-
0020|00|:-
0020|00|:-
0020|02|P-
0020|00|o-
0020|00|:-
0020|00|:-
0020|00|o-
0020|00|0-
filtertype=peak
0020|00|--
0020|00|--
0000|02|--
0000|00|--
0000|00|--
0000|00|--
--
2002|00|--
2002|00|--
2002|00|--
0110|00|--
0000|00|--
0000|00|--
0101|00|--
0000|00|--
1010|00|--
0000|00|--
0001|00|--
0000|00|--
1010|00|--
0000|00|--
0100|00|--
0000|00|--
--
1010|00|--
0000|00|--
0000|00|--
0000|00|--
0000|00|--
0000|00|--
0001|00|--
0000|00|--
0000|00|--
0000|00|--
0000|00|--
0000|00|--
0110|00|--
0000|00|--
0000|00|--
0000|00|--
0000|00|--
0000|00|--
1000|00|--
0000|00|--
0100|00|--
0000|00|--
0010|00|--
0000|00|--
0002|00|--
0002|00|--
0002|00|--
0002|00|--
0002|00|--
0002|00|--
0002|00|--
0002|00|--
0010|00|--
0000|00|--
0100|00|--
0000|00|--
2000|00|--
2000|00|--
2000|00|--
2000|00|--
2000|00|--
2000|00|--
2000|00|--
2000|00|--
2000|00|--
2000|00|--
2000|00|--
2000|00|--
--
0000|20|-P
0000|00|-o
0000|00|-:
0000|00|-:
0000|20|-o
0000|00|-0
0000|00|-:
0000|00|-:
0000|00|-:
0000|00|-:
0000|00|-:
0000|00|-:
0000|02|P:
0000|00|0:
0000|00|::
0000|00|::
0000|00|::
0000|00|::
0000|00|::
0000|00|::
0000|02|0:
0000|00|o:
0000|00|-:
0000|00|-:
0000|F0|-0@)192
0000|F0|-o
0000|F0|-:
0000|F0|-:
0000|F0|-:
0000|F0|-:
0000|F0|-:
0000|F0|-:
--
0000|F0|-:
0000|F0|-:
0000|F0|-:
0000|F0|-:
0000|F0|-:
0000|F0|-:
0000|F0|-:
0000|F0|-:
0000|F0|-:
0000|F0|-:
0000|F0|-:
0000|F0|-:
0000|F0|-:
0000|F0|-:
0000|F0|-:
0000|F0|-:
0000|00|-:
0000|00|-:
0000|00|-:
0000|00|-:
0000|00|-:
0000|00|-:
0000|00|-:
0000|00|-:
0000|00|-o
0000|00|-0
0000|00|--
0000|00|--
0000|00|--
0000|00|--
0000|00|--
0000|00|--
--
0002|00|--
0002|00|--
0002|20|--
0002|00|--
0100|00|--
0000|00|--
0010|20|--
0000|00|--
2000|00|--
2000|00|--
2000|02|--
2000|00|--
0100|00|--
0000|00|--
1000|02|--
0000|00|--
--
0002|00|--
0002|00|--
0002|20|--
0010|00|--
0000|00|--
0000|00|--
0100|20|--
0000|00|--
2000|00|--
2000|00|--
2000|02|--
0010|00|--
0000|00|--
0000|00|--
0100|02|--
0000|00|--
-- fx-l_param1=10
0020|B0|--
0020|B0|--
0020|B0|--
1100|00|--
0000|00|--
0000|00|--
0011|00|--
0000|00|-- fx-r_param1=10
0200|0B|--
0200|0B|--
0200|0B|--
0011|00|--
0000|00|--
0000|00|--
1100|00|--
0000|00|--
--
0020|00|--
0020|00|--
0020|00|--
0020|00|--
filtertype=hpf1
0020|02|0-
0020|00|o-
0020|00|:-
0020|00|:-
0020|00|:-
0020|00|:-
0020|00|:-
0020|00|:-
0020|02|P-
0020|00|o-
0020|00|:-
0020|00|:-
0020|00|:-
0020|00|:-
0020|00|:-
0020|00|:-
0020|02|P-
0020|00|o-
0020|00|:-
0020|00|:-
0020|00|o-
0020|00|0-
filtertype=peak
0020|00|--
0020|00|--
0000|02|--
0000|00|--
0000|00|--
0000|00|--
--
2002|00|--
2002|00|--
2002|00|--
0110|00|--
0000|00|--
0000|00|--
0101|00|--
0000|00|--
1000|02|--
0000|00|--
0100|00|--
0000|00|--
0001|20|--
0000|00|--
0010|00|--
0000|00|--
--
1100|00|--
0000|00|--
0000|00|--
0000|00|--
0000|00|--
0000|00|--
0001|00|--
0000|00|--
0000|00|--
0000|00|--
0000|00|--
0000|00|--
0110|00|--
0000|00|--
0000|00|--
0000|00|--
0000|00|--
0000|00|--
1000|00|--
0000|00|--
0100|00|--
0000|00|--
0010|00|--
0000|00|--
0002|00|--
0002|00|--
0002|00|--
0002|00|--
0002|00|--
0002|00|--
0002|00|--
0002|00|--
0010|00|--
0000|00|--
0100|00|--
0000|00|--
2000|00|--
2000|00|--
2000|00|--
2000|00|--
2000|00|--
2000|00|--
2000|00|--
2000|00|--
2000|00|--
2000|00|--
2000|00|--
2000|00|--
--
0000|20|-P
0000|00|-o
0000|00|-:
0000|00|-:
0000|20|-o
0000|00|-0
0000|00|-:
0000|00|-:
0000|00|-:
0000|00|-:
0000|00|-:
0000|00|-:
0000|02|P:
0000|00|0:
0000|00|::
0000|00|::
0000|00|::
0000|00|::
0000|00|::
0000|00|::
0000|02|0:
0000|00|o:
0000|00|-:
0000|00|-:
0000|F0|-0@)192
0000|F0|-o
0000|F0|-:
0000|F0|-:
0000|F0|-:
0000|F0|-:
0000|F0|-:
0000|F0|-:
--
0000|F0|-:
0000|F0|-:
0000|F0|-:
0000|F0|-:
0000|F0|-:
0000|F0|-:
0000|F0|-:
0000|F0|-:
0000|F0|-:
0000|F0|-:
0000|F0|-:
0000|F0|-:
0000|F0|-:
0000|F0|-:
0000|F0|-:
0000|F0|-:
0000|F0|-:
0000|F0|-:
0000|F0|-:
0000|F0|-:
0000|F0|-:
0000|F0|-:
0000|F0|-:
0000|F0|-:
0000|F0|oo
0000|F0|:-
0000|F0|:-
0000|F0|:-
0000|F0|:-
0000|F0|:-
0000|F0|:-
0000|F0|:-
0000|F0|:-
0000|F0|:-
0000|F0|:-
0000|F0|:-
0000|F0|:-
0000|F0|:-
0000|F0|:-
0000|F0|:-
0000|F0|:-
0000|F0|:-
0000|F0|:-
0000|F0|:-
0000|F0|:-
0000|F0|:-
0000|F0|:-
0000|F0|:-
0000|00|:-
0000|00|:-
0000|00|:-
0000|00|:-
0000|00|:-
0000|00|:-
0000|00|:-
0000|00|:-
0000|00|:-
0000|00|:-
0000|00|:-
0000|00|:-
0000|00|:-
0000|00|:-
0000|00|:-
0000|00|:-
0000|00|:-
0000|00|:-
0000|00|:-
0000|00|:-
0000|00|:-
0000|00|:-
0000|00|:-
0000|00|:-
0000|00|o-
0000|00|:-
0000|00|:-
0000|00|0-
0000|00|:-
0000|00|:-
0000|00|:-
0000|00|:-
0000|00|:-
0000|00|:-
0000|00|:-
0000|00|:-
0000|00|:-
0000|00|:-
0000|00|:-
0000|00|:-
0100|00|:-
0000|00|:-
0000|00|:-
0000|00|:-
0010|00|:-
0000|00|:-
0000|00|:-
0000|00|:-
--
0002|00|0-
0002|00|:-
0000|00|:-
0000|00|:-
0002|00|:-
0002|00|:-
0002|00|:-
0002|00|:-
0002|00|:-
0002|00|:-
0000|00|:-
0000|00|:-
0001|00|:-
0000|00|:-
0010|00|:-
0000|00|:-
--
0001|00|o-
0000|00|--
0010|00|--
0000|00|--
0100|00|--
0000|00|--
2000|00|--
2000|00|--
2000|00|--
2000|00|--
0000|22|--
0110|00|--
0000|22|--
0000|00|--
0000|00|--
0000|00|--
--
1000|00|--
0000|00|--
0100|00|-o
0000|00|-:
0000|20|-b
0000|00|-:
0000|20|-b
0000|00|-:
1000|00|-P
0000|00|-:
0100|00|-P
0000|00|-:
0000|20|-C
0000|00|-:
0000|20|-C
0000|00|-:
--
0000|00|-0
0000|00|-:
0000|00|-:
0000|00|-:
0100|00|-0
0000|00|-:
0000|00|-:
0000|00|-:
1000|00|-C
0000|00|-:
0000|00|-:
0000|00|-:
0100|00|-C
0000|00|-:
0000|00|-:
0000|00|-:
0000|20|-P
0000|00|-0
0000|00|--
0000|00|--
0000|00|--
0000|00|--
0000|00|--
0000|00|--
0000|02|P-
0000|00|o-
0000|00|:-
0000|00|:-
0000|00|:-
0000|00|:-
0010|00|:-
0000|00|:-
--
0001|00|:-
0000|00|:-
0000|00|:-
0000|00|:-
0010|00|o-
0000|00|:-
0000|00|:-
0000|00|:-
0000|02|W-
0000|00|:-
0000|00|:-
0000|00|:-
0000|02|W-
0000|00|:-
0000|00|:-
0000|00|:-
0001|00|J-
0000|00|:-
0000|00|:-
0000|00|:-
0010|00|J-
0000|00|:-
0000|00|:-
0000|00|:-
0000|02|0-
0000|00|:-
0000|00|:-
0000|00|:-
0000|0F|0-
0000|0F|o-
0000|0F|--
0000|0F|--
--
0000|0F|--
0000|0F|--
0000|0F|--
0000|0F|--
0000|TF|--
0000|TF|--
0100|TF|--
0000|TF|--
0000|0F|--
0000|0F|--
0000|0F|--
0000|0F|--
0000|T0|--
0000|T0|--
0100|T0|--
0000|T0|--
1000|0S|--
0000|0S|--
0000|0S|--
0000|0S|--
1000|0S|--
0000|0S|--
0000|0S|--
0000|0S|--
0110|00|--
0000|00|--
0000|00|--
0000|00|--
0000|10|-o
0000|10|-0
0000|10|--
0000|10|--
--
0000|10|--
0000|10|--
0000|10|--
0000|10|--
0000|10|--
0000|10|--
0000|10|--
0000|10|--
0001|0T|--
0000|0T|--
1000|0T|--
0000|0T|--
0001|0T|--
0000|0T|--
1000|0T|--
0000|0T|--
0000|U0|--
0000|U0|--
0000|U0|--
0000|U0|--
0000|U0|--
0000|U0|--
0000|U0|--
0000|U0|--
0110|00|--
0000|00|--
0000|00|--
0000|00|--
0000|0F|0-
0000|0F|o-
0000|0F|--
0000|0F|--
--
0000|0F|--
0000|0F|--
0000|0F|--
0000|0F|--
0000|0F|--
0000|0F|--
0000|0F|--
0000|0F|--
0010|IF|--
0000|IF|--
0100|IF|--
0000|IF|--
0010|IF|--
0000|IF|--
0100|IF|--
0000|IF|--
0001|I0|--
0000|I0|--
0010|I0|--
0000|I0|--
0100|I0|--
0000|I0|--
1000|I0|--
0000|I0|--
filtertype=lpf1
0000|00|-P
0000|00|-o
filtertype=peak
0000|00|--
0000|00|--
0000|00|--
0000|00|--
0000|00|--
0000|00|--
--
0001|00|--
0000|00|--
0010|00|0-
0000|00|:-
0000|02|C-
0000|00|:-
0000|02|C-
0000|00|:-
0001|00|P-
0000|00|:-
0010|00|P-
0000|00|:-
0000|02|b-
0000|00|:-
0000|02|b-
0000|00|:-
--
0010|00|o-
0000|00|:-
0000|00|:-
0000|00|:-
0001|00|o-
0000|00|:-
0000|00|:-
0000|00|:-
0010|00|b-
0000|00|:-
0000|00|:-
0000|00|:-
0001|00|b-
0000|00|:-
0001|00|:-
0000|00|:-
0000|02|P-
0000|00|o-
0000|00|--
0000|00|--
0000|00|--
0000|00|--
0000|00|--
0000|00|--
0000|20|-P
0000|00|-0
0000|00|-:
0000|00|-:
0000|00|-:
0000|00|-:
0000|00|-:
0000|00|-:
--
1000|00|-:
0000|00|-:
0000|00|-:
0000|00|-:
0100|00|-0
0000|00|-:
0000|00|-:
0000|00|-:
0000|20|-J
0000|00|-:
0000|00|-:
0000|00|-:
0000|20|-J
0000|00|-:
0000|00|-:
0000|00|-:
1000|00|-W
0000|00|-:
0000|00|-:
0000|00|-:
0100|00|-W
0000|00|-:
0000|00|-:
0000|00|-:
0000|20|-o
0000|00|-:
0000|00|-:
0000|00|-:
0000|F0|-o
0000|F0|-0
0000|F0|--
0000|F0|--
--
0000|F0|--
0000|F0|--
0000|F0|--
0000|F0|--
0000|F0|--
0000|F0|--
0000|0T|--
0000|0T|--
0000|0T|--
0010|0T|--
0000|0T|--
0000|0T|--
0001|S0|--
0000|S0|--
0000|S0|--
0000|S0|--
0000|S0|--
0000|S0|--
0001|S0|--
0000|S0|--
0000|S0|--
0000|S0|--
0000|S0|--
0000|S0|--
0100|0V|--
0000|0V|--
0000|0V|--
0000|0V|--
0100|0V|--
0000|0V|--
0000|0V|--
0000|0V|--
0100|0V|--
0000|0V|--
0000|0V|--
0000|0V|--
0010|0V|--
0000|0V|--
0000|0V|--
0000|0V|--
0010|0V|--
0000|0V|--
0000|0V|--
0000|0V|--
0010|0V|--
0000|0V|--
0000|0V|--
0000|0V|--
--
zoom_top=-30
zoom_bottom=15
0001|00|--
0000|00|--
0100|00|--
0000|00|--
0010|00|--
0000|00|--
0000|00|--
0000|00|--
1001|00|--
0000|00|--
0000|00|--
0000|00|--
0100|00|--
0000|00|--
0010|00|--
0000|00|--
0001|00|0-
0000|00|o-
0000|00|--
0000|00|--
0010|00|--
0000|00|--
0100|00|--
0000|00|--
zoom_top=15
zoom_bottom=-60
1000|00|-o
0000|00|-0
0000|00|--
0000|00|--
0100|00|--
0000|00|--
0010|00|--
0000|00|--
--
0000|0F|--
0000|0F|--
0000|0F|--
0000|0F|--
0000|0F|--
0000|0F|--
0000|0F|--
0000|0F|--
laserrange_l=2x
0011|00|C-
0000|00|b-
0000|00|:-
0000|00|:-
0000|00|:-
0000|00|:-
0000|00|:-
0000|00|:-
0110|00|:-
0000|00|:-
0000|00|:-
0000|00|:-
0000|00|:-
0000|00|:-
0000|00|:-
0000|00|:-
0001|00|b-
0000|00|o-
0000|00|:-
0000|00|:-
0010|00|:-
0000|00|:-
0000|00|:-
0000|00|:-
--
0100|00|:-
0000|00|:-
0000|00|:-
0000|00|:-
0020|00|:-
0020|00|:-
0020|00|:-
0020|00|:-
0020|00|o-
0020|00|b-
0020|00|:-
0020|00|:-
0001|00|:-
0000|00|:-
0000|00|:-
0000|00|:-
0000|00|:-
0000|00|:-
0000|00|:-
0000|00|:-
0100|00|b-
0000|00|o-
0000|00|:-
0000|00|:-
0000|00|o-
0000|00|b-
0000|00|:-
0000|00|:-
0010|00|:-
0000|00|:-
0000|00|:-
0000|00|:-
--
0000|0I|b-
0000|0I|:-
0000|0I|:-
0000|0I|:-
0001|00|6-
0000|00|--
0010|20|--
0000|00|--
0000|00|--
0000|00|--
0100|02|--
0000|00|--
0000|02|--
0000|00|--
0000|02|--
0000|02|--
-- fx-l_param1=30
0000|A0|--
0000|A0|--
0000|A0|--
0000|A0|--
0000|A0|--
0000|A0|--
0000|A0|--
0000|A0|--
laserrange_r=2x
1100|00|-b
0000|00|-C
0000|00|-:
0000|00|-:
0000|00|-:
0000|00|-:
0000|00|-:
0000|00|-:
0110|00|-:
0000|00|-:
0000|00|-:
0000|00|-:
0000|00|-:
0000|00|-:
0000|00|-:
0000|00|-:
1000|00|-C
0000|00|-0
0000|00|-:
0000|00|-:
0100|00|-:
0000|00|-:
0000|00|-:
0000|00|-:
--
0010|00|-:
0000|00|-:
0000|00|-:
0000|00|-:
0100|00|-:
0000|00|-:
0000|00|-:
0000|00|-:
0000|00|-0
0000|00|-C
0000|00|-:
0000|00|-:
0101|00|-:
0000|00|-:
0000|00|-:
0000|00|-:
0000|00|-:
0000|00|-:
0000|00|-:
0000|00|-:
0010|00|-C
0000|00|-0
0000|00|-:
0000|00|-:
0100|00|-0
0000|00|-C
0000|00|-:
0000|00|-:
0000|F0|-C
0000|F0|-:
0000|F0|-:
0000|F0|-:
--
0000|F0|-:
0000|F0|-:
0000|F0|-:
0000|F0|-:
0100|00|-i
0000|00|--
0000|00|--
0000|00|--
0010|00|--
0000|00|--
0000|00|--
0000|00|--
2002|00|--
2002|00|--
2002|00|--
2002|00|--
2002|00|--
2002|00|--
2002|00|--
2002|00|--
2002|00|--
2002|00|--
2002|00|--
2002|00|--
0000|00|--
0000|00|--
0000|00|--
0000|00|--
laserrange_l=2x fx-r_param1=10
0020|0B|J-
0020|0B|6-
0020|0B|:-
0020|0B|:-
--
0020|0B|:-
0020|0B|:-
0020|0B|:-
0020|0B|:-
0001|00|6-
0000|00|J-
0000|00|--
0000|00|--
0000|00|--
0000|00|--
0000|00|--
0000|00|-- fx-l_param1=10
laserrange_r=2x
0200|B0|-W
0200|B0|-i
0200|B0|-:
0200|B0|-:
0200|B0|-:
0200|B0|-:
0200|B0|-:
0200|B0|-:
1000|00|-i
0000|00|-W
0000|00|--
0000|00|--
0000|00|--
0000|00|--
0000|00|--
0000|00|--
laserrange_l=2x
zoom_bottom=-60
0000|0F|6-
0000|0F|:-
0000|0F|:-
0000|0F|:-
--
0000|0F|:-
0000|0F|:-
0000|0F|:-
0000|0F|:-
0000|XF|i-
0000|XF|:-
0000|XF|:-
0000|XF|:-
0000|XF|:-
0000|XF|:-
0000|XF|:-
0000|XF|:-
0110|00|0-
0000|00|:-
0000|00|:-
0000|00|:-
--
laserrange_r=2x
zoom_bottom=-97
0000|00|0P
0000|00|Po
0000|00|::
0000|00|::
0000|00|::
0000|00|::
0000|00|Po
0000|00|0P
0000|00|::
0000|00|::
0000|00|::
0000|00|::
0000|00|0P
0000|00|Po
0000|00|-:
0000|00|-:
zoom_top=15
zoom_bottom=-97
1000|00|-o
0000|00|-0
0100|00|--
0000|00|--
0010|00|--
0000|00|--
0001|00|--
0000|00|--
1000|00|--
0000|00|--
0100|00|--
0000|00|--
0010|00|--
0000|00|--
0001|00|--
0000|00|--
--
zoom_top=-30
zoom_bottom=15
0000|02|0-
0000|00|o-
0000|00|--
0000|00|--
0001|00|--
0000|00|--
0000|00|--
0000|00|--
0000|02|--
0000|00|--
0000|00|--
0000|00|--
0001|00|--
0000|00|--
0000|00|--
0000|00|--
2000|02|--
2000|00|--
2000|00|--
2000|00|--
2001|00|--
2000|00|--
2000|00|--
2000|00|--
2000|02|--
2000|00|--
2000|00|--
2000|00|--
2001|00|--
2000|00|--
2000|00|--
2000|00|--
--
2200|02|--
2200|00|--
2201|00|--
2200|00|--
2200|02|--
2200|00|--
2201|00|--
2200|00|--
2220|02|--
2220|00|--
2221|00|--
2220|00|--
2220|02|--
2220|00|--
2221|00|--
2220|00|--
--
0000|20|--
0000|00|--
1000|00|--
0000|00|--
0000|20|--
0000|00|--
1000|00|--
0000|00|--
0002|20|--
0002|00|--
1002|00|--
0002|00|--
0002|20|--
0002|00|--
1002|00|--
0002|00|--
--
0022|20|--
0022|00|--
1022|00|--
0022|00|--
0022|20|--
0022|00|--
1022|00|--
0022|00|--
0222|20|--
0222|00|--
1222|00|--
0222|00|--
0222|20|--
0222|00|--
1222|00|--
0222|00|--
--
0000|02|--
0000|00|--
0010|00|--
0000|00|--
0000|02|--
0000|00|--
2010|00|--
2000|00|--
2000|02|--
2000|00|--
2010|00|--
2000|00|--
0200|02|--
0200|00|--
0210|00|--
0200|00|--
--
0200|02|--
0200|00|--
1010|00|--
0000|00|--
0000|02|--
0000|00|--
0012|00|0-
0002|00|:-
0002|00|:-
0002|00|:-
0002|00|:-
0002|00|:-
0010|00|P-
0000|00|:-
0000|00|:-
0000|00|:-
--
0100|00|0-
0000|00|P-
0000|00|:-
0000|00|:-
0010|00|P-
0000|00|0-
0000|00|--
0000|00|--
0000|00|--
0000|00|--
0000|00|--
0000|00|--
2200|00|-o
2200|00|-P
2200|00|-:
2200|00|-:
2200|00|-:
2200|00|-:
2200|00|-:
2200|00|-:
2200|00|-:
2200|00|-:
2200|00|-:
2200|00|-:
2200|00|-:
2200|00|-:
2200|00|-:
2200|00|-:
2200|00|-:
2200|00|-:
2200|00|-:
2200|00|-:
-- fx-l_param1=10
0000|B0|-o
0000|B0|-0
0000|B0|--
0000|B0|--
0000|B0|--
0000|B0|--
0000|B0|--
0000|B0|--
0000|00|--
0000|00|--
0000|00|--
0000|00|--
0000|0F|0-
0000|0F|o-
0000|0F|:-
0000|0F|:-
0010|0F|:-
0000|0F|:-
0000|0F|:-
0000|0F|:-
0100|0F|:-
0000|0F|:-
0000|0F|:-
0000|0F|:-
0010|00|:-
0000|00|:-
0000|00|:-
0000|00|:-
0002|00|o-
0002|00|:-
0002|00|:-
0002|00|:-
--
0002|00|:-
0002|00|:-
0002|00|:-
0002|00|:-
0002|00|:-
0002|00|:-
0002|00|:-
0002|00|:-
0000|00|:-
0000|00|:-
0000|00|:-
0000|00|:-
0010|00|:-
0000|00|:-
0000|00|:-
0000|00|:-
0100|00|:-
0000|00|:-
0000|00|:-
0000|00|:-
0010|00|:-
0000|00|:-
0000|00|:-
0000|00|:-
0100|00|:-
0000|00|:-
0000|00|:-
0000|00|:-
zoom_top=-30
zoom_bottom=15
0011|00|0-
0000|00|o-
0000|00|:-
0000|00|:-
--
0000|00|:-
0000|00|:-
0000|00|:-
0000|00|:-
0110|00|o-
0000|00|0-
0000|00|--
0000|00|--
0000|00|--
0000|00|--
0000|00|--
0000|00|--
1100|00|-o
0000|00|-0
0000|00|--
0000|00|--
0000|00|--
0000|00|--
0000|00|--
0000|00|--
0022|20|--
0022|00|--
0022|00|--
0022|00|--
0022|20|--
0022|00|--
0022|00|--
0022|00|--
0022|20|--
0022|00|--
0022|20|--
0022|00|--
--
zoom_top=60
zoom_bottom=-97
1000|00|--
0100|00|--
0010|00|--
0100|00|--
1000|00|--
0100|00|--
0010|00|--
0100|00|--
2000|00|--
2010|00|--
2001|00|--
2010|00|--
2100|00|--
2010|00|--
2001|00|--
2010|00|--
--
0200|00|--
0201|00|--
0210|00|--
1200|00|--
0210|00|--
0201|00|--
0210|00|--
1200|00|--
0020|00|--
1020|00|--
0120|00|--
0021|00|--
0120|00|--
1020|00|--
0120|00|--
0021|00|--
--
0120|00|--
1020|00|--
0120|00|--
0021|00|--
0120|00|--
1020|00|--
0120|00|--
0021|00|--
0200|00|--
1200|00|--
0210|00|--
0201|00|--
0210|00|--
1200|00|--
0210|00|--
0201|00|--
--
2000|00|--
2010|00|--
2100|00|--
2010|00|--
2001|00|--
2010|00|--
2100|00|--
2010|00|--
0002|00|--
0102|00|--
0012|00|--
0102|00|--
1002|00|--
0102|00|--
0012|00|--
0102|00|--
--
1002|00|--
0102|00|--
0012|00|--
0102|00|--
1002|00|--
0102|00|--
0012|00|--
0102|00|-- fx-l_param1=10 fx-r_param1=10
0000|BB|--
0000|BB|--
0000|BB|--
0000|BB|--
0000|00|--
0000|00|--
0200|00|0-
0200|00|:-
--
0200|00|:-
0200|00|:-
0200|00|:-
0200|00|:-
0010|00|o-
0000|00|:-
0000|00|:-
0000|00|:-
0110|00|0-
0000|00|:-
0000|00|:-
0000|00|:-
0101|00|o-
0000|00|--
0000|00|--
0000|00|--
--
0001|00|--
0010|00|--
0100|00|--
1000|00|--
0010|00|--
0001|00|--
0010|00|--
0100|00|--
1000|0H|--
0000|0H|--
0100|0H|--
0000|0H|--
0010|0H|--
0000|0H|--
zoom_top=60
zoom_bottom=-97
0002|F0|--
0002|F0|--
--
0002|F0|--
0002|F0|--
0002|F0|--
0002|F0|--
0010|F0|--
0000|F0|--
0001|F0|--
0000|F0|--
0010|F0|--
0000|F0|--
0100|F0|--
0000|F0|--
1000|F0|--
0000|F0|--
0100|F0|--
0000|F0|--
0001|F0|--
0000|F0|--
0010|F0|--
0000|F0|--
0100|F0|--
0000|F0|--
0010|F0|--
0000|F0|--
1000|F0|--
0000|F0|--
0100|F0|--
0000|F0|--
zoom_top=-30
zoom_bottom=15
2000|00|-o
2000|00|-0
2000|00|-:
2000|00|-:
--
2000|00|-:
2000|00|-:
2000|00|-:
2000|00|-:
2000|00|-:
2000|00|-:
2000|00|-:
2000|00|-:
0100|00|-:
0000|00|-:
0010|00|-:
0000|00|-:
0000|00|-:
0000|00|-:
0000|0F|-o
0000|0F|-:
--
0000|0F|-:
0000|0F|-:
0000|0F|-:
0000|0F|-:
0011|00|-0
0000|00|-:
0000|00|-:
0000|00|-:
0110|00|-b
0000|00|-:
0000|00|-:
0000|00|-:
1100|00|-C
0000|00|-:
0000|00|-:
0000|00|-:
--
0220|00|-o
0220|00|-:
0220|00|-:
0220|00|-:
0220|00|-:
0220|00|-:
0220|00|-:
0220|00|-:
0000|00|-:
0000|00|-:
0000|00|-:
0000|00|-:
1010|00|-:
0000|00|-:
0000|00|-:
0000|00|-:
0000|00|-:
0000|00|-:
0000|00|-:
0000|00|-:
0110|00|-0
0000|00|-:
0000|00|-:
0000|00|-:
0000|00|-:
0000|00|-:
0000|00|-:
0000|00|-:
2200|00|-o
2200|00|-0
2200|00|--
2200|00|--
--
2200|00|--
2200|00|--
2200|00|--
2200|00|--
2200|00|--
2200|00|--
2200|00|--
2200|00|--
0000|00|--
0000|00|--
0000|00|--
0000|00|--
0022|00|0-
0022|00|o-
0022|00|:-
0022|00|:-
0022|00|:-
0022|00|:-
0022|00|:-
0022|00|:-
0022|00|:-
0022|00|:-
0022|00|:-
0022|00|:-
0000|0U|o-
0000|0U|:-
0000|0U|:-
0000|0U|:-
0000|0U|:-
0000|0U|:-
0000|0U|:-
0000|0U|:-
--
0000|00|0-
0000|00|:-
0000|00|:-
0000|00|:-
0110|00|:-
0000|00|:-
0000|00|:-
0000|00|:-
0101|00|:-
0000|00|:-
0110|00|o-
0000|00|:-
0000|00|:-
0000|00|:-
2002|00|:-
2002|00|:-
--
2002|00|:-
2002|00|:-
2002|00|:-
2002|00|:-
0110|00|:-
0000|00|:-
0000|00|:-
0000|00|:-
1001|00|:-
0000|00|:-
0000|00|:-
0000|00|:-
0110|00|:-
0000|00|:-
0000|00|:-
0000|00|:-
1000|02|:-
0000|00|:-
0000|00|:-
0000|00|:-
0001|20|:-
0000|00|:-
0000|00|:-
0000|00|:-
0110|00|:-
0000|00|:-
0000|00|:-
0000|00|:-
zoom_top=-30
zoom_bottom=15
0001|0F|o-
0000|0F|0-
0000|0F|--
0000|0F|--
--
0000|0F|--
0000|0F|--
0010|0F|--
0000|0F|--
0000|0F|--
0000|0F|--
0100|0F|--
0000|0F|--
0000|0F|--
0000|0F|--
1000|0F|--
0000|0F|--
0000|0F|--
0000|0F|--
0001|X0|--
0000|X0|--
--
0000|X0|--
0000|X0|--
0000|X0|--
0000|X0|--
0010|X0|--
0000|X0|--
0000|X0|--
0000|X0|--
0000|X0|--
0000|X0|--
0000|X0|--
0000|X0|--
0100|X0|--
0000|X0|--
0000|X0|--
0000|X0|--
0000|X0|--
0000|X0|--
0000|X0|--
0000|X0|--
1000|00|--
0000|00|--
0000|00|--
0000|00|--
0000|00|--
0000|00|--
0000|00|--
0000|00|--
laserrange_r=2x
zoom_top=15
zoom_bottom=-60
0110|00|-i
0000|00|-6
0000|00|-:
0000|00|-:
--
0000|00|-:
0000|00|-:
1000|00|-:
0100|00|-:
0010|00|-:
0001|00|-:
0010|00|-:
0100|00|-:
0001|00|-:
0010|00|-:
0100|00|-:
1000|00|-:
0100|00|-:
0010|00|-:
0100|00|-:
1000|00|-:
--
0010|00|-:
0000|00|-:
0001|00|-:
0000|00|-:
0010|00|-:
0000|00|-:
0100|00|-:
0000|00|-:
0010|00|-:
0000|00|-:
0100|00|-:
0000|00|-:
1000|00|-:
0000|00|-:
0100|00|-:
0000|00|-:
0010|00|-:
0000|00|-:
0001|00|-:
0000|00|-:
0010|00|-:
0000|00|-:
0100|00|-:
0000|00|-:
1000|00|-:
0100|00|-:
0010|00|-:
0001|00|-:
laserrange_l=2x
zoom_top=15
zoom_bottom=-60
0000|0F|66
0000|0F|i-
0000|0F|--
0000|0F|--
--
0000|0F|--
0000|0F|--
0001|0F|--
0000|0F|--
0010|0F|--
0000|0F|--
0001|0F|--
0000|0F|--
0010|H0|--
0000|H0|--
0100|H0|--
0000|H0|--
1000|H0|--
0000|H0|--
0011|0X|--
0000|0X|--
--
0000|0X|--
0000|0X|--
0110|0X|--
0000|0X|--
0000|0X|--
0000|0X|-- fx-l_param1=10
1100|B0|--
0000|B0|--
0000|B0|--
0000|B0|--
0100|0I|--
0010|0I|--
0100|0I|--
0010|0I|--
zoom_top=-30
zoom_bottom=15
1001|00|--
0000|00|--
--
0000|00|--
0000|00|--
0000|00|--
0000|00|--
0110|00|0-
0000|00|o-
0000|00|--
0000|00|--
0000|00|--
0000|00|--
0000|00|--
0000|00|--
0110|00|-o
0000|00|-0
0000|00|--
0000|00|--
0000|00|--
0000|00|--
0000|00|--
0000|00|--
0110|00|0-
0000|00|o-
0000|00|:-
0000|00|:-
0110|00|o-
0000|00|0-
0000|00|:-
0000|00|:-
0011|00|0-
0000|00|o-
0000|00|--
0000|00|--
--
0100|0T|--
0010|0T|--
0100|0T|--
0010|0T|--
1000|00|--
0000|00|--
0100|02|--
0000|00|--
0010|T0|--
0100|T0|--
0010|T0|--
0100|T0|--
0001|00|--
0000|00|--
0010|20|--
0000|00|--
--
2000|00|--
2000|00|--
2000|02|--
0100|00|--
0000|00|--
0000|00|--
0010|02|--
0000|00|--
0002|00|--
0002|00|--
0002|20|--
0010|00|--
0000|00|--
0000|00|--
0100|20|--
0000|00|--
-- fx-r_param1=10
2000|0B|--
2000|0B|--
2000|0B|--
0011|00|--
0000|00|--
0000|00|--
0110|00|--
0000|00|-- fx-l_param1=10
0002|B0|--
0002|B0|--
0002|B0|--
0110|00|--
0000|00|--
0000|00|--
1001|00|--
0000|00|--
--
0110|00|--
0000|00|--
0000|00|--
0000|00|--
0000|00|0-
0000|00|o-
0000|00|--
0000|00|--
0110|00|--
0000|00|--
0000|00|--
0000|00|--
0000|00|-o
0000|00|-0
0000|00|--
0000|00|--
0000|22|--
0000|00|--
0000|00|--
0000|00|--
0000|00|PP
0000|00|0o
0000|00|::
0000|00|::
0000|00|0o
0000|00|PP
0000|00|--
0000|00|--
0000|00|--
0000|00|--
0000|00|--
0000|00|--
--
0220|00|--
0220|00|--
0220|00|--
1001|00|--
0000|00|--
0000|00|--
0101|00|--
0000|00|--
0010|20|--
0000|00|--
0001|00|--
0000|00|--
0100|02|--
0000|00|--
1000|00|--
0000|00|--
--
0010|20|--
0000|00|--
0000|00|--
0000|00|--
0000|00|--
0000|00|--
0001|00|--
0000|00|--
0000|00|--
0000|00|--
0000|00|--
0000|00|--
0110|00|--
0000|00|--
0000|00|--
0000|00|--
0000|00|--
0000|00|--
1000|00|--
0000|00|--
0100|00|--
0000|00|--
0010|00|--
0000|00|--
0002|00|--
0002|00|--
0002|00|--
0002|00|--
0002|00|--
0002|00|--
0002|00|--
0002|00|--
0010|00|--
0000|00|--
0100|00|--
0000|00|--
2000|00|--
2000|00|--
2000|00|--
2000|00|--
2000|00|--
2000|00|--
2000|00|--
2000|00|--
2000|00|--
2000|00|--
2000|00|--
2000|00|--
--
0000|20|-P
0000|00|-o
0000|00|-:
0000|00|-:
0000|20|-o
0000|00|-0
0000|00|-:
0000|00|-:
0000|00|-:
0000|00|-:
0000|00|-:
0000|00|-:
0000|02|P:
0000|00|0:
0000|00|::
0000|00|::
0000|00|::
0000|00|::
0000|00|::
0000|00|::
0000|02|0:
0000|00|o:
0000|00|-:
0000|00|-:
0000|X0|-0@)192
0000|X0|-o
0000|X0|-:
0000|X0|-:
0000|X0|-:
0000|X0|-:
0000|X0|-:
0000|X0|-:
--
0000|X0|-:
0000|X0|-:
0000|X0|-:
0000|X0|-:
0000|X0|-:
0000|X0|-:
0000|X0|-:
0000|X0|-:
0000|X0|oo
0000|X0|:-
0000|X0|:-
0000|X0|:-
0000|X0|:-
0000|X0|:-
0000|X0|:-
0000|X0|:-
0000|00|:-
0000|00|:-
0000|00|:-
0000|00|:-
0000|00|:-
0000|00|:-
0000|00|:-
0000|00|:-
filtertype=lpf1
0000|00|oo
0000|00|00
0000|00|-:
0000|00|-:
0000|00|-:
0000|00|-:
0000|00|-:
0000|00|-:
--
filtertype=peak
0100|00|-0
0000|00|-:
0200|00|-:
0200|00|-:
0200|00|-:
0200|00|-:
2000|00|-:
2000|00|-:
2000|00|-:
2000|00|-:
0100|00|-:
0000|00|-:
filtertype=fx;bitc
0020|00|-o
0020|00|-:
0020|00|-:
0020|00|-:
--
0000|00|-0
filtertype=peak
0000|00|--
0000|00|--
0000|00|--
0000|00|--
0000|00|--
0000|00|--
0000|00|--
0000|00|--
0000|00|--
0000|00|--
0000|00|--
0000|00|--
0000|00|--
0000|00|--
0000|00|--
--
0000|00|--
0000|00|--
0000|00|--
0000|00|--
0000|00|--
0000|00|--
0000|00|--
0000|00|--
0000|00|--
0000|00|--
0000|00|--
0000|00|--
0000|00|--
0000|00|--
0000|00|--
0000|00|--
--
0000|00|--
0000|00|--
0000|00|--
0000|00|--
0000|00|--
0000|00|--
0000|00|--
0000|00|--
zoom_top=-30
zoom_bottom=15
0000|00|--
0000|00|--
0000|00|--
0000|00|--
0000|00|--
0000|00|--
0000|00|--
0000|00|--
--
