q=0
title=The Sampling Paradise (P*Light Remix)
artist=P*Light
effect=IIDX�ŋ�i�󂩂�Ȃ�SC�o�C�I���g���N�X
jacket=n_ja.jpg
illustrator=NAGI
difficulty=light
level=5
t=181
m=n.mp3;n.mp3
o=614
bg=bg03
layer=layer03
icon=../icon03.png
po=0
plength=15000
pfiltergain=0
filtertype=peak
chokkakuvol=0
pfilterdelay=0
ver=140d
--
beat=4/4
t=181
laserrange_l=1x
0000|00|2-
--
0000|00|l-
0000|00|:-
0000|00|:-
0000|00|2-
--
0000|01|--
0000|00|--
0000|01|--
0000|00|--
--
1000|00|--
1000|00|--
1000|00|--
1000|00|--
--
laserrange_r=1x
0000|00|-m
--
0000|00|-2
0000|00|-:
0000|00|-:
0000|00|-l
--
0000|10|--
0000|00|--
0000|10|--
0000|00|--
--
0001|00|--
0001|00|--
0001|00|--
0001|00|--
--
0000|01|--
0000|00|--
0000|10|--
0000|00|--
--
laserrange_r=1x
0000|00|-m
0000|00|-:
0000|00|-2
0000|00|-l
--
0000|10|--
0000|00|--
0000|01|--
0000|00|--
--
laserrange_l=1x
0000|00|2-
0000|00|:-
0000|00|m-
0000|00|2-
--
0000|01|--
0000|00|--
0000|10|--
0000|00|--
--
laserrange_r=1x
0000|00|-m
0000|00|-:
0000|00|-2
0000|00|-l
--
0000|10|--
0000|00|--
0000|01|--
0000|00|--
--
0000|10|--
0000|01|--
0000|10|--
0000|00|--
--
laserrange_r=1x
0000|00|-m
0000|00|-2
--
0000|00|-m
0000|00|-:
0000|00|-:
0000|00|-2
--
laserrange_l=1x
0000|00|2-
0000|00|m-
--
0000|00|2-
0000|00|:-
0000|00|:-
0000|00|l-
--
0011|00|--
1100|00|--
--
0011|00|--
--
0000|10|--
0000|01|--
--
0000|10|--
0000|10|--
0000|10|--
0000|00|--
--
laserrange_r=1x
0000|00|-m
0000|00|-2
0000|00|--
0000|00|--
0000|00|--
0000|00|--
0000|00|--
0000|00|--
0000|00|--
0000|00|--
0000|00|--
0000|00|--
0000|00|--
0000|00|--
0000|00|--
0000|00|--
0000|00|--
0000|00|--
0000|00|--
0000|00|--
0000|00|--
0000|00|--
0000|00|--
0000|00|--
0000|00|--
0000|00|--
0000|00|--
0000|00|--
0000|00|--
0000|00|--
0000|00|--
0000|00|--
--
0000|00|--
--
laserrange_l=1x
0000|00|2-
0000|00|:-
0000|00|:-
0000|00|l-
--
laserrange_r=1x
0000|00|-m
0000|00|-:
0000|00|-:
0000|00|-2
--
0000|10|--
0000|01|--
--
0000|10|--
0000|01|--
--
0000|10|--
0000|00|--
0000|10|--
0000|00|--
--
laserrange_r=1x
0000|00|-m
--
0000|00|-2
0000|00|-m
0000|00|--
0000|00|--
0000|00|--
0000|00|--
0000|00|--
0000|00|--
0000|00|--
0000|00|--
0000|00|--
0000|00|--
0000|00|--
0000|00|--
0000|00|--
0000|00|--
0000|00|--
0000|00|--
0000|00|--
0000|00|--
0000|00|--
0000|00|--
0000|00|--
0000|00|--
0000|00|--
0000|00|--
0000|00|--
0000|00|--
0000|00|--
0000|00|--
0000|00|--
0000|00|--
--
laserrange_l=1x
0000|00|2-
0000|00|m-
0000|00|--
0000|00|--
0000|00|--
0000|00|--
0000|00|--
0000|00|--
0000|00|--
0000|00|--
0000|00|--
0000|00|--
0000|00|--
0000|00|--
0000|00|--
0000|00|--
0000|00|--
0000|00|--
0000|00|--
0000|00|--
0000|00|--
0000|00|--
0000|00|--
0000|00|--
0000|00|--
0000|00|--
0000|00|--
0000|00|--
0000|00|--
0000|00|--
0000|00|--
0000|00|--
--
laserrange_r=1x
0000|00|-m
0000|00|-2
0000|00|--
0000|00|--
0000|00|--
0000|00|--
0000|00|--
0000|00|--
0000|00|--
0000|00|--
0000|00|--
0000|00|--
0000|00|--
0000|00|--
0000|00|--
0000|00|--
0000|10|--
0000|10|--
0000|10|--
0000|10|--
0000|10|--
0000|10|--
0000|10|--
0000|10|--
0000|10|--
0000|10|--
0000|10|--
0000|10|--
0000|10|--
0000|10|--
0000|10|--
0000|10|--
--
0000|01|--
0000|10|--
--
0011|00|--
1100|00|--
--
0011|00|--
1100|00|--
--
laserrange_r=1x
0000|00|-m
--
0000|00|-2
0000|00|-m
0000|00|--
0000|00|--
0000|00|--
0000|00|--
0000|00|--
0000|00|--
0000|00|--
0000|00|--
0000|00|--
0000|00|--
0000|00|--
0000|00|--
0000|00|--
0000|00|--
0000|00|--
0000|00|--
0000|00|--
0000|00|--
0000|00|--
0000|00|--
0000|00|--
0000|00|--
0000|00|--
0000|00|--
0000|00|--
0000|00|--
0000|00|--
0000|00|--
0000|00|--
0000|00|--
--
1000|00|--
1000|00|--
1000|00|--
1000|00|--
--
0001|00|--
0001|00|--
0001|00|--
0001|00|--
--
0100|00|--
0100|00|--
0100|00|--
0100|00|--
--
0010|00|--
0010|00|--
0000|10|--
0000|10|--
--
0001|00|--
0001|00|--
0001|00|--
0001|00|--
--
1000|00|--
1000|00|--
1000|00|--
1000|00|--
--
0000|01|--
0000|10|--
0000|01|--
0000|00|--
--
laserrange_l=1x
0000|00|2-
0000|00|:-
0000|00|:-
0000|00|l-
--
0001|00|--
0001|00|--
0001|00|--
0001|00|--
--
0000|10|--
0000|01|--
0000|10|--
0000|00|--
--
0010|00|--
0010|00|--
0010|00|--
0010|00|--
--
0000|10|--
0000|01|--
0000|10|--
0000|00|--
--
laserrange_r=1x
0000|00|-m
0000|00|-:
0000|00|-:
0000|00|-2
--
laserrange_l=1x
0000|00|2-
0000|00|:-
0000|00|:-
0000|00|l-
--
0000|01|--
0000|00|--
0000|10|--
0000|00|--
--
laserrange_r=2x
0000|00|-b
--
0000|00|-7
0000|00|-:
0000|00|-b
0000|00|-7
--
laserrange_l=2x
0000|00|C-
0000|00|:-
0000|00|h-
0000|00|C-
--
laserrange_r=2x
0000|00|-b
0000|00|-6
--
0000|00|-b
--
0000|00|-7
0000|00|-:
0000|00|-b
0000|00|-7
--
laserrange_l=2x
0000|00|C-
0000|00|:-
0000|00|h-
0000|00|C-
--
laserrange_r=2x
0000|00|-b
0000|00|-6
--
0000|00|-b
0000|00|-:
0000|00|-:
0000|00|-C
--
laserrange_l=1x
0000|00|2-
0000|00|:-
0000|00|:-
0000|00|l-
--
0000|02|:-
0000|20|:-
--
0000|02|:-
0000|20|:-
--
0001|00|:-
0001|00|:-
0001|00|:-
0001|00|:-
--
0000|10|:-
--
0000|11|:-
0000|11|:-
0000|11|:-
0000|00|:-
--
0001|00|:-
0001|00|:-
0001|00|:-
0000|10|:-
--
0010|00|:-
0010|00|:-
0010|00|:-
0000|10|:-
--
0001|00|:-
0001|00|:-
0001|00|:-
0000|10|:-
--
0001|00|:-
0001|00|:-
1000|00|:-
1000|00|:-
--
0001|00|:-
0001|00|:-
1000|00|:-
1000|00|:-
--
laserrange_r=1x
0000|00|:m
0000|00|:2
--
0000|00|:m
--
0000|00|:2
0000|00|:m
0000|00|::
0000|00|::
0000|00|::
0000|00|::
0000|00|::
0000|00|::
0000|00|::
0000|00|::
0000|00|::
0000|00|::
0000|00|::
0000|00|::
0000|00|::
0000|00|::
0000|00|::
0000|00|::
0000|00|::
0000|00|::
0000|00|::
0000|00|::
0000|00|::
0000|00|::
0000|00|::
0000|00|::
0000|00|::
0000|00|::
0000|00|::
0000|00|::
0000|00|::
0000|00|::
--
0000|00|::
--
