title=TRIGGER★HAPPY
artist=P*Light
effect=ユカリ☆chan
jacket=001_0120_1_b.jpg
illustrator=はちぷよ
difficulty=light
level=5
t=185
m=TRIGGER HAPPY_lt_f.ogg;TRIGGER HAPPY_lt_f.ogg
o=0
bg=desert
layer=arrow
po=0
plength=15000
pfiltergain=50
filtertype=peak
chokkakuvol=50
pfilterdelay=0
information=By MasakaWillKillMe
ver=140d
--
beat=4/4
0000|00|--
--
0010|00|--
0000|00|--
0000|00|--
0010|00|--
0000|00|--
0000|00|--
1000|00|--
0000|00|--
--
0010|00|--
0000|00|--
0000|00|--
0000|00|--
0000|00|--
0000|00|--
0010|00|--
0000|00|--
0000|00|--
0000|00|--
0000|00|--
0000|00|--
0000|F0|--
0000|F0|--
0000|F0|--
0000|F0|--
--
0010|00|--
0000|00|--
0000|00|--
0000|00|--
0000|00|--
0000|00|--
0010|00|--
0000|00|--
0000|00|--
0000|00|--
0000|00|--
0000|00|--
1000|00|--
0000|00|--
0000|00|--
0000|00|--
--
0000|00|-o
0000|00|-:
--
0100|00|-0
0000|00|--
0000|00|--
0000|00|--
0000|00|--
0000|00|--
0100|00|--
0000|00|--
0000|00|--
0000|00|--
0000|00|--
0000|00|--
1000|00|--
0000|00|--
0000|00|--
0000|00|--
--
0000|0F|--
0000|0F|--
0000|00|--
0000|00|--
0000|0F|--
0000|0F|--
0000|00|--
0000|00|--
--
0100|00|--
0100|00|--
0010|00|--
0010|00|--
--
0001|00|--
0001|00|--
0001|00|--
1000|00|--
--
0010|00|--
0100|00|--
0010|00|--
0000|00|--
--
0100|00|--
0001|00|--
0100|00|--
0000|00|--
--
0010|00|--
0100|00|--
0010|00|--
0000|00|--
--
0000|00|--
1000|00|--
0000|00|--
0001|00|--
0000|00|--
1000|00|--
1000|00|--
0000|00|--
--
0010|00|--
0100|00|--
0010|00|--
0000|00|--
--
0100|00|--
0001|00|--
0100|00|--
0000|00|--
--
0010|00|--
0000|00|--
0100|00|--
0000|00|--
0000|0H|--
0000|0H|--
0000|0H|--
0000|0H|--
--
1000|00|--
0000|00|--
1000|00|--
0000|00|--
1000|00|--
0000|00|--
0000|0F|--
0000|0F|--
--
0100|00|--
0000|00|--
0000|00|--
0000|00|--
0000|00|--
0000|00|--
0100|00|--
0000|00|--
0000|00|--
0000|00|--
0000|00|--
0000|00|--
0001|00|--
0000|00|--
0000|00|--
0000|00|--
--
0010|00|--
0000|00|--
0000|00|--
0010|00|--
0000|00|--
0000|00|--
1000|00|--
0000|00|--
--
0100|00|--
0000|00|--
0000|00|--
0100|00|--
0000|00|--
0000|00|--
0001|00|--
0000|00|--
--
0000|H0|--
0000|H0|--
0000|H0|--
0000|H0|--
0010|00|--
0000|00|--
0010|00|--
0000|00|--
--
0001|00|--
0000|00|--
0000|00|--
0001|00|--
0000|00|--
0000|00|--
0010|00|--
0000|00|--
--
0000|00|0-
0000|00|:-
0000|00|:-
0000|00|:-
0000|00|:-
0000|00|:-
0000|00|o-
0000|00|--
--
0001|00|--
0010|00|--
0100|00|--
1000|00|--
--
0001|00|--
0000|00|--
0000|00|--
0000|00|--
0000|00|--
0000|00|--
0000|00|--
0000|00|--
0000|00|--
0000|00|--
0000|00|--
0000|00|--
0000|00|--
0000|00|--
0000|00|--
0000|00|--
0001|00|--
0000|00|--
0000|00|--
0000|00|--
0000|00|--
0000|00|--
0000|00|--
0000|00|--
0000|00|--
0000|00|--
0000|00|--
0000|00|--
0000|00|--
0000|00|--
0000|00|--
0000|00|--
0000|0F|--
0000|0F|--
0000|0F|--
0000|0F|--
0000|0F|--
0000|0F|--
0000|0F|--
0000|0F|--
0000|0F|--
0000|0F|--
0000|0F|--
0000|0F|--
0000|0F|--
0000|0F|--
0000|0F|--
0000|0F|--
0000|00|0-
0000|00|:-
0000|00|o-
0000|00|--
0000|00|--
0000|00|--
0000|00|--
0000|00|--
0000|00|--
0000|00|--
0000|00|--
0000|00|--
0000|00|--
0000|00|--
0000|00|--
0000|00|--
--
0010|00|--
0000|00|--
0000|00|--
0000|00|--
0010|00|--
0000|00|--
0100|00|--
0000|00|--
0000|00|--
0000|00|--
0100|00|--
0000|00|--
0000|00|--
0000|00|--
0000|F0|--
0000|F0|--
--
0000|F0|--
0000|F0|--
0000|F0|--
0000|F0|--
0000|F0|--
0000|F0|--
0000|00|--
0000|00|--
--
0000|00|--
--
1000|00|--
0100|00|--
0010|00|--
0001|00|--
--
0000|00|0-
0000|00|:-
--
0000|00|do
0000|00|::
--
0000|00|0D
0000|00|::
--
0000|00|do
0000|00|:-
0000|00|0-
0000|00|--
--
1010|00|--
0000|00|--
0000|00|--
1010|00|--
0000|00|--
0000|00|--
0000|00|--
0000|00|--
--
0100|00|--
0100|00|--
0000|00|--
0000|00|--
0010|00|--
0000|00|--
0001|00|--
0000|00|--
--
1010|00|--
0000|00|--
0000|00|--
1010|00|--
0000|00|--
0000|00|--
0000|00|--
0000|00|--
--
0000|0S|--
0000|0S|--
0000|0S|--
0000|0S|--
0000|00|--
0000|00|--
1000|00|--
0000|00|--
--
0000|00|--
0000|00|--
0000|I0|--
0000|I0|--
--
0010|00|--
0000|00|--
0010|00|--
0000|00|--
0001|00|--
0000|00|--
0000|00|--
0000|00|--
--
0000|00|--
0000|00|--
0000|0I|--
0000|0I|--
--
0100|00|--
0000|00|--
0100|00|--
0000|00|--
1000|00|--
0000|00|--
0000|00|--
0000|00|--
--
0010|00|--
0000|00|--
0000|00|--
1000|00|--
0000|00|--
0000|00|--
0100|00|--
0000|00|--
--
0010|00|--
0000|00|--
0000|00|--
0001|00|--
0000|00|--
0010|00|--
0100|00|--
0000|00|--
--
0000|00|--
0000|00|--
1000|00|--
0000|00|--
0000|00|--
0010|00|--
0000|00|--
0000|00|--
1000|00|--
0000|00|--
0000|00|--
0010|00|--
0000|00|--
0000|00|--
1000|00|--
0000|00|--
--
0000|00|--
0000|00|--
0001|00|--
0000|00|--
0000|00|--
0100|00|--
0000|00|--
0000|00|--
0001|00|--
0000|00|--
0000|00|--
0100|00|--
0000|00|--
0000|00|--
0001|00|--
0000|00|--
--
0000|00|--
0000|00|--
0000|00|--
0000|00|--
0000|00|--
0000|00|--
0000|00|-o
0000|00|-:
--
0000|00|-:
0000|00|-:
0000|00|-:
0000|00|-:
0000|00|-:
0000|00|-:
0000|00|-0
0000|00|--
--
0100|00|--
0100|00|--
--
0010|00|--
0010|00|--
--
0100|00|--
0100|00|--
--
0001|00|--
0001|00|--
--
1000|00|--
1000|00|--
--
0010|00|--
0010|00|--
--
0000|T0|--
0000|T0|--
0000|00|--
0000|00|--
0000|0H|--
0000|0H|--
0000|00|--
0000|00|--
--
0010|00|--
0010|00|--
0000|00|--
1000|00|--
--
0001|00|--
0000|00|--
0000|00|--
0001|00|--
0000|00|--
0000|00|--
0100|00|--
0000|00|--
--
0010|00|--
0000|00|--
0000|00|--
0010|00|--
0000|00|--
0000|00|--
1000|00|--
0000|00|--
--
0001|00|--
0000|00|--
0000|00|--
0001|00|--
0000|00|--
0000|00|--
0100|00|--
0000|00|--
--
0010|00|--
0000|00|--
0010|00|--
0000|00|--
0000|H0|--
0000|H0|--
0000|H0|--
0000|H0|--
--
0001|00|--
0000|00|--
0010|00|--
0000|00|--
--
0100|00|--
1000|00|--
--
0100|00|--
0000|00|--
0100|00|--
0000|00|--
0000|0H|--
0000|0H|--
0000|0H|--
0000|0H|--
--
0000|00|--
0000|00|--
0000|00|--
0000|00|--
0000|00|--
0000|00|--
0000|00|--
0000|00|--
0000|00|--
0000|00|--
0000|00|--
0000|00|--
0000|00|--
0000|00|--
0000|00|--
0000|00|--
0000|00|--
0000|00|--
0000|00|--
0000|00|--
0000|00|--
0000|00|--
0000|00|--
0000|00|--
0000|00|--
0000|00|--
0000|00|--
0000|00|--
0000|00|--
0000|00|--
0000|00|--
0000|00|--
0000|00|--
0000|00|--
0000|00|--
0000|00|--
0000|00|--
0000|00|--
0000|00|--
0000|00|--
0000|00|--
0000|00|--
0000|00|--
0000|00|--
0000|00|--
0000|00|--
0000|00|--
0000|00|--
0000|00|0-
0000|00|:-
0000|00|o-
0000|00|--
0000|00|--
0000|00|--
0000|00|--
0000|00|--
0000|00|--
0000|00|--
0000|00|--
0000|00|--
0000|00|--
0000|00|--
0000|00|--
0000|00|--
--
0001|00|--
0001|00|--
--
0100|00|--
0100|00|--
--
0000|00|-o
0000|00|-:
--
0000|00|-0
0000|00|--
0000|00|--
0000|00|--
0000|00|--
0000|00|--
1000|00|--
0000|00|--
--
0001|00|--
0100|00|--
0001|00|--
0000|00|--
--
0100|00|--
0010|00|--
0100|00|--
0000|00|--
--
0001|00|--
0100|00|--
0001|00|--
0000|00|--
--
0000|00|--
1000|00|--
0000|00|--
0001|00|--
0000|00|--
1000|00|--
1000|00|--
0000|00|--
--
0010|00|--
1000|00|--
0010|00|--
0000|00|--
--
0100|00|--
0001|00|--
0100|00|--
0000|00|--
--
0010|00|--
0010|00|--
0100|00|--
0100|00|--
--
1000|00|--
0000|00|--
1000|00|--
0000|00|--
1000|00|--
0000|00|--
0000|0F|--
0000|0F|--
--
0100|00|--
0000|00|--
0000|00|--
0000|00|--
0000|00|--
0000|00|--
0100|00|--
0000|00|--
0000|00|--
0000|00|--
0000|00|--
0000|00|--
0001|00|--
0000|00|--
0000|00|--
0000|00|--
--
1000|00|--
0000|00|--
0000|00|--
1000|00|--
0000|00|--
0000|00|--
0001|00|--
0000|00|--
--
0100|00|--
0000|00|--
0000|00|--
0100|00|--
0000|00|--
0000|00|--
0001|00|--
0000|00|--
--
0010|00|--
0000|00|--
0010|00|--
0000|00|--
0000|H0|--
0000|H0|--
0000|H0|--
0000|H0|--
--
0001|00|--
0000|00|--
0000|00|--
0000|00|--
0000|00|--
0000|00|--
0001|00|--
0000|00|--
0000|00|--
0000|00|--
0000|00|--
0000|00|--
0010|00|--
0000|00|--
0000|00|--
0000|00|--
--
0000|00|0-
0000|00|:-
0000|00|:-
0000|00|:-
0000|00|:-
0000|00|:-
0000|00|o-
0000|00|--
--
0010|00|--
0010|00|--
0100|00|--
0100|00|--
--
0000|00|--
0000|00|--
0000|00|--
0000|00|--
0001|00|--
0000|00|--
0010|00|--
0000|00|--
0000|F0|--
0000|F0|--
0000|F0|--
0000|F0|--
0000|00|--
0000|00|--
0000|00|--
0000|00|--
--
0000|00|-o
0000|00|-:
--
0000|00|-:
--
0000|00|-0
0000|00|--
--
