title=snow storm -euphoria-
artist=Yooh
effect=TEK-A-RHYTHM
jacket=002_0214_1_b.jpg
illustrator=蒼弐
difficulty=light
level=5
t=89-180
m=Snow storm -euphoria-_lt_f.ogg;Snow storm -euphoria-_lt_f.ogg
o=0
bg=desert
layer=arrow
po=48000
plength=15000
pfiltergain=50
filtertype=peak
chokkakuvol=50
pfilterdelay=0
information=By MasakaWillKillMe
icon=../voltex2.png
ver=140d
--
beat=4/4
t=180
0000|00|--
--
0000|00|--
--
0001|00|--
0010|00|--
--
0100|00|--
1000|00|--
--
0000|0I|--
0000|0I|--
0000|00|--
0000|00|--
0000|S0|--
0000|S0|--
0000|00|--
0000|00|--
--
0000|0I|--
0000|0I|--
0000|00|--
0000|00|--
0000|T0|--
0000|T0|--
0000|00|--
0000|00|--
--
0010|00|--
0100|00|--
--
1000|00|--
0001|00|--
--
0000|I0|--
0000|I0|--
0000|00|--
0000|00|--
0000|0S|--
0000|0S|--
0000|00|--
0000|00|--
--
0000|I0|--
0000|I0|--
0000|00|--
0000|00|-- fx-r_param1=50
0000|0A|--
0000|0A|--
0000|00|--
0000|00|--
--
0100|00|--
0010|00|--
--
0001|00|--
1000|00|--
--
0010|00|--
0100|00|--
--
0001|00|--
0001|00|--
0001|00|--
0001|00|--
--
0000|S0|--
0000|S0|--
0000|00|--
0000|00|--
0000|T0|--
0000|T0|--
0000|00|--
0000|00|--
--
0000|0S|--
0000|0S|--
0000|00|--
0000|00|--
0000|0V|--
0000|0V|--
0000|00|--
0000|00|--
--
0000|00|0-
0000|00|:-
0000|00|:-
0000|00|:-
0000|00|:-
0000|00|:-
0000|00|o-
0000|00|--
--
0001|00|--
0000|00|--
0000|00|--
0000|00|--
0000|00|--
0000|00|--
0000|00|--
0000|00|--
0000|00|--
0000|00|--
0000|00|--
0000|00|--
0000|00|--
0000|00|--
0000|00|--
0000|00|--
0001|00|--
0000|00|--
0000|00|--
0000|00|--
0000|00|--
0000|00|--
0000|00|--
0000|00|--
0000|00|--
0000|00|--
0000|00|--
0000|00|--
0000|00|--
0000|00|--
0000|00|--
0000|00|--
0001|00|--
0000|00|--
0000|00|--
0000|00|--
0000|00|--
0000|00|--
0000|00|--
0000|00|--
0000|00|--
0000|00|--
0000|00|--
0000|00|--
0000|00|--
0000|00|--
0000|00|--
0000|00|--
0000|00|0-
0000|00|:-
0000|00|o-
0000|00|--
0000|00|--
0000|00|--
0000|00|--
0000|00|--
0000|00|--
0000|00|--
0000|00|--
0000|00|--
0000|00|--
0000|00|--
0000|00|--
0000|00|--
--
0000|00|--
--
0000|00|--
--
1000|00|--
--
0100|00|--
--
0010|00|--
0001|00|--
--
0100|00|--
0001|00|--
--
0000|00|0-
0000|00|:-
0000|00|:-
0000|00|:-
0000|00|:-
0000|00|:-
0000|00|o-
0000|00|--
--
0000|00|-o
0000|00|-:
0000|00|-:
0000|00|-:
0000|00|-:
0000|00|-:
0000|00|-0
0000|00|--
--
0000|00|0-
0000|00|:-
0000|00|:-
0000|00|:-
0000|00|:-
0000|00|:-
0000|00|o-
0000|00|:-
--
0000|00|o-
0000|00|:-
0000|00|:-
0000|00|:-
0000|00|:-
0000|00|:-
0000|00|0-
0000|00|--
--
0000|0D|--
0000|0D|--
0000|00|--
0000|00|--
--
0000|I0|--
0000|I0|--
0000|00|--
0000|00|--
--
0000|0H|--
0000|0H|--
0000|00|--
0000|00|--
--
0000|T0|--
0000|T0|--
0000|00|--
0000|00|--
0000|V0|--
0000|V0|--
0000|00|--
0000|00|--
--
0010|00|--
0010|00|--
0010|00|--
0010|00|--
--
0100|00|--
0100|00|--
0100|00|--
0100|00|--
--
1000|00|--
0001|00|--
1000|00|--
0001|00|--
--
0000|X0|--
0000|X0|--
--
0000|00|--
0000|00|--
--
0000|0F|--
0000|0F|--
0000|00|--
0000|00|--
0000|S0|--
0000|S0|--
0000|00|--
0000|00|--
--
0000|0F|--
0000|0F|--
0000|00|--
0000|00|--
0000|T0|--
0000|T0|--
0000|00|--
0000|00|--
--
0000|0F|--
0000|0F|--
0000|00|--
0000|00|--
0000|0F|--
0000|0F|--
0000|00|--
0000|00|--
--
0000|T0|--
0000|T0|--
0000|00|--
0000|00|-- fx-r_param1=10
0000|0B|--
0000|0B|--
0000|00|--
0000|00|--
--
0100|00|--
0100|00|--
0100|00|--
0100|00|--
--
0010|00|--
0010|00|--
0010|00|--
0010|00|--
--
1000|00|--
1000|00|--
1000|00|--
1000|00|--
--
0000|00|-o
0000|00|-:
0000|00|-:
0000|00|-:
0000|00|-:
0000|00|-:
0000|00|-0
0000|00|--
--
0000|F0|--
0000|F0|--
0000|00|--
0000|00|--
0000|0S|--
0000|0S|--
0000|00|--
0000|00|--
--
0000|F0|--
0000|F0|--
0000|00|--
0000|00|--
0000|0T|--
0000|0T|--
0000|00|--
0000|00|--
-- fx-l_param1=10
0000|B0|--
0000|B0|--
0000|00|--
0000|00|--
0000|I0|--
0000|I0|--
0000|00|--
0000|00|--
--
0000|0V|--
0000|0V|--
0000|00|--
0000|00|--
0000|T0|--
0000|T0|--
0000|00|--
0000|00|--
--
filtertype=hpf1
0000|00|-o
0000|00|-:
0000|00|-:
0000|00|-:
0000|00|-:
0000|00|-:
0000|00|-0
0000|00|--
--
0000|00|0-
0000|00|:-
0000|00|:-
0000|00|:-
0000|00|:-
0000|00|:-
0000|00|o-
0000|00|--
--
0000|00|-o
0000|00|-:
0000|00|-:
0000|00|-:
0000|00|-:
0000|00|-:
0000|00|-0
0000|00|-:
--
0000|00|-0
0000|00|-:
0000|00|-:
0000|00|-:
0000|00|-:
0000|00|-:
0000|00|-o
0000|00|--
--
1000|00|--
0001|00|--
--
0100|00|--
0010|00|--
--
1000|00|--
0001|00|--
--
0100|00|--
0100|00|--
0100|00|--
0100|00|--
--
0000|0I|--
0000|0I|--
0000|00|--
0000|00|--
--
0000|T0|--
0000|T0|--
0000|00|--
0000|00|--
--
0001|00|--
0001|00|--
0010|00|--
0010|00|--
--
0100|00|--
0100|00|--
1000|00|--
1000|00|--
--
0001|00|--
0001|00|--
0010|00|--
0010|00|--
--
filtertype=peak
0000|00|0-
0000|00|:-
0000|00|:-
0000|00|:-
0000|00|:-
0000|00|:-
0000|00|o-
0000|00|:-
--
beat=2/4
0000|00|o-
0000|00|:-
0000|00|0-
0000|00|--
0000|00|--
0000|00|--
0000|00|--
0000|00|--
0000|00|--
0000|00|--
0000|00|--
0000|00|--
0000|00|--
0000|00|--
0000|00|--
0000|00|--
0000|00|--
0000|00|--
0000|00|--
0000|00|--
0000|00|--
0000|00|--
0000|00|--
0000|00|--
0000|00|--
0000|00|--
0000|00|--
0000|00|--
0000|00|--
0000|00|--
0000|00|--
0000|00|--
--
beat=4/4
0000|00|-o
0000|00|-:
0000|00|-:
0000|00|-:
0000|00|-:
0000|00|-:
0000|00|-0
0000|00|--
--
0000|00|0-
0000|00|:-
0000|00|:-
0000|00|:-
0000|00|:-
0000|00|:-
0000|00|o-
0000|00|--
--
filtertype=hpf1
0000|00|-o
0000|00|-:
0000|00|-:
0000|00|-:
0000|00|-:
0000|00|-:
0000|00|-0
0000|00|-:
--
0000|00|-0
0000|00|-:
0000|00|-o
0000|00|-:
--
0000|00|-0
0000|00|-:
0000|00|-:
0000|00|-:
0000|00|-:
0000|00|-:
0000|00|-o
0000|00|--
--
filtertype=peak
0000|00|0-
0000|00|:-
0000|00|:-
0000|00|:-
0000|00|:-
0000|00|:-
0000|00|o-
0000|00|:-
--
0000|00|o-
0000|00|:-
0000|00|0-
0000|00|:-
--
0000|00|o-
0000|00|:-
0000|00|:-
0000|00|:-
0000|00|:-
0000|00|:-
0000|00|0-
0000|00|--
--
0000|0H|--
0000|0H|--
0000|00|--
0000|00|--
--
0000|S0|--
0000|S0|--
0000|00|--
0000|00|--
--
0000|0T|--
0000|0T|--
0000|00|--
0000|00|--
0000|0I|--
0000|0I|--
0000|00|--
0000|00|--
--
0000|V0|--
0000|V0|--
0000|00|--
0000|00|-- fx-r_param1=10
0000|0B|--
0000|0B|--
0000|00|--
0000|00|--
--
0000|00|0-
0000|00|:-
0000|00|o-
0000|00|--
0000|00|--
0000|00|--
0000|00|--
0000|00|--
0000|00|--
0000|00|--
0000|00|--
0000|00|--
0000|00|--
0000|00|--
0000|00|--
0000|00|--
0000|00|--
0000|00|--
0000|00|--
0000|00|--
0000|00|--
0000|00|--
0000|00|--
0000|00|--
0000|00|--
0000|00|--
0000|00|--
0000|00|--
0000|00|--
0000|00|--
0000|00|--
0000|00|--
0000|00|--
0000|00|--
0000|00|--
0000|00|--
0000|00|--
0000|00|--
0000|00|--
0000|00|--
0000|00|--
0000|00|--
0000|00|--
0000|00|--
0000|00|--
0000|00|--
0000|00|--
0000|00|--
0000|00|--
0000|00|--
0000|00|--
0000|00|--
0000|00|--
0000|00|--
0000|00|--
0000|00|--
0000|00|--
0000|00|--
0000|00|--
0000|00|--
0000|00|--
0000|00|--
0000|00|--
0000|00|--
--
0000|00|-o
0000|00|-:
0000|00|-0
0000|00|--
0000|00|--
0000|00|--
0000|00|--
0000|00|--
0000|00|--
0000|00|--
0000|00|--
0000|00|--
0000|00|--
0000|00|--
0000|00|--
0000|00|--
0000|00|--
0000|00|--
0000|00|--
0000|00|--
0000|00|--
0000|00|--
0000|00|--
0000|00|--
0000|00|--
0000|00|--
0000|00|--
0000|00|--
0000|00|--
0000|00|--
0000|00|--
0000|00|--
0000|00|--
0000|00|--
0000|00|--
0000|00|--
0000|00|--
0000|00|--
0000|00|--
0000|00|--
0000|00|--
0000|00|--
0000|00|--
0000|00|--
0000|00|--
0000|00|--
0000|00|--
0000|00|--
0000|00|--
0000|00|--
0000|00|--
0000|00|--
0000|00|--
0000|00|--
0000|00|--
0000|00|--
0000|00|--
0000|00|--
0000|00|--
0000|00|--
0000|00|--
0000|00|--
0000|00|--
0000|00|--
--
1000|00|--
1000|00|--
0100|00|--
0100|00|--
--
0010|00|--
0010|00|--
0001|00|--
0001|00|--
--
0000|T0|--
0000|T0|--
0000|00|--
0000|00|--
0000|0T|--
0000|0T|--
0000|00|--
0000|00|--
--
0220|00|--
0220|00|--
--
0220|00|--
--
t=130
0000|00|--
0000|00|--
--
1000|00|--
0100|00|--
--
beat=1/4
0001|00|--
--
0000|00|--
--
t=103
0010|00|--
--
t=89
0000|00|--
--
beat=4/4
0100|00|--
1000|00|--
--
