title=幸せになれる隠しコマンドがあるらしい
artist=うたたP feat. 結月ゆかり
effect=ユカリ☆ごましお
jacket=command.png
illustrator=wogura
difficulty=light
level=6
t=142
m=nov.ogg;nov.ogg
o=613
bg=mars
layer=tex_moon2_m
po=0
plength=15000
pfiltergain=50
filtertype=fx;bitc
chokkakuvol=50
ver=140d
--
beat=4/4
0001|00|--
0001|00|--
0001|00|--
0001|00|--
--
0010|00|--
0010|00|--
0010|00|--
0010|00|--
--
0100|00|--
0100|00|--
0100|00|--
0100|00|--
--
1000|00|--
1000|00|--
1000|00|--
1000|00|--
--
0001|00|--
0000|00|--
0000|10|--
0000|10|--
0000|01|--
0000|01|--
0001|00|--
0000|00|--
--
0001|00|--
0000|00|--
0000|10|--
0000|10|--
0001|00|--
0000|00|--
0001|00|--
0000|00|--
--
0000|10|--
0000|10|--
0000|01|--
0000|01|--
--
1000|00|--
0000|00|--
0001|00|--
0000|00|--
1000|00|--
0000|00|--
0001|00|--
0000|00|--
--
0001|00|--
0000|00|--
0000|10|--
0000|10|--
0000|01|--
0000|01|--
0001|00|--
0000|00|--
--
0001|00|--
0000|00|--
0000|10|--
0000|10|--
0001|00|--
0000|00|--
0001|00|--
0000|00|--
--
0000|10|--
0000|10|--
0000|01|--
0000|01|--
--
1000|00|--
0000|00|--
0001|00|--
0000|00|--
1000|00|--
0000|00|--
0001|00|--
0000|00|--
--
0001|00|--
0000|00|--
0000|10|--
0000|10|--
0000|10|--
0000|10|--
0000|00|--
0000|00|--
--
0001|00|--
0000|00|--
0000|10|--
0000|10|--
0000|10|--
0000|10|--
0001|00|--
0000|00|--
--
0000|10|--
0000|10|--
0000|01|--
0000|01|--
--
zoom_top=0
zoom_bottom=0
0000|10|--
0000|10|--
--
zoom_top=50
zoom_bottom=-50
0000|00|--
0000|00|--
--
0000|01|--
0000|01|--
0000|10|--
0000|10|--
--
0000|01|--
0000|01|--
0000|10|--
0000|10|--
--
0000|01|--
0000|01|--
0000|10|--
0000|10|--
--
1100|00|--
0000|00|--
0011|00|--
0000|00|--
1100|00|--
0000|00|--
0011|00|--
0000|00|--
--
0000|10|--
0000|10|--
0000|01|--
0000|01|--
--
0000|10|--
0000|10|--
0000|01|--
0000|01|--
--
0000|10|--
0000|10|--
0000|01|--
0000|01|--
--
zoom_top=50
zoom_bottom=-50
0000|00|0-@)96
0000|00|:-
0000|00|o-
0000|00|--
0000|00|--
0000|00|--
0000|00|--
0000|00|--
0000|00|--
0000|00|--
0000|00|--
0000|00|--
0000|00|--
0000|00|--
0000|00|--
0000|00|--
zoom_top=0
zoom_bottom=0
0000|00|--
0000|00|--
0000|00|--
0000|00|--
0000|00|--
0000|00|--
0000|00|--
0000|00|--
0000|00|--
0000|00|--
0000|00|--
0000|00|--
0000|00|--
0000|00|--
0000|00|--
0000|00|--
0000|00|--
0000|00|--
0000|00|--
0000|00|--
0000|00|--
0000|00|--
0000|00|--
0000|00|--
0000|00|--
0000|00|--
0000|00|--
0000|00|--
0000|00|--
0000|00|--
0000|00|--
0000|00|--
0000|00|--
0000|00|--
0000|00|--
0000|00|--
0000|00|--
0000|00|--
0000|00|--
0000|00|--
0000|00|--
0000|00|--
0000|00|--
0000|00|--
0000|00|--
0000|00|--
0000|00|--
0000|00|--
--
0000|00|-o
0000|00|-:
0000|00|-0
0000|00|-:
0000|00|-o
0000|00|-:
0000|00|-0
0000|00|--
--
0000|00|0-
0000|00|:-
0000|00|o-
0000|00|:-
0000|00|0-
0000|00|:-
0000|00|o-
0000|00|--
--
0000|00|-o
0000|00|-:
0000|00|-F
0000|00|-:
0000|00|-e
0000|00|-:
0000|00|-F
0000|00|-:
--
0000|00|-e
0000|00|-:
0000|00|-0
0000|00|--
0000|10|--
0000|10|--
0000|10|--
0000|10|--
--
0000|00|-o
0000|00|-:
0000|00|-0
0000|00|-:
0000|00|-o
0000|00|-:
0000|00|-0
0000|00|--
--
0000|00|0-
0000|00|:-
0000|00|o-
0000|00|:-
0000|00|0-
0000|00|:-
0000|00|o-
0000|00|--
--
0000|01|--
0000|01|--
0000|00|--
0000|00|--
0000|01|--
0000|01|--
0000|00|--
0000|00|--
0000|10|--
0000|10|--
0000|00|--
0000|00|--
0000|10|--
0000|10|--
0000|00|--
0000|00|--
--
zoom_bottom=0
0000|01|--
0000|01|--
--
zoom_bottom=100
0000|00|--
0000|00|--
--
0000|00|-o
0000|00|-:
0000|00|AA
0000|00|:-
--
0000|00|ee
0000|00|-:
0000|00|KK
0000|00|:-
--
0000|00|oo
0000|00|-:
0000|00|00
0000|00|:-
--
0000|00|UU
0000|00|-:
0000|00|FF
0000|00|:-
--
0000|00|oo
0000|00|-:
0000|00|FF
0000|00|:-
--
0000|00|ZZ
0000|00|-:
0000|00|00
0000|00|:-
--
0000|00|oo
0000|00|-:
0000|00|00
0000|00|:-
--
zoom_bottom=100
0000|00|o-@(96
0000|00|:-
0000|00|0-
0000|00|--
0000|00|--
0000|00|--
0000|00|--
0000|00|--
0000|00|--
0000|00|--
0000|00|--
0000|00|--
0000|00|--
0000|00|--
0000|00|--
0000|00|--
zoom_bottom=-50
0000|00|--
0000|00|--
0000|00|--
0000|00|--
0000|00|--
0000|00|--
0000|00|--
0000|00|--
0000|00|--
0000|00|--
0000|00|--
0000|00|--
0000|00|--
0000|00|--
0000|00|--
0000|00|--
0000|00|--
0000|00|--
0000|00|--
0000|00|--
0000|00|--
0000|00|--
0000|00|--
0000|00|--
0000|00|--
0000|00|--
0000|00|--
0000|00|--
0000|00|--
0000|00|--
0000|00|--
0000|00|--
0000|00|--
0000|00|--
0000|00|--
0000|00|--
0000|00|--
0000|00|--
0000|00|--
0000|00|--
0000|00|--
0000|00|--
0000|00|--
0000|00|--
0000|00|--
0000|00|--
0000|00|--
0000|00|--
--
zoom_bottom=-50
0000|00|0-
0000|00|:-
0001|00|P-
0000|00|:-
--
zoom_bottom=100
0001|00|0-
0000|00|--
0010|00|--
0000|00|--
0100|00|--
0000|00|--
1000|00|--
0000|00|--
--
zoom_bottom=100
0000|00|-o
0000|00|-:
1000|00|-P
0000|00|-:
--
zoom_bottom=-50
1000|00|-o
0000|00|--
0100|00|--
0000|00|--
0010|00|--
0000|00|--
0001|00|--
0000|00|--
--
zoom_bottom=-50
0000|00|0-
0000|00|:-
0001|00|P-
0000|00|:-
--
zoom_bottom=100
0001|00|0-
0000|00|--
0010|00|--
0000|00|--
0100|00|--
0000|00|--
1000|00|--
0000|00|--
--
zoom_bottom=100
0000|01|--
0000|01|--
0000|01|--
0000|01|--
0001|00|--
0000|00|--
zoom_bottom=0
1000|00|--
0000|00|--
--
0000|01|--
0000|01|--
0000|01|--
0000|01|--
0000|01|--
0000|01|--
0000|00|--
0000|00|--
--
0000|00|0-
0000|00|:-
0000|00|o-
0000|00|--
0000|00|--
0000|00|--
0000|00|--
0000|00|--
0000|00|--
0000|00|--
0000|00|--
0000|00|--
0000|00|--
0000|00|--
0000|00|--
0000|00|--
0000|00|--
0000|00|--
0000|00|--
0000|00|--
0000|00|--
0000|00|--
0000|00|--
0000|00|--
0000|00|--
0000|00|--
0000|00|--
0000|00|--
0000|00|--
0000|00|--
0000|00|--
0000|00|--
1100|00|--
0000|00|--
0000|00|--
0000|00|--
0000|00|--
0000|00|--
0000|00|--
0000|00|--
0000|00|--
0000|00|--
0000|00|--
0000|00|--
0000|00|--
0000|00|--
0000|00|--
0000|00|--
0000|00|--
0000|00|--
0000|00|--
0000|00|--
0000|00|--
0000|00|--
0000|00|--
0000|00|--
0000|00|--
0000|00|--
0000|00|--
0000|00|--
0000|00|--
0000|00|--
0000|00|--
0000|00|--
--
0000|00|-o
0000|00|-:
0000|00|-0
0000|00|--
0000|00|--
0000|00|--
0000|00|--
0000|00|--
0000|00|--
0000|00|--
0000|00|--
0000|00|--
0000|00|--
0000|00|--
0000|00|--
0000|00|--
0000|00|--
0000|00|--
0000|00|--
0000|00|--
0000|00|--
0000|00|--
0000|00|--
0000|00|--
0000|00|--
0000|00|--
0000|00|--
0000|00|--
0000|00|--
0000|00|--
0000|00|--
0000|00|--
0011|00|--
0000|00|--
0000|00|--
0000|00|--
0000|00|--
0000|00|--
0000|00|--
0000|00|--
0000|00|--
0000|00|--
0000|00|--
0000|00|--
0000|00|--
0000|00|--
0000|00|--
0000|00|--
0000|00|--
0000|00|--
0000|00|--
0000|00|--
0000|00|--
0000|00|--
0000|00|--
0000|00|--
0000|00|--
0000|00|--
0000|00|--
0000|00|--
0000|00|--
0000|00|--
0000|00|--
0000|00|--
--
0000|00|0-
0000|00|:-
0000|00|o-
0000|00|--
0000|00|--
0000|00|--
0000|00|--
0000|00|--
0000|00|--
0000|00|--
0000|00|--
0000|00|--
0000|00|--
0000|00|--
0000|00|--
0000|00|--
0000|00|--
0000|00|--
0000|00|--
0000|00|--
0000|00|--
0000|00|--
0000|00|--
0000|00|--
0000|00|--
0000|00|--
0000|00|--
0000|00|--
0000|00|--
0000|00|--
0000|00|--
0000|00|--
1100|00|--
0000|00|--
0000|00|--
0000|00|--
0000|00|--
0000|00|--
0000|00|--
0000|00|--
0000|00|--
0000|00|--
0000|00|--
0000|00|--
0000|00|--
0000|00|--
0000|00|--
0000|00|--
0000|00|--
0000|00|--
0000|00|--
0000|00|--
0000|00|--
0000|00|--
0000|00|--
0000|00|--
0000|00|--
0000|00|--
0000|00|--
0000|00|--
0000|00|--
0000|00|--
0000|00|--
0000|00|--
--
0000|00|-o
0000|00|-:
0000|00|-0
0000|00|--
0000|00|--
0000|00|--
0000|00|--
0000|00|--
0000|00|--
0000|00|--
0000|00|--
0000|00|--
0000|00|--
0000|00|--
0000|00|--
0000|00|--
0000|00|--
0000|00|--
0000|00|--
0000|00|--
0000|00|--
0000|00|--
0000|00|--
0000|00|--
0000|00|--
0000|00|--
0000|00|--
0000|00|--
0000|00|--
0000|00|--
0000|00|--
0000|00|--
0000|01|--
0000|01|--
0000|01|--
0000|01|--
0000|01|--
0000|01|--
0000|01|--
0000|01|--
0000|01|--
0000|01|--
0000|01|--
0000|01|--
0000|01|--
0000|01|--
0000|01|--
0000|01|--
0000|01|--
0000|01|--
0000|01|--
0000|01|--
0000|01|--
0000|01|--
0000|01|--
0000|01|--
0000|01|--
0000|01|--
0000|01|--
0000|01|--
0000|01|--
0000|01|--
0000|01|--
0000|01|--
--
1000|00|--
0000|00|--
1000|00|--
0000|00|--
zoom_top=0
zoom_bottom=0
0000|01|--
0000|01|--
0000|01|--
0000|01|--
--
zoom_top=25
zoom_bottom=-25
1000|00|--
0000|00|--
1000|00|--
0000|00|--
zoom_top=25
zoom_bottom=-25
0000|01|--
0000|01|--
0000|01|--
0000|01|--
--
zoom_top=60
zoom_bottom=-60
1000|00|--
0000|00|--
1000|00|--
0000|00|--
1000|00|--
0000|00|--
1000|00|--
0000|00|--
--
0000|00|-o
0000|00|-:
--
1000|00|-0
0000|00|--
1000|00|--
0000|00|--
0100|00|--
0000|00|--
0010|00|--
0000|00|--
--
0001|00|--
0001|00|--
0010|00|--
0100|00|--
--
1000|00|--
1000|00|--
0100|00|--
0010|00|--
--
0001|00|--
0001|00|--
0010|00|--
0100|00|--
--
1000|00|--
0100|00|--
0010|00|--
0001|00|--
--
1000|00|--
0100|00|--
0010|00|--
0001|00|--
--
1000|00|--
0100|00|--
0010|00|--
0001|00|--
--
zoom_bottom=-60
0000|00|0o
0000|00|::
0000|00|::
0000|00|::
0000|00|::
0000|00|::
zoom_bottom=-30
0000|00|o0
0000|00|--
--
0011|00|--
0000|00|--
0000|00|--
0000|00|--
0000|10|--
0000|10|--
0000|00|--
0000|00|--
0000|01|--
0000|01|--
0000|00|--
0000|00|--
0011|00|--
0000|00|--
0000|00|--
0000|00|--
--
0011|00|--
0000|00|--
0000|00|--
0000|00|--
0000|10|--
0000|10|--
0000|00|--
0000|00|--
0011|00|--
0000|00|--
0000|00|--
0000|00|--
0011|00|--
0000|00|--
0000|00|--
0000|00|--
--
0000|10|--
0000|10|--
0000|00|--
0000|00|--
0000|10|--
0000|10|--
0000|00|--
0000|00|--
0000|01|--
0000|01|--
0000|00|--
0000|00|--
0000|01|--
0000|01|--
0000|00|--
0000|00|--
--
zoom_bottom=-30
1100|00|--
0011|00|--
1100|00|--
zoom_bottom=100
0011|00|--
--
0011|00|--
0000|00|--
0000|00|--
0000|00|--
0000|10|--
0000|10|--
0000|00|--
0000|00|--
0000|01|--
0000|01|--
0000|00|--
0000|00|--
0011|00|--
0000|00|--
0000|00|--
0000|00|--
--
0011|00|--
0000|00|--
0000|00|--
0000|00|--
0000|10|--
0000|10|--
0000|00|--
0000|00|--
0011|00|--
0000|00|--
0000|00|--
0000|00|--
0011|00|--
0000|00|--
0000|00|--
0000|00|--
--
0000|10|--
0000|10|--
0000|00|--
0000|00|--
0000|10|--
0000|10|--
0000|00|--
0000|00|--
0000|01|--
0000|01|--
0000|00|--
0000|00|--
0000|01|--
0000|01|--
0000|00|--
0000|00|--
--
1100|00|--
0011|00|--
1100|00|--
0011|00|--
--
zoom_bottom=100
0000|11|--
0000|11|--
zoom_bottom=0
0000|00|--
0000|00|--
--
