title=幸せになれる隠しコマンドがあるらしい
artist=うたたP feat. 結月ゆかり
effect=ユカリ☆ごましお
jacket=command.png
illustrator=wogura
difficulty=challenge
level=12
t=142
m=adv.ogg;adv.ogg
o=613
bg=mars
layer=tex_moon2_m
po=0
plength=15000
pfiltergain=50
filtertype=fx;bitc
chokkakuvol=50
ver=140d
--
beat=4/4
0011|00|--
0011|00|--
1100|00|--
1100|00|--
--
0011|00|--
0011|00|--
1100|00|--
1100|00|--
--
0000|02|--
0000|02|--
0000|20|--
0000|20|--
--
0000|02|--
0000|02|--
0000|20|--
0000|20|--
--
0000|00|-o
0000|00|-:
0000|00|-0
0000|00|-:
0000|10|-:
0000|10|-:
0000|10|-:
0000|10|-:
0000|10|-:
0000|10|-:
0000|10|-:
0000|10|-:
0000|00|-0
0000|00|-:
0000|00|-o
0000|00|-:
--
0000|00|-o
0000|00|-:
0000|00|-0
0000|00|-:
0000|10|-:
0000|10|-:
0000|10|-:
0000|10|-:
0000|10|-:
0000|10|-:
0000|10|-:
0000|10|-:
0000|00|-0
0000|00|-:
0000|00|-o
0000|00|--
--
1100|00|--
1100|00|--
0000|02|--
0000|02|--
--
0000|00|P-
0000|00|:-
0000|00|0P
0000|00|-:
0000|00|Po
0000|00|:-
0000|00|0P
0000|00|-:
--
0000|00|-o
0000|00|-:
0000|00|-0
0000|00|-:
0000|10|-:
0000|10|-:
0000|10|-:
0000|10|-:
0000|10|-:
0000|10|-:
0000|10|-:
0000|10|-:
0000|00|-0
0000|00|-:
0000|00|-o
0000|00|-:
--
0000|00|-o
0000|00|-:
0000|00|-0
0000|00|-:
0000|10|-:
0000|10|-:
0000|10|-:
0000|10|-:
0000|10|-:
0000|10|-:
0000|10|-:
0000|10|-:
0000|00|-0
0000|00|-:
0000|00|-o
0000|00|--
--
1100|00|--
1100|00|--
0000|02|--
0000|02|--
--
0000|00|P-
0000|00|:-
0000|00|0P
0000|00|-:
0000|00|Po
0000|00|:-
0000|00|0P
0000|00|-:
--
0000|00|-o
0000|00|-:
0000|00|-0
0000|00|-:
0000|10|-:
0000|10|-:
0000|10|-:
0000|10|-:
0000|10|-:
0000|10|-:
0000|10|-:
0000|10|-:
0000|00|-0
0000|00|-:
0000|00|-o
0000|00|-:
--
0000|00|-o
0000|00|-:
0000|00|-0
0000|00|-:
0000|10|-:
0000|10|-:
0000|10|-:
0000|10|-:
0000|10|-:
0000|10|-:
0000|10|-:
0000|10|-:
0000|00|-0
0000|00|-:
0000|00|-o
0000|00|--
--
1100|00|--
1100|00|--
0000|02|--
0000|02|--
--
zoom_top=0
zoom_bottom=0
0000|00|PP
0000|00|::
0000|00|::
0000|00|::
0000|00|::
0000|00|::
zoom_top=50
zoom_bottom=-50
0000|00|0o
0000|00|--
--
1000|01|--
0000|01|--
0100|01|--
0000|01|--
1000|01|--
0000|01|--
0100|01|--
0000|01|--
0000|10|--
0000|10|--
0000|10|--
0000|10|--
0000|10|--
0000|10|--
0000|10|--
0000|10|--
0000|01|--
0000|01|--
0000|01|--
0000|01|--
0000|01|--
0000|01|--
0000|01|--
0000|01|--
0000|10|--
0000|10|--
0000|10|--
0000|10|--
0000|10|--
0000|10|--
0000|10|--
0000|10|--
--
0000|00|-o
0000|00|-:
0000|00|-P
0000|00|-:
0000|10|-:
0000|10|-:
0000|00|-:
0000|00|-:
0000|01|-:
0000|01|-:
0000|00|-:
0000|00|-:
0000|00|-P
0000|00|-:
0000|00|-Z
0000|00|-:
--
0000|00|-Z
0000|00|-:
0000|00|-o
0000|00|-:
0000|10|-:
0000|10|-:
0000|00|-:
0000|00|-:
0000|00|-o
0000|00|-:
0000|00|-Z
0000|00|-:
0000|00|-Z
0000|00|-:
0000|00|-P
0000|00|--
--
0000|10|--
0000|10|--
0000|00|--
0000|00|--
0000|01|--
0000|01|--
0000|00|--
0000|00|--
0000|10|--
0000|10|--
0000|00|--
0000|00|--
0000|01|--
0000|01|--
0000|00|--
0000|00|--
--
0011|00|0-
0000|00|:-
0000|00|o-
0000|00|--
1100|00|-o
0000|00|-:
0000|00|-0
0000|00|--
0011|00|0-
0000|00|:-
0000|00|o-
0000|00|--
1100|00|-o
0000|00|-:
0000|00|-0
0000|00|-:
--
0000|00|-0
0000|00|-:
0000|00|-e
0000|00|-:
0000|10|-:
0000|10|-:
0000|00|-:
0000|00|-:
0000|01|-e
0000|01|-:
0000|00|-:
0000|00|-:
0000|00|-e
0000|00|-:
0000|00|-o
0000|00|-:
--
0000|00|-o
0000|00|-:
0000|00|-e
0000|00|-:
0000|10|-:
0000|10|-:
0000|00|-:
0000|00|-:
0000|00|-e
0000|00|-:
0000|00|-P
0000|00|-:
0000|00|-P
0000|00|-:
0000|00|-o
0000|00|--
--
0000|10|--
0000|10|--
0000|00|--
0000|00|--
0000|01|--
0000|01|--
0000|00|--
0000|00|--
0000|10|--
0000|10|--
0000|00|--
0000|00|--
0000|01|--
0000|01|--
0000|00|--
0000|00|--
--
0000|00|P-
0000|00|:-
0000|00|:-
0000|00|:-
0000|00|:-
0000|00|:-
0000|00|:-
0000|00|:-
0000|00|:-
0000|00|:-
0000|00|:-
0000|00|:-
0000|00|:-
0000|00|:-
0000|00|:-
0000|00|:-
zoom_top=50
zoom_bottom=-50
0000|00|0-@)96
0000|00|:-
0000|00|o-
0000|00|--
0000|00|--
0000|00|--
0000|00|--
0000|00|--
0000|00|--
0000|00|--
0000|00|--
0000|00|--
0000|00|--
0000|00|--
0000|00|--
0000|00|--
zoom_top=0
zoom_bottom=0
0000|00|--
0000|00|--
0000|00|--
0000|00|--
0000|00|--
0000|00|--
0000|00|--
0000|00|--
0000|00|--
0000|00|--
0000|00|--
0000|00|--
0000|00|--
0000|00|--
0000|00|--
0000|00|--
0000|00|--
0000|00|--
0000|00|--
0000|00|--
0000|00|--
0000|00|--
0000|00|--
0000|00|--
0000|00|--
0000|00|--
0000|00|--
0000|00|--
0000|00|--
0000|00|--
0000|00|--
0000|00|--
--
0000|00|-o
0000|00|-:
0000|00|0P
0000|00|::
0000|00|PP
0000|00|::
0000|00|Po
0000|00|::
--
0000|00|0o
0000|00|::
0000|00|0P
0000|00|::
0000|00|PP
0000|00|::
0000|00|Po
0000|00|::
--
0000|00|0o
0000|00|::
0000|00|0P
0000|00|::
0000|00|PP
0000|00|::
0000|00|P0
0000|00|::
--
0000|00|o0
0000|00|::
0000|00|::
0000|00|::
0000|00|oP
0000|00|:-
0000|00|:-
0000|00|:-
0001|00|P-
0000|00|--
0010|00|--
0000|00|--
0100|00|--
0000|00|--
1000|00|--
0000|00|--
--
0000|20|-o
0000|00|-:
0000|00|-:
0000|00|-:
0000|00|-P
0000|00|-:
0000|20|-P
0000|00|-:
0000|00|-:
0000|00|-:
0000|00|-o
0000|00|-:
1100|00|-o
0000|00|-:
0000|00|-:
0000|00|-:
0000|00|-P
0000|00|-:
1100|00|-P
0000|00|-:
0000|00|-:
0000|00|-:
0000|00|-o
0000|00|--
--
0000|02|0-
0000|00|:-
0000|00|:-
0000|00|:-
0000|00|P-
0000|00|:-
0000|02|P-
0000|00|:-
0000|00|:-
0000|00|:-
0000|00|0-
0000|00|:-
0011|00|0-
0000|00|:-
0000|00|:-
0000|00|:-
0000|00|P-
0000|00|:-
0011|00|P-
0000|00|:-
0000|00|:-
0000|00|:-
0000|00|0-
0000|00|--
--
0000|00|-P
0000|00|-:
0000|00|-:
0000|00|-:
0000|00|-:
0000|00|-:
0000|00|-o
0000|00|--
0000|00|P-
0000|00|:-
0000|00|:-
0000|00|:-
0000|00|:-
0000|00|:-
0000|00|0-
0000|00|--
0000|00|-P
0000|00|-:
0000|00|-:
0000|00|-:
0000|00|-:
0000|00|-:
0000|00|-o
0000|00|--
0000|00|P-
0000|00|:-
0000|00|:-
0000|00|:-
0000|00|:-
0000|00|:-
0000|00|0-
0000|00|--
--
zoom_bottom=0
0000|01|--
0000|01|--
0000|11|--
0000|11|--
--
zoom_bottom=100
0000|00|--
0000|00|--
--
0000|00|-P
0000|00|-:
1100|00|-o
0000|00|-:
--
0000|00|PP
0000|00|:-
0011|00|0-
0000|00|:-
--
0000|00|PP
0000|00|-:
1100|00|-o
0000|00|-:
--
0000|00|PP
0000|00|:-
0011|00|0-
0000|00|:-
--
0000|00|PP
0000|00|-:
1100|00|-o
0000|00|-:
0000|00|-P
0000|00|-:
1100|00|-o
0000|00|-:
--
0000|00|PP
0000|00|:-
0011|00|0-
0000|00|:-
0000|00|P-
0000|00|:-
0011|00|0-
0000|00|:-
--
0000|00|PP
0000|00|-:
1100|00|-o
0000|00|-:
0000|00|-P
0000|00|-:
1100|00|-o
0000|00|-:
--
zoom_top=0
zoom_bottom=100
0000|00|-o@(96
0000|00|-:
0000|00|-0
0000|00|--
0000|00|--
0000|00|--
0000|00|--
0000|00|--
0000|00|--
0000|00|--
0000|00|--
0000|00|--
0000|00|--
0000|00|--
0000|00|--
0000|00|--
zoom_top=50
zoom_bottom=-50
0000|00|--
0000|00|--
0000|00|--
0000|00|--
0000|00|--
0000|00|--
0000|00|--
0000|00|--
0000|00|--
0000|00|--
0000|00|--
0000|00|--
0000|00|--
0000|00|--
0000|00|--
0000|00|--
0000|00|--
0000|00|--
0000|00|--
0000|00|--
0000|00|--
0000|00|--
0000|00|--
0000|00|--
0000|00|--
0000|00|--
0000|00|--
0000|00|--
0000|00|--
0000|00|--
0000|00|--
0000|00|--
0000|00|--
0000|00|--
0000|00|--
0000|00|--
0000|00|--
0000|00|--
0000|00|--
0000|00|--
0000|00|--
0000|00|--
0000|00|--
0000|00|--
0000|00|--
0000|00|--
0000|00|--
0000|00|--
--
zoom_bottom=-50
0000|02|0-
0000|00|:-
zoom_bottom=-15
0000|00|F-
0000|00|:-
zoom_bottom=-15
0000|02|F-
0000|00|:-
zoom_bottom=20
0000|00|Z-
0000|00|:-
zoom_bottom=20
0000|02|Z-
0000|00|:-
zoom_bottom=55
0000|00|F-
0000|00|:-
zoom_bottom=55
0000|02|F-
0000|00|:-
zoom_bottom=90
0000|00|0-
0000|00|:-
--
0001|00|0-
0000|00|--
0010|00|--
0000|00|--
0100|00|--
0000|00|--
1000|00|--
0000|00|--
0001|00|--
0000|00|--
0010|00|--
0000|00|--
0100|00|--
0000|00|--
1000|00|--
0000|00|--
--
zoom_bottom=90
0000|20|-o
0000|00|-:
zoom_bottom=55
0000|00|-Z
0000|00|-:
zoom_bottom=55
0000|20|-Z
0000|00|-:
zoom_bottom=20
0000|00|-F
0000|00|-:
zoom_bottom=20
0000|20|-F
0000|00|-:
zoom_bottom=-15
0000|00|-Z
0000|00|-:
zoom_bottom=-15
0000|20|-Z
0000|00|-:
zoom_bottom=-50
0000|00|-o
0000|00|-:
--
0000|10|-o
0000|10|--
0000|10|--
0000|10|--
0000|01|--
0000|01|--
0000|01|--
0000|01|--
1000|00|--
0000|00|--
0100|00|--
0000|00|--
0010|00|--
0000|00|--
0001|00|--
0000|00|--
--
zoom_bottom=-50
0000|02|0-
0000|00|:-
zoom_bottom=-15
0000|00|F-
0000|00|:-
zoom_bottom=-15
0000|02|F-
0000|00|:-
zoom_bottom=20
0000|00|Z-
0000|00|:-
zoom_bottom=20
0000|02|Z-
0000|00|:-
zoom_bottom=55
0000|00|F-
0000|00|:-
zoom_bottom=55
0000|02|F-
0000|00|:-
zoom_bottom=90
0000|00|0-
0000|00|:-
--
0000|01|0-
0000|01|--
0000|01|--
0000|01|--
1100|00|--
0000|00|--
0000|00|--
0000|00|--
1000|01|--
0000|01|--
1000|01|--
0000|01|--
1000|01|--
0000|01|--
1000|01|--
0000|01|--
--
0011|00|--
0000|00|--
0000|00|--
0000|00|--
1100|00|--
0000|00|--
0000|00|--
0000|00|--
0000|20|-o
0000|00|-:
0000|00|-0
0000|00|--
0000|02|0-
0000|00|:-
0000|00|o-
0000|00|--
--
0000|11|--
0000|11|--
zoom_top=50
zoom_bottom=90
0220|11|--
0220|11|--
0220|11|--
0220|11|--
zoom_top=0
zoom_bottom=0
0000|00|--
0000|00|--
--
0000|00|-o
0000|00|-:
0000|00|-0
0000|00|-:
0000|00|-:
0000|00|-:
0000|00|-:
0000|00|-:
0000|00|-:
0000|00|-:
0000|00|-:
0000|00|-:
0000|00|-:
0000|00|-:
0000|00|-:
0000|00|-:
0000|00|-:
0000|00|-:
0000|00|-:
0000|00|-:
0000|00|-:
0000|00|-:
0000|00|-:
0000|00|-:
0000|00|-:
0000|00|-:
0000|00|-:
0000|00|-:
0000|00|-:
0000|00|-:
0000|00|-:
0000|00|-:
0000|20|-0
0000|00|-:
0000|00|-:
0000|00|-:
0000|00|-:
0000|00|-:
0000|00|-:
0000|00|-:
0000|00|-:
0000|00|-:
0000|00|-:
0000|00|-:
0000|00|-:
0000|00|-:
0000|00|-:
0000|00|-:
0000|00|-:
0000|00|-:
0000|00|-:
0000|00|-:
0000|00|-:
0000|00|-:
0000|00|-:
0000|00|-:
0000|00|0:
0000|00|::
0000|00|P:
0000|00|::
0000|00|::
0000|00|::
0000|00|::
0000|00|::
--
0000|00|Po
0000|00|:-
0000|00|0-
0000|00|--
0000|00|--
0000|00|--
0000|00|--
0000|00|--
0001|00|--
0000|00|--
0000|00|--
0000|00|--
0000|00|--
0000|00|--
0000|00|--
0000|00|--
0010|00|--
0000|00|--
0000|00|--
0000|00|--
0000|00|--
0000|00|--
0000|00|--
0000|00|--
0100|00|--
0000|00|--
0000|00|--
0000|00|--
0000|00|--
0000|00|--
0000|00|--
0000|00|--
0000|10|--
0000|10|--
0000|10|--
0000|10|--
0000|10|--
0000|10|--
0000|10|--
0000|10|--
0000|10|--
0000|10|--
0000|10|--
0000|10|--
0000|10|--
0000|10|--
0000|10|--
0000|10|--
0000|10|--
0000|10|--
0000|10|--
0000|10|--
0000|10|--
0000|10|--
0000|10|--
0000|10|--
0000|10|--
0000|10|--
0000|10|--
0000|10|--
0000|10|--
0000|10|--
0000|10|--
0000|10|--
--
0000|00|-o
0000|00|-:
0000|00|-0
0000|00|--
0000|00|--
0000|00|--
0000|00|--
0000|00|--
1000|00|--
0000|00|--
0000|00|--
0000|00|--
0000|00|--
0000|00|--
0000|00|--
0000|00|--
0100|00|--
0000|00|--
0000|00|--
0000|00|--
0000|00|--
0000|00|--
0000|00|--
0000|00|--
0010|00|--
0000|00|--
0000|00|--
0000|00|--
0000|00|--
0000|00|--
0000|00|--
0000|00|--
0001|00|--
0000|00|--
0000|00|--
0000|00|--
0000|00|--
0000|00|--
0000|00|--
0000|00|--
0100|00|--
0000|00|--
0000|00|--
0000|00|--
0010|00|--
0000|00|--
0000|00|--
0000|00|--
0000|00|--
0000|00|--
0000|00|--
0000|00|--
0000|00|--
0000|00|--
0000|00|--
0000|00|--
0100|00|--
0000|00|--
0000|00|--
0000|00|--
0000|00|--
0000|00|--
0000|00|--
0000|00|--
--
0000|00|-o
0000|00|-:
0000|00|-0
0000|00|--
0000|00|--
0000|00|--
0000|00|--
0000|00|--
1000|00|--
0000|00|--
0000|00|--
0000|00|--
0000|00|--
0000|00|--
0000|00|--
0000|00|--
0100|00|--
0000|00|--
0000|00|--
0000|00|--
0000|00|--
0000|00|--
0000|00|--
0000|00|--
0010|00|--
0000|00|--
0000|00|--
0000|00|--
0000|00|--
0000|00|--
0000|00|--
0000|00|--
0100|00|--
0000|00|--
0000|00|--
0000|00|--
0000|00|--
0000|00|--
0000|00|--
0000|00|--
0000|01|--
0000|01|--
0000|01|--
0000|01|--
0000|01|--
0000|01|--
0000|01|--
0000|01|--
0000|01|--
0000|01|--
0000|01|--
0000|01|--
0000|01|--
0000|01|--
0000|01|--
0000|01|--
0000|01|--
0000|01|--
0000|01|--
0000|01|--
0000|01|--
0000|01|--
0000|01|--
0000|01|--
--
zoom_top=0
0001|00|0-
0000|00|:-
0001|00|:-
0000|00|:-
0000|01|:-
0000|01|:-
0011|00|K-
0000|00|:-
--
zoom_top=50
zoom_bottom=0
1000|00|:o
0000|00|::
1000|00|::
0000|00|::
0000|10|::
0000|10|::
1100|00|:U
0000|00|::
--
zoom_bottom=-50
0000|00|KU
0000|00|::
--
zoom_top=75
zoom_bottom=-75
0000|00|::
0000|00|::
0000|00|o0
0000|00|--
0000|11|--
0000|11|--
0000|11|--
0000|11|--
--
zoom_top=150
zoom_bottom=-150
0010|00|--
0000|00|--
0000|00|--
0000|00|--
1000|00|--
0000|00|--
0000|00|--
0000|00|--
0100|00|--
0000|00|--
0000|00|--
0000|00|--
0010|00|--
0000|00|--
0000|00|--
0000|00|--
1001|00|--
0000|00|--
0000|00|--
0000|00|--
0100|00|--
0000|00|--
0010|00|--
0000|00|--
0000|00|--
0000|00|--
0000|00|--
0000|00|--
1100|00|--
0000|00|--
0000|00|--
0000|00|--
--
0000|00|--
0000|00|--
1000|00|--
0000|00|--
0100|00|--
0000|00|--
0010|00|--
0000|00|--
1001|00|--
0000|00|--
0100|00|--
0010|00|--
0000|00|--
0000|00|--
1100|00|--
0000|00|--
--
0000|00|--
0000|00|--
1000|00|--
0000|00|--
0100|00|--
0000|00|--
0010|00|--
0000|00|--
1001|00|--
0000|00|--
0100|00|--
0010|00|--
0000|00|--
0000|00|--
1100|00|--
0000|00|--
--
zoom_top=150
zoom_bottom=-150
0000|00|--
0000|00|--
1000|00|--
0000|00|--
0001|00|--
0000|00|--
0010|00|--
0000|00|--
0101|00|--
0000|00|--
0010|00|--
1100|00|--
0000|00|--
0000|00|--
0010|00|--
0000|00|--
--
zoom_top=100
zoom_bottom=-100
0010|00|--
0000|00|--
1000|00|--
0000|00|--
0100|00|--
0000|00|--
0010|00|--
0000|00|--
1001|00|--
0000|00|--
0100|00|--
0010|00|--
0000|00|--
0000|00|--
0101|00|--
0000|00|--
--
0010|00|--
0000|00|--
1000|00|--
0000|00|--
0100|00|--
0000|00|--
0010|00|--
0000|00|--
1001|00|--
0000|00|--
0100|00|--
0010|00|--
0000|00|--
0000|00|--
0101|00|--
0000|00|--
--
0000|00|--
0000|00|--
1000|00|--
0000|00|--
0100|00|--
0000|00|--
0010|00|--
0000|00|--
1001|00|--
0000|00|--
0010|00|--
0100|00|--
0000|00|--
0000|00|--
0010|00|--
0000|00|--
--
1001|00|--
0000|00|--
zoom_top=100
zoom_bottom=-100
0000|10|--
0000|10|--
--
zoom_top=50
zoom_bottom=-50
0000|00|-o
0000|00|-:
0000|00|-P
0000|00|-:
0000|10|-:
0000|10|-:
0000|00|-:
0000|00|-:
0000|01|-:
0000|01|-:
0000|00|-:
0000|00|-:
0000|00|-P
0000|00|-:
0000|00|-e
0000|00|-:
--
0000|00|-e
0000|00|-:
0000|00|-o
0000|00|-:
0000|01|-:
0000|01|-:
0000|00|-:
0000|00|-:
0000|00|-o
0000|00|-:
0000|00|-e
0000|00|-:
0000|00|-e
0000|00|-:
0000|00|-o
0000|00|--
--
0000|10|--
0000|10|--
0000|00|--
0000|00|--
0000|01|--
0000|01|--
0000|00|--
0000|00|--
0000|10|--
0000|10|--
0000|00|--
0000|00|--
0000|01|--
0000|01|--
0000|00|--
0000|00|--
--
zoom_top=50
zoom_bottom=-50
0011|00|P-
0000|00|:-
0000|00|0-
0000|00|--
1100|00|-P
0000|00|-:
0000|00|-o
0000|00|--
0011|00|P-
0000|00|:-
0000|00|0-
0000|00|--
1100|00|-P
0000|00|-:
0000|00|-o
0000|00|-:
--
zoom_top=0
zoom_bottom=100
0000|00|-o
0000|00|-:
0000|00|-P
0000|00|-:
0000|01|-:
0000|01|-:
0000|00|-:
0000|00|-:
0000|10|-:
0000|10|-:
0000|00|-:
0000|00|-:
0000|00|-P
0000|00|-:
0000|00|-A
0000|00|-:
--
0000|00|-A
0000|00|-:
0000|00|-0
0000|00|-:
0000|01|-:
0000|01|-:
0000|00|-:
0000|00|-:
0000|00|-0
0000|00|-:
0000|00|-A
0000|00|-:
0000|00|-A
0000|00|-:
0000|00|-P
0000|00|-:
--
0000|10|-P
0000|10|--
0000|00|--
0000|00|--
0000|01|--
0000|01|--
0000|00|--
0000|00|--
0000|10|--
0000|10|--
0000|00|--
0000|00|--
0000|01|--
0000|01|--
0000|00|--
0000|00|--
--
0011|00|P-
0000|00|:-
0000|00|0-
0000|00|--
1100|00|-P
0000|00|-:
0000|00|-o
0000|00|--
0011|00|P-
0000|00|:-
0000|00|0-
0000|00|--
1100|00|-P
0000|00|-:
0000|00|-o
0000|00|--
--
1001|00|--
0000|00|--
zoom_bottom=100
0000|00|0o
0000|00|::
zoom_bottom=0
0000|00|PP
0000|00|--
0000|00|--
0000|00|--
--
