title=Shanghai Wu Long ~上海舞龍~
artist=Hommarju
effect=風瑠人
jacket=a_ja.jpg
illustrator=椿 vs. 蒼弐!!!
difficulty=challenge
level=11
t=171
m=a.mp3;a.mp3
o=650
bg=grass
layer=arrow
po=0
plength=15000
pfiltergain=0
filtertype=peak
chokkakuvol=0
pfilterdelay=0
ver=140d
--
beat=4/4
t=171
0000|00|-m
0000|00|-:
0000|00|-2
0000|00|--
0000|00|--
0000|00|--
0000|00|--
0000|00|--
0000|00|--
0000|00|--
0000|00|--
0000|00|--
0000|00|--
0000|00|--
0000|00|--
0000|00|--
0000|00|--
0000|00|--
0000|00|--
0000|00|--
0000|00|--
0000|00|--
0000|00|--
0000|00|--
0000|00|--
0000|00|--
0000|00|--
0000|00|--
0000|00|--
0000|00|--
0000|00|--
0000|00|--
0000|00|--
0000|00|--
0000|00|--
0000|00|--
0000|00|--
0000|00|--
0000|00|--
0000|00|--
0000|00|--
0000|00|--
0000|00|--
0000|00|--
0000|00|--
0000|00|--
0000|00|--
0000|00|--
0000|00|--
0000|00|--
0000|00|--
0000|00|--
0000|00|--
0000|00|--
0000|00|--
0000|00|--
0000|00|--
0000|00|--
0000|00|--
0000|00|--
0000|00|--
0000|00|--
0000|00|--
0000|00|--
--
1000|00|--
0100|00|--
0010|00|--
0000|00|--
0001|00|--
0010|00|--
0100|00|--
0000|00|--
--
0001|00|--
1000|00|--
0001|00|--
1000|00|--
0000|02|--
0000|00|--
0000|20|--
0000|00|--
--
1000|00|--
0100|00|--
0010|00|--
0000|00|--
0001|00|--
0010|00|--
0100|00|--
0000|00|--
--
0000|00|-m
0000|00|-:
0000|00|-:
0000|00|-:
0000|00|-:
0000|00|-:
0000|00|-:
0000|00|-:
0000|00|-:
0000|00|-:
0000|00|-:
0000|00|-:
0000|00|-:
0000|00|-:
0000|00|-:
0000|00|-:
0000|00|-:
0000|00|-:
0000|00|-:
0000|00|-:
0000|00|-:
0000|00|-:
0000|00|-:
0000|00|-:
0000|00|-:
0000|00|-:
0000|00|-:
0000|00|-:
0000|00|-:
0000|00|-:
0000|00|-:
0000|00|-:
0000|00|-2
0000|00|-:
0000|00|-m
0000|00|-:
0000|00|-:
0000|00|-:
0000|00|-:
0000|00|-:
0000|00|-:
0000|00|-:
0000|00|-:
0000|00|-:
0000|00|-:
0000|00|-:
0000|00|-:
0000|00|-:
0000|00|-m
0000|00|-:
0000|00|-2
0000|00|--
0000|00|--
0000|00|--
0000|00|--
0000|00|--
0000|00|--
0000|00|--
0000|00|--
0000|00|--
0000|00|--
0000|00|--
0000|00|--
0000|00|--
--
0001|00|2-
0000|00|:-
0010|00|:-
0000|00|:-
--
0001|00|:-
0000|00|:-
0000|00|:-
0000|00|:-
0000|01|l-
0000|01|--
0010|00|--
0000|00|--
--
1000|00|-m
0000|00|-:
0100|00|-:
0000|00|-:
--
1000|00|-:
0000|00|-:
0000|00|-:
0000|00|-:
0000|10|-2
0000|10|--
0000|02|--
0000|00|--
--
0000|00|2-
0000|00|:-
0000|00|m-
0000|00|--
0000|00|--
0000|00|--
0000|00|--
0000|00|--
0000|00|--
0000|00|--
0000|00|--
0000|00|--
0000|00|--
0000|00|--
0000|00|--
0000|00|--
0000|00|--
0000|00|--
0000|00|--
0000|00|--
0000|00|--
0000|00|--
0000|00|--
0000|00|--
0000|00|--
0000|00|--
0000|00|--
0000|00|--
0000|00|--
0000|00|--
0000|00|--
0000|00|--
0000|00|--
0000|00|--
0000|00|--
0000|00|--
0000|00|--
0000|00|--
0000|00|--
0000|00|--
0000|00|--
0000|00|--
0000|00|--
0000|00|--
0000|00|--
0000|00|--
0000|00|--
0000|00|--
0000|00|--
0000|00|--
0000|00|--
0000|00|--
0000|00|--
0000|00|--
0000|00|--
0000|00|--
0000|00|--
0000|00|--
0000|00|--
0000|00|--
0000|00|--
0000|00|--
0000|00|--
0000|00|--
--
0010|00|--
0100|00|--
0010|00|--
0100|00|--
0010|00|--
0000|00|--
0010|00|--
0000|00|--
1000|00|--
0000|00|--
1000|00|--
0000|00|--
0001|00|--
0000|00|--
0000|00|--
0000|00|--
--
0000|10|--
0000|10|--
0000|10|--
0000|10|--
0010|00|--
0000|00|--
0100|00|--
0000|00|--
0010|00|--
0000|00|--
0000|00|--
0000|00|--
0100|00|--
0000|00|--
0001|00|--
0000|00|--
--
0000|01|--
0000|01|--
0000|01|--
0000|01|--
0100|00|--
0000|00|--
0010|00|--
0000|00|--
0100|00|--
0000|00|--
0000|00|--
0000|00|--
0010|00|--
0000|00|--
1000|00|--
0000|00|--
--
0000|10|--
0000|10|--
0000|10|--
0000|10|--
0010|00|--
0000|00|--
0100|00|--
0000|00|--
0010|00|--
0000|00|--
1000|00|--
0000|00|--
0001|00|--
0000|00|--
0100|00|--
0000|00|--
--
0000|01|--
0000|01|--
0000|01|--
0000|01|--
0000|01|--
0000|01|--
0000|01|--
0000|01|--
0000|01|--
0000|01|--
0000|01|--
0000|01|--
0000|01|--
0000|01|--
0000|01|--
0000|01|--
1000|00|--
0000|00|--
0000|00|--
0000|00|--
0000|00|--
0000|00|--
0000|00|--
0000|00|--
0010|00|--
0000|00|--
0000|00|--
0000|00|--
0000|00|--
0000|00|--
0000|00|--
0000|00|--
1000|00|--
0000|00|--
0000|00|--
0000|00|--
0000|00|--
0000|00|--
0000|00|--
0000|00|--
0000|00|--
0000|00|--
0000|00|--
0000|00|--
0000|00|--
0000|00|--
0000|00|--
0000|00|--
0000|00|-m
0000|00|-:
0000|00|-2
0000|00|--
0000|00|--
0000|00|--
0000|00|--
0000|00|--
0000|00|--
0000|00|--
0000|00|--
0000|00|--
0000|00|--
0000|00|--
0000|00|--
0000|00|--
--
0000|10|--
0000|10|--
0000|10|--
0000|10|--
0010|00|--
0000|00|--
0100|00|--
0000|00|--
0010|00|--
0000|00|--
0000|00|--
0000|00|--
0100|00|--
0000|00|--
0001|00|--
0000|00|--
--
0000|10|--
0000|10|--
0000|10|--
0000|10|--
0010|00|--
0000|00|--
0100|00|--
0000|00|--
0010|00|--
0000|00|--
0000|00|--
0000|00|--
1000|00|--
0000|00|--
0001|00|--
0000|00|--
--
0000|10|--
0000|10|--
0000|10|--
0000|10|--
0001|00|--
0000|00|--
1000|00|--
0000|00|--
0000|10|--
0000|10|--
0000|10|--
0000|10|--
0001|00|--
0000|00|--
1000|00|--
0000|00|--
--
0010|00|--
0100|00|--
0010|00|--
0100|00|--
0010|00|--
0000|00|--
0010|00|--
0000|00|--
1000|00|--
0000|00|--
1000|00|--
0000|00|--
0001|00|--
0000|00|--
0000|00|--
0000|00|--
--
0200|00|--
0200|00|--
0200|00|--
0200|00|--
0200|00|--
0200|00|--
0010|00|--
0000|00|--
0100|00|--
0000|00|--
0000|00|--
0000|00|--
0010|00|--
0000|00|--
0000|00|--
0000|00|--
0001|00|--
0000|00|--
0000|00|--
0000|00|--
0010|00|--
0000|00|--
0100|00|--
0000|00|--
1000|00|--
0000|00|--
0000|00|--
0000|00|--
0001|00|--
0000|00|--
0000|00|--
0000|00|--
--
0020|00|--
0020|00|--
0020|00|--
0020|00|--
0020|00|--
0020|00|--
0100|00|--
0000|00|--
0010|00|--
0000|00|--
0000|00|--
0000|00|--
0100|00|--
0000|00|--
0000|00|--
0000|00|--
1000|00|--
0000|00|--
0000|00|--
0000|00|--
0100|00|--
0000|00|--
0010|00|--
0000|00|--
0001|00|--
0000|00|--
0000|00|--
0000|00|--
0010|00|--
0000|00|--
0000|00|--
0000|00|--
--
0000|10|--
0000|10|--
0000|10|--
0000|10|--
0001|00|--
0000|00|--
0100|00|--
0000|00|--
0000|01|--
0000|01|--
0000|01|--
0000|01|--
1000|00|--
0000|00|--
0010|00|--
0000|00|--
--
0000|10|--
0000|10|--
0000|10|--
0000|10|--
0000|10|--
0000|10|--
0000|10|--
0000|10|--
0000|10|--
0000|10|--
0000|10|--
0000|10|--
0000|10|--
0000|10|--
0000|10|--
0000|10|--
0001|00|--
0000|00|--
0000|00|--
0000|00|--
0000|00|--
0000|00|--
0000|00|--
0000|00|--
0100|00|--
0000|00|--
0000|00|--
0000|00|--
0000|00|--
0000|00|--
0000|00|--
0000|00|--
0000|01|--
0000|01|--
0000|01|--
0000|01|--
0000|01|--
0000|01|--
0000|01|--
0000|01|--
0000|01|--
0000|01|--
0000|01|--
0000|01|--
0000|01|--
0000|01|--
0000|01|--
0000|01|--
0000|00|2-
0000|00|:-
0000|00|m-
0000|00|--
0000|00|--
0000|00|--
0000|00|--
0000|00|--
0000|00|--
0000|00|--
0000|00|--
0000|00|--
0000|00|--
0000|00|--
0000|00|--
0000|00|--
--
0011|00|--
0000|00|--
0000|00|--
0000|00|--
0000|00|--
0000|00|--
0000|00|--
0000|00|--
1100|00|--
0000|00|--
0000|00|--
0000|00|--
0000|00|--
0000|00|--
0000|00|--
0000|00|--
0011|00|--
0000|00|--
0000|00|--
0000|00|--
0000|00|--
0000|00|--
0000|00|--
0000|00|--
1100|00|--
0000|00|--
0000|00|--
0000|00|--
0000|00|--
0000|00|--
0000|00|--
0000|00|--
0011|00|--
0000|00|--
0000|00|--
0000|00|--
0000|00|--
0000|00|--
0000|00|--
0000|00|--
1100|00|--
0000|00|--
0000|00|--
0000|00|--
0000|00|--
0000|00|--
0000|00|--
0000|00|--
0000|00|-m
0000|00|-:
0000|00|-2
0000|00|--
0000|00|--
0000|00|--
0000|00|--
0000|00|--
0000|00|--
0000|00|--
0000|00|--
0000|00|--
0000|00|--
0000|00|--
0000|00|--
0000|00|--
--
0000|20|--
0000|00|--
0000|00|--
0000|00|--
0000|00|--
0000|00|--
0000|00|--
0000|00|--
0000|02|--
0000|00|--
0000|00|--
0000|00|--
0000|00|--
0000|00|--
0000|00|--
0000|00|--
0000|20|--
0000|00|--
0000|00|--
0000|00|--
0000|00|--
0000|00|--
0000|00|--
0000|00|--
0000|02|--
0000|00|--
0000|00|--
0000|00|--
0000|00|--
0000|00|--
0000|00|--
0000|00|--
0000|20|--
0000|00|--
0000|00|--
0000|00|--
0000|00|--
0000|00|--
0000|00|--
0000|00|--
0000|02|--
0000|00|--
0000|00|--
0000|00|--
0000|00|--
0000|00|--
0000|00|--
0000|00|--
0000|00|2-
0000|00|:-
0000|00|m-
0000|00|:-
0000|00|:-
0000|00|:-
0000|00|:-
0000|00|:-
0000|00|:-
0000|00|:-
0000|00|:-
0000|00|:-
0000|00|:-
0000|00|:-
0000|00|:-
0000|00|:-
--
0000|01|m-
0000|01|:-
0000|00|:-
0000|00|:-
0000|01|:-
0000|01|:-
0000|00|2-
0000|00|--
--
0010|00|--
0100|00|--
0010|00|--
0100|00|--
0010|00|--
0000|00|--
0010|00|--
0000|00|--
1000|00|--
0000|00|--
1000|00|--
0000|00|--
0001|00|--
0000|00|--
0000|00|--
0000|00|--
--
0010|00|--
0000|00|--
0010|00|--
0000|00|--
0100|00|--
0000|00|--
0100|00|--
0010|00|--
0000|00|--
0010|00|--
0000|00|--
0010|00|--
1000|00|--
0000|00|--
1000|00|--
0000|00|--
--
0001|00|--
0000|00|--
0000|00|--
0000|00|--
0010|00|--
0000|00|--
0000|00|--
0000|00|--
0100|00|--
0000|00|--
0000|00|--
0000|00|--
1000|00|--
0000|00|--
0000|00|--
0000|00|--
0000|01|--
0000|01|--
0000|01|--
0000|01|--
0000|01|--
0000|01|--
0000|01|--
0000|01|--
0000|01|--
0000|01|--
0000|01|--
0000|01|--
0000|01|--
0000|01|--
0000|01|--
0000|01|--
0100|00|--
0000|00|--
0000|00|--
0000|00|--
0000|00|--
0000|00|--
0000|00|--
0000|00|--
0100|00|--
0000|00|--
0000|00|--
0000|00|--
0000|00|--
0000|00|--
0000|00|--
0000|00|--
0000|00|-m
0000|00|-:
0000|00|-2
0000|00|--
0000|00|--
0000|00|--
0000|00|--
0000|00|--
0000|00|--
0000|00|--
0000|00|--
0000|00|--
0000|00|--
0000|00|--
0000|00|--
0000|00|--
--
0100|00|--
0000|00|--
0100|00|--
0000|00|--
0010|00|--
0000|00|--
0010|00|--
0100|00|--
0000|00|--
0100|00|--
0000|00|--
0100|00|--
0001|00|--
0000|00|--
0001|00|--
0000|00|--
--
1000|00|--
0000|00|--
0000|00|--
0000|00|--
0100|00|--
0000|00|--
0000|00|--
0000|00|--
0010|00|--
0000|00|--
0000|00|--
0000|00|--
0001|00|--
0000|00|--
0000|00|--
0000|00|--
0000|10|--
0000|10|--
0000|10|--
0000|10|--
0000|10|--
0000|10|--
0000|10|--
0000|10|--
0000|10|--
0000|10|--
0000|10|--
0000|10|--
0000|10|--
0000|10|--
0000|10|--
0000|10|--
0010|00|--
0000|00|--
0000|00|--
0000|00|--
0000|00|--
0000|00|--
0000|00|--
0000|00|--
0010|00|--
0000|00|--
0000|00|--
0000|00|--
0000|00|--
0000|00|--
0000|00|--
0000|00|--
0000|00|2-
0000|00|:-
0000|00|m-
0000|00|--
0000|00|--
0000|00|--
0000|00|--
0000|00|--
0000|00|--
0000|00|--
0000|00|--
0000|00|--
0000|00|--
0000|00|--
0000|00|--
0000|00|--
--
0001|00|--
0000|00|--
0000|00|--
0000|00|--
0000|00|--
0000|00|--
0000|00|--
0000|00|--
0001|00|--
0000|00|--
0000|00|--
0000|00|--
0000|00|--
0000|00|--
0000|00|--
0000|00|--
0100|00|--
0000|00|--
0000|00|--
0000|00|--
0000|00|--
0000|00|--
0000|00|--
0000|00|--
0100|00|--
0000|00|--
0000|00|--
0000|00|--
0000|00|--
0000|00|--
0000|00|--
0000|00|--
0000|01|--
0000|01|--
0000|01|--
0000|01|--
0000|01|--
0000|01|--
0000|01|--
0000|01|--
0000|01|--
0000|01|--
0000|01|--
0000|01|--
0000|01|--
0000|01|--
0000|01|--
0000|01|--
0000|00|2-
0000|00|:-
0000|00|m-
0000|00|--
0000|00|--
0000|00|--
0000|00|--
0000|00|--
0000|00|--
0000|00|--
0000|00|--
0000|00|--
0000|00|--
0000|00|--
0000|00|--
0000|00|--
--
0001|00|--
0000|00|--
0000|00|--
0000|00|--
0010|00|--
0000|00|--
0000|00|--
0000|00|--
0100|00|--
0000|00|--
0000|00|--
0000|00|--
1000|00|--
0000|00|--
0000|00|--
0000|00|--
0010|00|--
0000|00|--
0000|00|--
0000|00|--
0000|00|--
0000|00|--
0000|00|--
0000|00|--
0010|00|--
0000|00|--
0000|00|--
0000|00|--
0000|00|--
0000|00|--
0000|00|--
0000|00|--
0000|10|--
0000|10|--
0000|10|--
0000|10|--
0000|10|--
0000|10|--
0000|10|--
0000|10|--
0000|10|--
0000|10|--
0000|10|--
0000|10|--
0000|10|--
0000|10|--
0000|10|--
0000|10|--
0000|00|-m
0000|00|-:
0000|00|-2
0000|00|--
0000|00|--
0000|00|--
0000|00|--
0000|00|--
0000|00|--
0000|00|--
0000|00|--
0000|00|--
0000|00|--
0000|00|--
0000|00|--
0000|00|--
--
0100|00|--
0000|00|--
0100|00|--
0000|00|--
0010|00|--
0000|00|--
0010|00|--
0100|00|--
0000|00|--
0100|00|--
0000|00|--
0100|00|--
0001|00|--
0000|00|--
0001|00|--
0000|00|--
--
0100|00|--
0010|00|--
0100|00|--
0010|00|--
0100|00|--
0000|00|--
0100|00|--
0000|00|--
0001|00|--
0000|00|--
0001|00|--
0000|00|--
1000|00|--
0000|00|--
0000|00|--
0000|00|--
--
0000|00|2-
0000|00|:-
0000|00|l-
0000|00|:-
0000|00|2-
0000|00|:-
0000|00|l-
0000|00|:-
--
0000|00|2m
0000|00|-:
0000|00|-:
0000|00|-:
0000|00|-:
0000|00|-:
0000|00|-:
0000|00|-:
0000|00|-:
0000|00|-:
0000|00|-:
0000|00|-:
0000|00|-:
0000|00|-:
0000|00|-:
0000|00|-:
0000|00|-2
0000|00|-:
0000|00|-:
0000|00|-:
0000|00|-:
0000|00|-:
0000|00|-:
0000|00|-:
0000|00|-:
0000|00|-:
0000|00|-:
0000|00|-:
0000|00|-:
0000|00|-:
0000|00|-:
0000|00|-:
0000|00|-l
0000|00|-:
0000|00|-:
0000|00|-:
0000|00|-:
0000|00|-:
0000|00|-:
0000|00|-:
0000|00|-:
0000|00|-:
0000|00|-:
0000|00|-:
0000|00|-:
0000|00|-:
0000|00|-:
0000|00|-:
0000|00|-2
0000|00|-:
0000|00|-m
0000|00|--
0000|00|--
0000|00|--
0000|00|--
0000|00|--
0000|00|--
0000|00|--
0000|00|--
0000|00|--
0000|00|--
0000|00|--
0000|00|--
0000|00|--
--
0000|00|2-
0000|00|:-
0000|00|:-
0000|00|:-
0000|00|l-
0000|00|:-
0000|00|P-
0000|00|:-
0000|00|l-
0000|00|:-
0000|00|P-
0000|00|:-
0000|00|l-
0000|00|:-
0000|00|:-
0000|00|:-
--
0000|00|2m
0000|00|-:
0000|00|-:
0000|00|-:
0000|00|-:
0000|00|-:
0000|00|-:
0000|00|-:
0000|00|-:
0000|00|-:
0000|00|-:
0000|00|-:
0000|00|-:
0000|00|-:
0000|00|-:
0000|00|-:
0000|00|-2
0000|00|-:
0000|00|-:
0000|00|-:
0000|00|-:
0000|00|-:
0000|00|-:
0000|00|-:
0000|00|-O
0000|00|-:
0000|00|-:
0000|00|-:
0000|00|-:
0000|00|-:
0000|00|-:
0000|00|-:
0000|00|-2
0000|00|-:
0000|00|-:
0000|00|-:
0000|00|-:
0000|00|-:
0000|00|-:
0000|00|-:
0000|00|-:
0000|00|-:
0000|00|-:
0000|00|-:
0000|00|-:
0000|00|-:
0000|00|-:
0000|00|-:
0000|00|-m
0000|00|-:
0000|00|-2
0000|00|--
0000|00|--
0000|00|--
0000|00|--
0000|00|--
0000|00|--
0000|00|--
0000|00|--
0000|00|--
0000|00|--
0000|00|--
0000|00|--
0000|00|--
--
0000|00|2-
0000|00|:-
0000|00|:-
0000|00|:-
0000|00|l-
0000|00|:-
0000|00|:-
0000|00|:-
0000|00|2m
0000|00|-:
0000|00|-P
0000|00|-:
0000|00|-l
0000|00|-:
0000|00|-P
0000|00|-:
--
0000|00|2l
0000|00|:-
0000|00|:-
0000|00|:-
0000|00|:-
0000|00|:-
0000|00|:-
0000|00|:-
0000|00|O-
0000|00|:-
0000|00|:-
0000|00|:-
0000|00|:-
0000|00|:-
0000|00|:-
0000|00|:-
0000|00|2-
0000|00|:-
0000|00|:-
0000|00|:-
0000|00|:-
0000|00|:-
0000|00|:-
0000|00|:-
0000|00|O-
0000|00|:-
0000|00|:-
0000|00|:-
0000|00|:-
0000|00|:-
0000|00|:-
0000|00|:-
0000|00|2-
0000|00|:-
0000|00|:-
0000|00|:-
0000|00|:-
0000|00|:-
0000|00|:-
0000|00|:-
0000|00|:-
0000|00|:-
0000|00|:-
0000|00|:-
0000|00|:-
0000|00|:-
0000|00|:-
0000|00|:-
0000|00|m-
0000|00|:-
0000|00|2-
0000|00|--
0000|00|--
0000|00|--
0000|00|--
0000|00|--
0000|00|--
0000|00|--
0000|00|--
0000|00|--
0000|00|--
0000|00|--
0000|00|--
0000|00|--
--
0000|00|-m
0000|00|-:
0000|00|-:
0000|00|-:
0000|00|-2
0000|00|-:
0000|00|-O
0000|00|-:
0000|00|-2
0000|00|-:
0000|00|-O
0000|00|-:
0000|00|-2
0000|00|-:
0000|00|-:
0000|00|-:
--
0000|00|2l
0000|00|:-
0000|00|:-
0000|00|:-
0000|00|:-
0000|00|:-
0000|00|:-
0000|00|:-
0000|00|:-
0000|00|:-
0000|00|:-
0000|00|:-
0000|00|:-
0000|00|:-
0000|00|:-
0000|00|:-
0000|00|:-
0000|00|:-
0000|00|:-
0000|00|:-
0000|00|:-
0000|00|:-
0000|00|:-
0000|00|:-
0000|00|:-
0000|00|:-
0000|00|:-
0000|00|:-
0000|00|:-
0000|00|:-
0000|00|:-
0000|00|:-
0000|00|m-
0000|00|:-
0000|00|2-
0000|00|:-
0000|00|:-
0000|00|:-
0000|00|:-
0000|00|:-
0000|00|:-
0000|00|:-
0000|00|:-
0000|00|:-
0000|00|:-
0000|00|:-
0000|00|:-
0000|00|:-
0000|00|2-
0000|00|:-
0000|00|m-
0000|00|--
0000|00|--
0000|00|--
0000|00|--
0000|00|--
0000|00|--
0000|00|--
0000|00|--
0000|00|--
0000|00|--
0000|00|--
0000|00|--
0000|00|--
--
0011|00|--
0000|00|--
0000|00|--
0000|00|--
1100|00|--
0000|00|--
0000|00|--
0000|00|--
1000|01|--
0000|01|--
0100|01|--
0000|01|--
0010|01|--
0000|01|--
0001|01|--
0000|01|--
--
0000|10|--
0000|10|--
0000|10|--
0000|10|--
0000|10|--
0000|10|--
0022|00|--
0022|00|--
0022|00|--
0022|00|--
0000|00|--
0000|00|--
0000|10|--
0000|10|--
0000|10|--
0000|10|--
--
0000|00|-m
0000|00|-:
0000|00|-2
0000|00|-:
0000|00|2l
0000|00|:-
0000|00|l-
0000|00|:-
--
0000|00|2-
0000|00|:-
0000|00|O-
0000|00|:-
0000|00|2m
0000|00|-:
0000|00|-P
0000|00|-:
0000|00|-l
0000|00|-:
0000|00|-:
0000|00|-:
0000|00|-2
0000|00|--
0000|00|--
0000|00|--
--
1100|00|--
0000|00|--
0000|00|--
0000|00|--
0011|00|--
0000|00|--
0000|00|--
0000|00|--
0001|10|--
0000|10|--
0010|10|--
0000|10|--
0100|10|--
0000|10|--
1000|10|--
0000|10|--
--
0000|01|--
0000|01|--
0000|01|--
0000|01|--
0000|01|--
0000|01|--
2200|00|--
2200|00|--
2200|00|--
2200|00|--
0000|00|--
0000|00|--
0000|01|--
0000|01|--
0000|01|--
0000|01|--
--
0000|00|2-
0000|00|:-
0000|00|l-
0000|00|:-
0000|00|2m
0000|00|-:
0000|00|-:
0000|00|-:
--
0000|10|-2
0000|10|-:
0000|10|-:
0000|10|-:
0000|10|-:
0000|10|-:
0000|10|-:
0000|10|-:
0000|10|-:
0000|10|-:
0000|10|-:
0000|10|-:
0000|10|-:
0000|10|-:
0000|10|-:
0000|10|-:
0000|01|-:
0000|01|-:
0000|01|-:
0000|01|-:
0000|01|-:
0000|01|-:
0000|01|-:
0000|01|-:
0000|01|-:
0000|01|-:
0000|01|-:
0000|01|-:
0000|01|-:
0000|01|-:
0000|01|-:
0000|01|-:
0000|10|-:
0000|10|-:
0000|10|-:
0000|10|-:
0000|10|-:
0000|10|-:
0000|10|-:
0000|10|-:
0000|10|-:
0000|10|-:
0000|10|-:
0000|10|-:
0000|10|-:
0000|10|-:
0000|10|-:
0000|10|-:
0000|00|-2
0000|00|-:
0000|00|-m
0000|00|--
0000|00|--
0000|00|--
0000|00|--
0000|00|--
0000|00|--
0000|00|--
0000|00|--
0000|00|--
0000|00|--
0000|00|--
0000|00|--
0000|00|--
--
1000|00|--
0010|00|--
1000|00|--
0010|00|--
1000|00|--
0010|00|--
1000|00|--
0010|00|--
--
0100|00|--
0000|00|--
0001|00|--
0000|00|--
0100|00|--
0000|00|--
0001|00|--
0000|00|--
0000|10|--
0000|10|--
0000|10|--
0000|10|--
0000|01|--
0000|01|--
0000|01|--
0000|01|--
--
0010|00|--
0000|00|--
1000|00|--
0000|00|--
0010|00|--
0000|00|--
1000|00|--
0000|00|--
0010|00|--
0000|00|--
1000|00|--
0000|00|--
0010|00|--
0000|00|--
1000|00|--
0000|00|--
--
0001|00|--
0000|00|--
0100|00|--
0000|00|--
0001|00|--
0000|00|--
0100|00|--
0000|00|--
0000|01|--
0000|01|--
0000|01|--
0000|01|--
0000|10|--
0000|10|--
0000|10|--
0000|10|--
--
0000|01|--
0000|01|--
0000|01|--
0000|01|--
0000|01|--
0000|01|--
0000|01|--
0000|01|--
1100|01|--
0000|01|--
0000|01|--
0000|01|--
0000|01|--
0000|01|--
0000|01|--
0000|01|--
1100|00|--
0000|00|--
0000|00|--
0000|00|--
0000|00|--
0000|00|--
1100|00|--
0000|00|--
0000|00|--
0000|00|--
0000|00|--
0000|00|--
0011|00|--
0000|00|--
0000|00|--
0000|00|--
--
0000|10|--
0000|10|--
0000|10|--
0000|10|--
0000|10|--
0000|10|--
0000|10|--
0000|10|--
0011|10|--
0000|10|--
0000|10|--
0000|10|--
0000|10|--
0000|10|--
0000|10|--
0000|10|--
1000|01|--
0000|01|--
0100|01|--
0000|01|--
0010|01|--
0000|01|--
0001|01|--
0000|01|--
1000|01|--
0000|01|--
0100|01|--
0000|01|--
0010|01|--
0000|01|--
0001|01|--
0000|01|--
--
1100|00|--
0000|00|--
0000|00|--
0000|00|--
0000|00|--
0000|00|--
0000|00|--
0000|00|--
1100|00|--
0000|00|--
0000|00|--
0000|00|--
0000|00|--
0000|00|--
0000|00|--
0000|00|--
0011|00|--
0000|00|--
0000|00|--
0000|00|--
0000|00|--
0000|00|--
0011|00|--
0000|00|--
0000|00|--
0000|00|--
0000|00|--
0000|00|--
0011|00|--
0000|00|--
0000|00|--
0000|00|--
--
0000|01|2-
0000|01|:-
--
0000|00|m-
0000|00|:-
0000|00|2-
0000|00|--
0000|00|--
0000|00|--
0000|00|--
0000|00|--
0000|00|--
0000|00|--
0000|00|--
0000|00|--
0000|00|--
0000|00|--
0000|00|--
0000|00|--
0000|00|--
0000|00|--
0000|00|--
0000|00|--
0000|00|--
0000|00|--
0000|00|--
0000|00|--
0000|00|--
0000|00|--
0000|00|--
0000|00|--
0000|00|--
0000|00|--
0000|00|--
0000|00|--
0000|00|--
0000|00|--
0000|00|--
0000|00|--
0000|00|--
0000|00|--
0000|00|--
0000|00|--
0000|00|--
0000|00|--
0000|00|--
0000|00|--
0000|00|--
0000|00|--
0000|00|--
0000|00|--
0000|00|--
0000|00|--
0000|00|--
0000|00|--
0000|00|--
0000|00|--
0000|00|--
0000|00|--
0000|00|--
0000|00|--
0000|00|--
0000|00|--
0000|00|--
0000|00|--
0000|00|--
0000|00|--
--
0010|00|--
0100|00|--
0010|00|--
0100|00|--
0010|00|--
0000|00|--
0010|00|--
0000|00|--
1000|00|--
0000|00|--
1000|00|--
0000|00|--
0001|00|--
0000|00|--
0000|00|--
0000|00|--
--
0010|00|--
0100|00|--
0010|00|--
0001|00|--
0100|00|--
0010|00|--
0100|00|--
1000|00|--
--
0010|00|--
0000|00|--
0100|00|--
0000|00|--
0010|00|--
0000|00|--
0001|00|--
0000|00|--
0000|10|--
0000|10|--
0000|10|--
0000|10|--
0000|01|--
0000|01|--
0000|01|--
0000|01|--
--
0100|00|--
0000|00|--
0010|00|--
0000|00|--
0100|00|--
0000|00|--
1000|00|--
0000|00|--
0010|00|--
0000|00|--
0100|00|--
0000|00|--
0010|00|--
0000|00|--
0001|00|--
0000|00|--
--
0000|01|2-
0000|01|:-
0000|01|:-
0000|01|:-
0000|01|:-
0000|01|:-
0000|01|:-
0000|01|:-
0000|01|:-
0000|01|:-
0000|01|:-
0000|01|:-
0000|01|:-
0000|01|:-
0000|01|:-
0000|01|:-
0000|01|:-
0000|01|:-
0000|01|:-
0000|01|:-
0000|01|:-
0000|01|:-
0000|01|:-
0000|01|:-
0000|01|:-
0000|01|:-
0000|01|:-
0000|01|:-
0000|01|:-
0000|01|:-
0000|01|:-
0000|01|:-
0001|00|m-
0000|00|:-
0000|00|:-
0000|00|:-
0000|00|:-
0000|00|:-
0000|00|:-
0000|00|:-
0001|00|:-
0000|00|:-
0000|00|:-
0000|00|:-
0000|00|:-
0000|00|:-
0000|00|:-
0000|00|:-
0000|00|m-
0000|00|:-
0000|00|2-
0000|00|--
0000|00|--
0000|00|--
0000|00|--
0000|00|--
0000|00|--
0000|00|--
0000|00|--
0000|00|--
0000|00|--
0000|00|--
0000|00|--
0000|00|--
--
0001|00|--
0100|00|--
0010|00|--
0001|00|--
1000|00|--
0010|00|--
0100|00|--
1000|00|--
--
0001|00|--
0000|00|--
0100|00|--
0000|00|--
0010|00|--
0000|00|--
0001|00|--
0000|00|--
0000|10|--
0000|10|--
0000|10|--
0000|10|--
0000|01|--
0000|01|--
0000|01|--
0000|01|--
--
1000|00|--
0000|00|--
0010|00|--
0000|00|--
0100|00|--
0000|00|--
0010|00|--
0000|00|--
0001|00|--
0000|00|--
0100|00|--
0000|00|--
0010|00|--
0000|00|--
0100|00|--
0000|00|--
--
0000|10|-m
0000|10|-:
0000|10|-:
0000|10|-:
0000|10|-:
0000|10|-:
0000|10|-:
0000|10|-:
0000|10|-:
0000|10|-:
0000|10|-:
0000|10|-:
0000|10|-:
0000|10|-:
0000|10|-:
0000|10|-:
0000|10|-:
0000|10|-:
0000|10|-:
0000|10|-:
0000|10|-:
0000|10|-:
0000|10|-:
0000|10|-:
0000|10|-:
0000|10|-:
0000|10|-:
0000|10|-:
0000|10|-:
0000|10|-:
0000|10|-:
0000|10|-:
1000|00|-2
0000|00|-:
0000|00|-:
0000|00|-:
0000|00|-:
0000|00|-:
0000|00|-:
0000|00|-:
1000|00|-:
0000|00|-:
0000|00|-:
0000|00|-:
0000|00|-:
0000|00|-:
0000|00|-:
0000|00|-:
0000|00|-2
0000|00|-:
0000|00|-m
0000|00|--
0000|00|--
0000|00|--
0000|00|--
0000|00|--
0000|00|--
0000|00|--
0000|00|--
0000|00|--
0000|00|--
0000|00|--
0000|00|--
0000|00|--
--
2000|00|--
2000|00|--
2000|00|--
2000|00|--
2000|00|--
2000|00|--
0010|00|--
0000|00|--
0001|00|--
0000|00|--
0000|00|--
0000|00|--
0100|00|--
0000|00|--
0000|00|--
0000|00|--
0001|00|--
0000|00|--
0000|00|--
0000|00|--
1000|00|--
0000|00|--
0100|00|--
0000|00|--
0010|00|--
0000|00|--
0000|00|--
0000|00|--
1000|00|--
0000|00|--
0000|00|--
0000|00|--
--
0002|00|--
0002|00|--
0002|00|--
0002|00|--
0002|00|--
0002|00|--
0002|00|--
0002|00|--
0002|00|--
0002|00|--
0002|00|--
0002|00|--
0100|00|--
0000|00|--
0000|00|--
0000|00|--
0010|00|--
0000|00|--
0000|00|--
0000|00|--
0000|00|--
0000|00|--
0000|00|--
0000|00|--
1000|00|--
0000|00|--
0000|00|--
0000|00|--
0000|00|--
0000|00|--
0000|00|--
0000|00|--
0000|01|--
0000|01|--
0000|01|--
0000|01|--
0000|01|--
0000|01|--
0000|01|--
0000|01|--
0000|01|--
0000|01|--
0000|01|--
0000|01|--
0000|01|--
0000|01|--
0000|01|--
0000|01|--
0000|00|2-
0000|00|:-
0000|00|m-
0000|00|--
0000|00|--
0000|00|--
0000|00|--
0000|00|--
0000|00|--
0000|00|--
0000|00|--
0000|00|--
0000|00|--
0000|00|--
0000|00|--
0000|00|--
--
0001|00|--
0010|00|--
0100|00|--
1000|00|--
0010|00|--
0000|00|--
0001|00|--
0000|00|--
0010|00|--
0000|00|--
1000|00|--
0100|00|--
0010|00|--
0001|00|--
0010|00|--
0000|00|--
--
0000|10|--
0000|10|--
0000|10|--
0000|10|--
0000|10|--
0000|10|--
0000|10|--
0000|10|--
0000|10|--
0000|10|--
0000|10|--
0000|10|--
0000|10|--
0000|10|--
0000|10|--
0000|10|--
0001|00|--
0000|00|--
0000|00|--
0000|00|--
0000|00|--
0000|00|--
0000|00|--
0000|00|--
0010|00|--
0000|00|--
0000|00|--
0000|00|--
0000|00|--
0000|00|--
0000|00|--
0000|00|--
0000|10|--
0000|10|--
0000|10|--
0000|10|--
0000|10|--
0000|10|--
0000|10|--
0000|10|--
0000|10|--
0000|10|--
0000|10|--
0000|10|--
0000|10|--
0000|10|--
0000|10|--
0000|10|--
0000|00|-m
0000|00|-:
0000|00|-2
0000|00|--
0000|00|--
0000|00|--
0000|00|--
0000|00|--
0000|00|--
0000|00|--
0000|00|--
0000|00|--
0000|00|--
0000|00|--
0000|00|--
0000|00|--
--
2000|00|--
2000|00|--
2000|00|--
2000|00|--
2000|00|--
2000|00|--
2000|00|--
2000|00|--
2000|00|--
2000|00|--
2000|00|--
2000|00|--
0010|00|--
0000|00|--
0000|00|--
0000|00|--
0001|00|--
0000|00|--
0000|00|--
0000|00|--
0000|00|--
0000|00|--
0000|00|--
0000|00|--
0100|00|--
0000|00|--
0000|00|--
0000|00|--
0000|00|--
0000|00|--
0000|00|--
0000|00|--
0000|01|--
0000|01|--
0000|01|--
0000|01|--
0000|01|--
0000|01|--
0000|01|--
0000|01|--
0000|01|--
0000|01|--
0000|01|--
0000|01|--
0000|01|--
0000|01|--
0000|01|--
0000|01|--
0000|00|P-
0000|00|:-
0000|00|2-
0000|00|--
0000|00|--
0000|00|--
0000|00|--
0000|00|--
0000|00|--
0000|00|--
0000|00|--
0000|00|--
0000|00|--
0000|00|--
0000|00|--
0000|00|--
--
0002|00|--
0002|00|--
0002|00|--
0002|00|--
0002|00|--
0002|00|--
0002|00|--
0002|00|--
0002|00|--
0002|00|--
0002|00|--
0002|00|--
0100|00|--
0000|00|--
0000|00|--
0000|00|--
1000|00|--
0000|00|--
0000|00|--
0000|00|--
0000|00|--
0000|00|--
0000|00|--
0000|00|--
0010|00|--
0000|00|--
0000|00|--
0000|00|--
0000|00|--
0000|00|--
0000|00|--
0000|00|--
0000|10|--
0000|10|--
0000|10|--
0000|10|--
0000|10|--
0000|10|--
0000|10|--
0000|10|--
0000|10|--
0000|10|--
0000|10|--
0000|10|--
0000|10|--
0000|10|--
0000|10|--
0000|10|--
0000|00|-P
0000|00|-:
0000|00|-m
0000|00|-:
0000|00|-:
0000|00|-:
0000|00|-:
0000|00|-:
0000|00|-:
0000|00|-:
0000|00|-:
0000|00|-:
0000|00|-:
0000|00|-:
0000|00|-:
0000|00|-:
--
0000|10|-m
0000|10|-:
0000|10|-:
0000|10|-:
0000|10|-:
0000|10|-:
0000|10|-:
0000|10|-:
0000|10|-:
0000|10|-:
0000|10|-:
0000|10|-:
0000|10|-:
0000|10|-:
0000|10|-:
0000|10|-:
0000|00|-E
0000|00|-:
0000|00|-m
0000|00|-:
0000|00|-:
0000|00|-:
0000|00|-:
0000|00|-:
0000|00|-:
0000|00|-:
0000|00|-:
0000|00|-:
0000|00|-:
0000|00|-:
0000|00|-:
0000|00|-:
0000|10|-m
0000|10|-:
0000|10|-:
0000|10|-:
0000|10|-:
0000|10|-:
0000|10|-:
0000|10|-:
0000|10|-:
0000|10|-:
0000|10|-:
0000|10|-:
0000|10|-:
0000|10|-:
0000|10|-:
0000|10|-:
0000|00|-E
0000|00|-:
0000|00|-m
0000|00|-:
0000|00|-:
0000|00|-:
0000|00|-:
0000|00|-:
0000|00|-:
0000|00|-:
0000|00|-:
0000|00|-:
0000|00|-:
0000|00|-:
0000|00|-:
0000|00|-:
--
1000|00|-m
0000|00|-:
0000|00|-:
0000|00|-:
0000|00|-:
0000|00|-:
0000|00|-:
0000|00|-:
0000|00|-:
0000|00|-:
0000|00|-:
0000|00|-:
0000|00|-:
0000|00|-:
0000|00|-:
0000|00|-:
1000|00|-:
0000|00|-:
0000|00|-:
0000|00|-:
0000|00|-:
0000|00|-:
0000|00|-:
0000|00|-:
0000|00|-:
0000|00|-:
0000|00|-:
0000|00|-:
0000|00|-:
0000|00|-:
0000|00|-:
0000|00|-:
2000|00|-:
2000|00|-:
2000|00|-:
2000|00|-:
2000|00|-:
2000|00|-:
2000|00|-:
2000|00|-:
2000|00|-:
2000|00|-:
2000|00|-:
2000|00|-:
2000|00|-:
2000|00|-:
2000|00|-:
2000|00|-:
0000|00|-2
0000|00|-:
0000|00|-m
0000|00|--
0000|00|--
0000|00|--
0000|00|--
0000|00|--
0000|00|--
0000|00|--
0000|00|--
0000|00|--
0000|00|--
0000|00|--
0000|00|--
0000|00|--
--
0100|00|--
0000|00|--
0100|00|--
0000|00|--
0010|00|--
0000|00|--
0010|00|--
0100|00|--
0000|00|--
0100|00|--
0000|00|--
0100|00|--
0001|00|--
0000|00|--
0001|00|--
0000|00|--
--
0100|00|--
0010|00|--
0100|00|--
0010|00|--
0100|00|--
0000|00|--
0100|00|--
0000|00|--
0001|00|--
0000|00|--
0001|00|--
0000|00|--
1000|00|--
0000|00|--
0000|00|--
0000|00|--
--
0000|00|-m
0000|00|-:
0000|00|-2
0000|00|--
0000|00|--
0000|00|--
0000|00|--
0000|00|--
0000|00|--
0000|00|--
0000|00|--
0000|00|--
0000|00|--
0000|00|--
0000|00|--
0000|00|--
0000|00|--
0000|00|--
0000|00|--
0000|00|--
0000|00|--
0000|00|--
0000|00|--
0000|00|--
0000|00|--
0000|00|--
0000|00|--
0000|00|--
0000|00|--
0000|00|--
0000|00|--
0000|00|--
0000|00|--
0000|00|--
0000|00|--
0000|00|--
0000|00|--
0000|00|--
0000|00|--
0000|00|--
0000|00|--
0000|00|--
0000|00|--
0000|00|--
0000|00|--
0000|00|--
0000|00|--
0000|00|--
0000|00|--
0000|00|--
0000|00|--
0000|00|--
0000|00|--
0000|00|--
0000|00|--
0000|00|--
0000|00|--
0000|00|--
0000|00|--
0000|00|--
0000|00|--
0000|00|--
0000|00|--
0000|00|--
--
