title=線香花火 SDVX edit
artist=kamome sano
effect=イエローSUB魔鈴
jacket=001_0119_1_b.jpg
illustrator=もとこ
difficulty=challenge
level=6
t=188
m=Senkou hanabi SDVX edit_ch_f.ogg;Senkou hanabi SDVX edit_ch_f.ogg
o=0
bg=desert
layer=arrow
po=0
plength=15000
pfiltergain=50
filtertype=peak
chokkakuvol=50
pfilterdelay=0
information=By MasakaWillKillMe
icon=../voltex1.png
ver=140d
--
beat=4/4
0000|00|--
--
0000|00|--
--
0000|00|--
0000|00|--
0000|00|--
1000|00|--
--
0100|00|--
0000|00|--
0100|00|--
0010|00|--
0000|00|--
0000|00|--
0001|00|--
0001|00|--
--
0000|00|--
0010|00|--
0000|00|--
0000|00|--
--
0000|00|--
0000|00|--
0000|00|--
0000|00|--
0000|00|--
0000|00|--
0000|00|--
0100|00|--
--
0000|00|--
0000|00|--
0010|00|--
1000|00|--
0000|00|--
0000|00|--
0001|00|--
0100|00|--
--
0000|00|--
0000|00|--
0000|00|--
1000|00|--
--
0100|00|--
0010|00|--
0100|00|--
0001|00|--
--
0010|00|--
0100|00|--
1000|00|--
0100|00|--
--
0010|00|--
0001|00|--
1000|00|--
0001|00|--
--
0010|00|--
0000|00|--
0000|00|0-
0000|00|:-
--
0000|00|:-
0000|00|:-
0000|00|:-
0000|00|:-
0000|00|:-
0000|00|:-
0000|00|:-
0000|00|:-
0000|00|o-
0000|00|--
0000|00|--
0000|00|--
0010|00|--
0000|00|--
0100|00|--
0000|00|--
--
0000|00|--
0001|00|--
0100|00|--
0001|00|--
--
0010|00|--
0100|00|--
1000|00|--
0100|00|--
--
0010|00|--
0000|00|--
1000|00|--
1000|00|--
0000|00|--
0000|00|--
0010|00|--
0001|00|--
--
0000|00|--
0000|00|--
0010|00|--
0100|00|--
0000|00|--
0000|00|--
0001|00|--
1000|00|--
--
0000|00|--
0000|00|--
0000|00|-o
0000|00|-:
--
0000|00|-:
0000|00|-:
0000|00|-0
0000|00|--
--
0000|S0|--
0000|S0|--
0000|S0|--
0000|S0|--
0000|00|--
0000|00|--
0010|00|--
0000|00|--
0000|00|--
0000|00|--
0000|00|--
0000|00|--
0100|00|--
0000|00|--
0100|00|--
0000|00|--
--
0000|00|--
0001|00|--
0000|00|--
0000|00|--
--
0000|00|--
--
0010|00|--
0000|00|--
0100|00|--
1000|00|--
0000|00|--
0000|00|--
0001|00|--
0100|00|--
--
0000|00|--
0000|00|--
0000|00|--
0100|00|--
--
0010|00|--
0000|00|--
0001|00|--
0000|00|--
1000|00|--
0000|00|--
0000|0F|--
0000|0F|--
--
0000|S0|--
0000|S0|--
0000|0F|--
0000|0F|--
0000|F0|--
0000|F0|--
0000|0F|--
0000|0F|--
--
0000|I0|--
0000|I0|--
0001|00|--
0000|00|--
0100|00|--
0000|00|--
0010|00|--
0000|00|--
--
1000|00|--
--
0000|00|--
0000|00|--
0000|00|--
0000|00|--
0000|00|--
0000|00|--
0010|00|--
0100|00|--
--
0000|00|--
0001|00|--
0100|00|--
0001|00|--
--
0000|S0|--
0000|S0|--
0000|0H|--
0000|0H|--
0000|H0|--
0000|H0|--
0000|0I|--
0000|0I|--
--
0100|00|--
0000|00|--
0000|00|--
0000|00|--
1000|00|--
0000|00|--
1000|00|--
0000|00|--
0000|00|--
0000|00|--
0000|00|--
0000|00|--
0010|00|--
0000|00|--
0001|00|--
0000|00|--
--
0000|00|--
0000|00|--
1000|00|--
0100|00|--
0000|00|--
0000|00|--
0010|00|--
0100|00|--
--
0000|00|--
--
0001|00|--
0000|00|--
0000|00|--
0001|00|--
0000|00|--
0000|00|--
0001|00|--
0000|00|--
--
0010|00|--
0000|00|--
0000|00|--
0000|00|--
0100|00|--
0000|00|--
0100|00|--
0000|00|--
0000|00|--
0000|00|--
0001|00|--
0000|00|--
0000|00|--
0000|00|--
0000|H0|--
0000|H0|--
--
0000|H0|--
0000|H0|--
0000|H0|--
0000|H0|--
0010|00|--
0000|00|--
1000|00|--
0000|00|--
--
0010|00|--
0000|00|--
0000|00|--
0000|00|--
0001|00|--
0000|00|--
1000|00|--
0000|00|--
0000|00|--
0000|00|--
0100|00|--
0000|00|--
0000|00|--
0000|00|--
0000|0H|--
0000|0H|--
--
0000|0H|--
0000|0H|--
0000|0H|--
0000|0H|--
1000|00|--
0000|00|--
1000|00|--
0000|00|--
--
0010|00|--
0000|00|--
0100|00|--
0001|00|--
0000|00|--
0010|00|--
0000|00|--
0001|00|--
--
0000|00|--
0000|00|--
0010|00|--
0100|00|--
--
1000|00|--
0000|00|--
0000|00|--
0000|00|--
0010|00|--
0000|00|--
0100|00|--
0000|00|--
0000|00|--
0000|00|--
0001|00|--
0000|00|--
0000|00|--
0000|00|--
0000|0F|--
0000|0F|--
--
0000|0F|--
0000|0F|--
0000|00|--
0000|00|--
--
0000|00|0-
0000|00|:-
--
0000|00|o-
0000|00|:-
0000|00|P-
0000|00|:-
--
0000|00|o-
0000|00|:-
--
0000|00|0-
0000|00|:-
0000|00|:-
0000|00|:-
0000|00|:-
0000|00|:-
0000|00|o-
0000|00|--
--
0000|00|-o
0000|00|-:
--
0000|00|-0
0000|00|-:
--
0000|00|-o
0000|00|-:
0000|00|-:
0000|00|-:
0000|00|-:
0000|00|-:
0000|00|-0
0000|00|--
--
1000|00|--
0000|00|--
0000|00|--
1000|00|--
0000|00|--
0000|00|--
1000|00|--
0000|00|--
--
0000|0S|--
0000|0S|--
0000|0S|--
0000|0S|--
0100|00|--
0000|00|--
1000|00|--
0000|00|--
0000|00|--
0000|00|--
0010|00|--
0000|00|--
0000|00|--
0000|00|--
0001|00|--
0000|00|--
--
0000|00|--
0000|00|--
0000|00|--
0010|00|--
--
0000|S0|--
0000|S0|--
0000|S0|--
0000|S0|--
0001|00|--
0000|00|--
0010|00|--
0000|00|--
0000|00|--
0000|00|--
1000|00|--
0000|00|--
0000|00|--
0000|00|--
0001|00|--
0000|00|--
--
0000|00|--
0000|00|--
0100|00|--
0100|00|--
--
0001|00|--
0000|00|--
0010|00|--
0100|00|--
0000|00|--
0001|00|--
0000|00|--
1000|00|--
--
0000|00|--
0000|00|--
0100|00|--
0100|00|--
--
0010|00|--
0000|00|--
0000|00|--
0000|00|--
0100|00|--
0000|00|--
1000|00|--
0000|00|--
0000|00|--
0000|00|--
0000|0F|--
0000|0F|--
0000|0F|--
0000|0F|--
0000|IF|--
0000|IF|--
--
0000|IF|--
0000|IF|--
0000|IF|--
0000|IF|--
0000|00|--
0000|00|--
1000|00|--
0000|00|--
--
0000|0S|--
0000|0S|--
0000|0S|--
0000|0S|--
0100|00|--
0000|00|--
1000|00|--
0000|00|--
0000|00|--
0000|00|--
0010|00|--
0000|00|--
0000|00|--
0000|00|--
0001|00|--
0000|00|--
--
0000|00|--
0000|00|--
0000|00|--
0010|00|--
--
0000|S0|--
0000|S0|--
0000|S0|--
0000|S0|--
0001|00|--
0000|00|--
0100|00|--
0000|00|--
0000|00|--
0000|00|--
0001|00|--
0000|00|--
0000|00|--
0000|00|--
1000|00|--
0000|00|--
--
0000|00|--
0000|00|--
0010|00|--
0010|00|--
--
0001|00|--
0000|00|--
0100|00|--
0100|00|--
0000|00|--
0001|00|--
0000|00|--
1000|00|--
--
0000|00|--
0000|00|--
0000|0F|--
0000|0F|--
0000|H0|--
0000|H0|--
0000|0F|--
0000|0F|--
--
0100|00|--
0000|00|--
0000|00|--
0000|00|--
0010|00|--
0000|00|--
0100|00|--
0000|00|--
0000|00|--
0000|00|--
1000|00|--
0000|00|--
0000|00|--
0000|00|--
0000|0I|--
0000|0I|--
--
0000|0I|--
0000|0I|--
0000|0I|--
0000|0I|--
0000|0I|--
0000|0I|--
0000|00|--
0000|00|--
--
0000|00|0-
0000|00|:-
--
0000|00|o-
0000|00|:-
--
0000|00|0-
0000|00|:-
0000|00|P-
0000|00|:-
--
0000|00|0-
0000|00|:-
0000|00|:-
0000|00|:-
0000|00|:-
0000|00|:-
0000|00|o-
0000|00|--
--
0000|00|-o
0000|00|-:
0000|00|-P
0000|00|-:
--
0000|00|-o
0000|00|-:
--
0000|00|-0
0000|00|-:
0000|00|-P
0000|00|-:
--
0000|00|-0
0000|00|-:
0000|00|-:
0000|00|-:
0000|00|-:
0000|00|-:
0000|00|-o
0000|00|--
--
1000|00|--
1000|00|--
1000|00|--
1000|00|--
--
0100|00|--
0001|00|--
0100|00|--
0001|00|--
--
0010|00|--
0010|00|--
0010|00|--
0010|00|--
--
0000|I0|--
0000|I0|--
0000|I0|--
0000|I0|--
0001|00|--
0000|00|--
0001|00|--
0000|00|--
--
0100|00|--
0100|00|--
0100|00|--
0100|00|--
--
0000|0F|--
0000|0F|--
1000|00|--
0000|00|--
0000|0F|--
0000|0F|--
1000|00|--
0000|00|--
--
0010|00|--
0100|00|--
0010|00|--
0001|00|--
--
1000|00|--
0000|00|--
0001|00|--
1000|00|--
0000|00|--
0001|00|--
1000|00|--
0000|00|--
--
0110|00|--
--
