title=Scarlet Pinheel
artist=ぺのれり
effect=DJ 摂津 × メルシー岡田
jacket=n_ja.jpg
illustrator=ムーランルージュの女
difficulty=light
level=4
t=172
m=n.mp3;n.mp3
o=522
bg=grass
layer=arrow
po=0
plength=15000
pfiltergain=0
filtertype=peak
chokkakuautovol=1
chokkakuvol=0
pfilterdelay=0
ver=140d
--
beat=4/4
t=172
0000|00|--
--
0001|00|--
0001|00|--
--
1000|00|--
1000|00|--
--
0001|00|--
0001|00|--
--
0000|10|--
0000|10|--
0000|10|--
0000|10|--
0000|10|--
0000|10|--
0000|00|--
0000|00|--
--
0010|00|--
0010|00|--
--
0100|00|--
0100|00|--
--
0010|00|--
0010|00|--
--
0000|00|2-
0000|00|:-
--
0000|00|l-
0000|00|:-
--
0000|00|2-
0000|00|:-
0000|00|:-
0000|00|:-
0000|00|:-
0000|00|:-
0000|00|l-
0000|00|--
--
0000|00|-m
0000|00|-:
--
0000|00|-2
0000|00|-:
0000|00|-:
0000|00|-:
0000|00|-:
0000|00|-:
0000|00|-l
0000|00|--
--
0000|00|2-
0000|00|:-
--
0000|00|:-
0000|00|:-
0000|00|:-
0000|00|:-
0000|00|:-
0000|00|:-
0000|00|:-
0000|00|:-
0000|00|:-
0000|00|:-
0000|00|:-
0000|00|:-
0000|00|:-
0000|00|:-
0000|00|:-
0000|00|:-
0000|00|:-
0000|00|:-
0000|00|:-
0000|00|:-
0000|00|:-
0000|00|:-
0000|00|:-
0000|00|:-
0000|00|:-
0000|00|:-
0000|00|:-
0000|00|:-
0000|00|:-
0000|00|:-
0000|00|:-
0000|00|:-
0000|00|m-
0000|00|:-
0000|00|:-
0000|00|:-
0000|00|:-
0000|00|:-
0000|00|:-
0000|00|:-
0000|00|:-
0000|00|:-
0000|00|:-
0000|00|:-
0000|00|:-
0000|00|:-
0000|00|:-
0000|00|:-
0000|00|:-
0000|00|:-
0000|00|:-
0000|00|:-
0000|00|:-
0000|00|:-
0000|00|:-
0000|00|:-
0000|00|m-
0000|00|:-
0000|00|2-
0000|00|--
0000|00|--
0000|00|--
0000|00|--
0000|00|--
--
0000|00|--
--
0011|00|--
0000|00|--
0000|00|--
1100|00|--
0000|00|--
0000|00|--
0011|00|--
0000|00|--
--
0000|10|--
0000|10|--
0000|10|--
0000|10|--
0000|10|--
0000|10|--
0000|00|--
0000|00|--
--
0000|01|--
0000|01|--
0000|01|--
0000|01|--
0000|01|--
0000|01|--
0000|00|--
0000|00|--
--
0000|10|--
0000|10|--
0000|10|--
0000|10|--
0000|10|--
0000|10|--
0000|00|--
0000|00|--
--
0001|00|--
0001|00|--
0001|00|--
0000|00|--
--
0000|00|2-
0000|00|:-
--
0000|00|l-
0000|00|:-
0000|00|2-
0000|00|:-
--
0000|00|m-
0000|00|:-
0000|00|:-
0000|00|:-
0000|00|:-
0000|00|:-
0000|00|2-
0000|00|--
--
0011|00|--
1100|00|--
--
0000|00|--
0000|00|--
0110|00|--
0000|00|--
0000|00|--
0110|00|--
0000|00|--
0000|00|--
0110|00|--
0000|00|--
0000|00|--
0000|00|--
0000|00|--
0000|00|--
0000|00|--
0000|00|--
--
0001|00|--
0001|00|--
--
1000|00|--
1000|00|--
--
0000|01|--
0000|01|--
0000|10|--
0000|10|--
--
0000|01|--
0000|01|--
0000|00|--
0000|00|--
--
1000|00|--
1000|00|--
--
0001|00|--
0001|00|--
--
1100|00|--
0011|00|--
--
1000|00|--
1000|00|--
1000|00|--
0000|00|--
--
0000|00|-m
0000|00|-:
0000|00|-2
0000|00|-:
--
0000|00|-m
0000|00|-:
0000|00|-2
0000|00|--
--
0000|00|2-
0000|00|:-
0000|00|m-
0000|00|:-
--
0000|00|2-
0000|00|:-
0000|00|m-
0000|00|--
--
0000|01|--
0000|01|--
0000|01|--
0000|01|--
0000|01|--
0000|01|--
0000|00|--
0000|00|--
--
0000|10|--
0000|10|--
0000|10|--
0000|10|--
0000|10|--
0000|10|--
0000|00|--
0000|00|--
--
0000|01|--
0000|01|--
0000|10|--
0000|10|--
--
0000|01|--
0000|01|--
0000|01|--
0000|01|--
0000|01|--
0000|01|--
0000|00|--
0000|00|--
--
1000|00|--
1000|00|--
--
0100|00|--
0100|00|--
--
0010|00|--
0010|00|--
--
0001|00|--
0001|00|--
--
0010|00|--
0010|00|--
--
0100|00|--
0100|00|--
--
1000|00|--
1000|00|--
--
0000|00|-m
0000|00|-:
--
0000|00|-2
0000|00|-:
0000|00|-:
0000|00|-:
0000|00|-:
0000|00|-:
0000|00|-:
0000|00|-:
0000|00|-:
0000|00|-:
0000|00|-:
0000|00|-:
0000|00|-:
0000|00|-:
0000|00|-:
0000|00|-:
0000|00|-2
0000|00|-:
0000|00|-m
0000|00|--
0000|00|--
0000|00|--
0000|00|--
0000|00|--
0000|00|--
0000|00|--
0000|00|--
0000|00|--
0000|00|--
0000|00|--
0000|00|--
0000|00|--
0000|00|--
0000|00|--
0000|00|--
0000|00|--
0000|00|--
0000|00|--
0000|00|--
0000|00|--
0000|00|--
0000|00|--
0000|00|--
0000|00|--
0000|00|--
0000|00|--
0000|00|--
0000|00|--
0000|00|--
0000|00|--
0000|00|--
0000|00|--
0000|00|--
0000|00|--
0000|00|--
0000|00|--
0000|00|--
0000|00|--
0000|00|--
0000|00|--
0000|00|--
0000|00|--
0000|00|--
0000|00|--
--
0000|10|--
0000|10|--
0000|10|--
0000|10|--
0000|10|--
0000|10|--
0000|00|--
0000|00|--
--
0000|01|--
0000|01|--
0000|00|--
0000|00|--
0000|01|--
0000|01|--
0000|00|--
0000|00|--
--
0000|10|--
0000|10|--
0000|00|--
0000|00|--
0000|10|--
0000|10|--
0000|00|--
0000|00|--
--
0000|00|-m
0000|00|-:
0000|00|-:
0000|00|-:
0000|00|-:
0000|00|-:
0000|00|-2
0000|00|--
--
0000|00|--
--
0000|00|-m
0000|00|-:
--
0000|00|-2
0000|00|-:
0000|00|-m
0000|00|-:
--
0000|00|-2
0000|00|-:
0000|00|-:
0000|00|-:
0000|00|-:
0000|00|-:
0000|00|-m
0000|00|-:
--
0000|00|-m
0000|00|-:
0000|00|-2
0000|00|--
0000|00|--
0000|00|--
0000|00|--
0000|00|--
0000|00|--
0000|00|--
0000|00|--
0000|00|--
0000|00|--
0000|00|--
0000|00|--
0000|00|--
0000|00|--
0000|00|--
0000|00|--
0000|00|--
0000|00|--
0000|00|--
0000|00|--
0000|00|--
0000|00|--
0000|00|--
0000|00|--
0000|00|--
0000|00|--
0000|00|--
0000|00|--
0000|00|--
0000|00|--
0000|00|--
0000|00|--
0000|00|--
0000|00|--
0000|00|--
0000|00|--
0000|00|--
0000|00|--
0000|00|--
0000|00|--
0000|00|--
0000|00|--
0000|00|--
0000|00|--
0000|00|--
0000|00|--
0000|00|--
0000|00|--
0000|00|--
0000|00|--
0000|00|--
0000|00|--
0000|00|--
0000|00|--
0000|00|--
0000|00|--
0000|00|--
0000|00|--
0000|00|--
0000|00|--
0000|00|--
--
0000|10|--
0000|10|--
0000|01|--
0000|01|--
--
0000|10|--
0000|10|--
0000|00|--
0000|00|--
--
0000|01|--
0000|01|--
0000|10|--
0000|10|--
--
0000|01|--
0000|01|--
0000|00|--
0000|00|--
--
1000|00|--
1000|00|--
--
0001|00|--
0001|00|--
--
1000|00|--
1000|00|--
--
0000|01|--
0000|01|--
0000|01|--
0000|01|--
0000|01|--
0000|01|--
0000|00|--
0000|00|--
--
0000|10|--
0000|10|--
0000|00|--
0000|00|--
0000|01|--
0000|01|--
0000|00|--
0000|00|--
--
0000|10|--
0000|10|--
0000|00|--
0000|00|--
0000|01|--
0000|01|--
0000|00|--
0000|00|--
--
0000|10|--
0000|10|--
0000|01|--
0000|01|--
0000|10|--
0000|10|--
0000|01|--
0000|01|--
--
0000|10|--
0000|10|--
0000|00|--
0000|00|--
--
0011|00|--
1100|00|--
--
0011|00|--
1100|00|--
--
0000|00|-m
0000|00|-:
--
0000|00|-2
0000|00|-:
0000|00|-:
0000|00|-:
0000|00|-:
0000|00|-:
0000|00|-l
0000|00|--
--
1100|00|--
0011|00|--
--
0000|00|--
0000|00|--
0000|00|--
0000|00|--
0110|00|--
0000|00|--
0000|00|--
0000|00|--
0000|00|--
0000|00|--
0110|00|--
0000|00|--
0000|00|--
0000|00|--
0000|00|--
0000|00|--
0220|00|--
0220|00|--
0220|00|--
0220|00|--
0220|00|--
0220|00|--
0220|00|--
0220|00|--
0220|00|--
0220|00|--
0220|00|--
0220|00|--
0220|00|--
0220|00|--
0220|00|--
0220|00|--
--
0000|00|--
0000|00|--
--
