title=ロンロンへ ライライライ!
artist=ここなつ
effect=東京ブルトゥーム
jacket=icon.png
illustrator=CUTEG
difficulty=light
level=4
t=156
m=nofx160.wav;nofx160.wav
o=0
bg=cyber
layer=hidden
po=0
plength=15000
pfiltergain=50
filtertype=peak
chokkakuautovol=0
chokkakuvol=50
ver=160
--
beat=4/4
t=156
zoom_top=-30
zoom_bottom=15
0000|00|--
--
0001|00|--
0001|00|--
0010|00|--
0010|00|--
--
0100|00|--
0100|00|--
0100|00|--
0000|00|--
--
fx-l=Flanger
0000|10|--
0000|10|--
0000|00|--
0000|00|--
fx-r=Wobble;12
0000|01|--
0000|01|--
0000|00|--
0000|00|--
--
0000|20|--
0000|00|--
0000|20|--
0000|00|--
fx-l=Phaser
0000|10|--
0000|10|--
0000|00|--
0000|00|--
--
0001|00|--
0001|00|--
0010|00|--
0010|00|--
--
0100|00|--
0100|00|--
0100|00|--
0000|00|--
--
fx-l=BitCrusher;10
0000|10|--
0000|10|--
0000|00|--
0000|00|--
fx-r=Gate;16
0000|01|--
0000|01|--
0000|00|--
0000|00|--
--
0000|20|--
0000|00|--
0000|20|--
0000|00|--
fx-l=Phaser
0000|10|--
0000|10|--
0000|00|--
0000|00|--
--
0010|00|--
0100|00|--
--
0010|00|--
0010|00|--
0100|00|--
0100|00|--
--
0001|00|--
0000|00|--
0001|00|--
0000|00|--
fx-r=Gate;8
0000|01|--
0000|01|--
0000|00|--
0000|00|--
--
1000|00|--
0000|00|--
1000|00|--
0000|00|--
fx-l=Gate;16
0000|10|--
0000|10|--
0000|00|--
0000|00|--
--
0010|00|--
0000|00|--
0010|00|--
0000|00|--
fx-r=Retrigger;8
0000|01|--
0000|01|--
0000|00|--
0000|00|--
--
fx-l=Gate;8
0000|10|--
0000|10|--
0000|00|--
0000|00|--
fx-l=Retrigger;16
0000|10|--
0000|10|--
0000|00|--
0000|00|--
--
0000|00|-o
0000|00|-:
0000|00|-:
0000|00|-:
0000|00|-:
0000|00|-:
0000|00|-0
0000|00|--
--
0000|00|0-
0000|00|:-
0000|00|:-
0000|00|:-
0000|00|:-
0000|00|:-
0000|00|o-
0000|00|--
--
0000|00|-o
0000|00|-:
0000|00|-:
0000|00|-:
0000|00|-:
0000|00|-:
0000|00|-0
0000|00|--
--
1000|00|--
1000|00|--
1000|00|--
0000|00|--
--
fx-l=BitCrusher;10
0000|10|--
0000|10|--
0000|00|--
0000|00|--
fx-r=BitCrusher;10
0000|01|--
0000|01|--
0000|00|--
0000|00|--
--
fx-l=Phaser
0000|10|--
0000|10|--
0000|00|--
0000|00|--
0000|00|--
0000|00|--
0000|00|--
0000|00|--
--
fx-r=BitCrusher;10
0000|01|--
0000|01|--
0000|00|--
0000|00|--
fx-l=BitCrusher;10
0000|10|--
0000|10|--
0000|00|--
0000|00|--
--
fx-r=Gate;16
0000|01|--
0000|01|--
0000|01|--
0000|01|--
0000|00|--
0000|00|--
0000|20|--
0000|00|--
--
0000|00|--
0001|00|--
0001|00|--
0001|00|--
--
0000|00|--
1000|00|--
1000|00|--
1000|00|--
--
0000|00|--
0010|00|--
0010|00|--
0010|00|--
--
fx-l=Flanger
0000|10|--
0000|10|--
fx-r=Wobble;12
0000|01|--
0000|01|--
fx-l=Phaser
0000|10|--
0000|10|--
0000|00|--
0000|00|--
--
0000|00|--
0010|00|--
0010|00|--
0010|00|--
--
0000|00|--
0100|00|--
0100|00|--
0100|00|--
--
0000|00|--
0001|00|--
0001|00|--
0001|00|--
--
fx-l=Wobble;12
0000|10|--
0000|10|--
fx-r=BitCrusher;10
0000|01|--
0000|01|--
fx-l=Phaser
0000|10|--
0000|10|--
0000|00|--
0000|00|--
--
0000|00|--
0001|00|--
0001|00|--
0010|00|--
--
0000|00|--
1000|00|--
1000|00|--
0100|00|--
--
0000|00|--
0010|00|--
0010|00|--
0001|00|--
--
fx-l=SideChain
0000|10|--
0000|10|--
fx-r=SideChain
0000|01|--
0000|01|--
fx-l=Gate;8
0000|10|--
0000|10|--
fx-r=Gate;16
0000|01|--
0000|01|--
--
0000|00|--
0000|00|--
1000|00|--
0000|00|--
1000|00|--
0000|00|--
0100|00|--
0000|00|--
--
0000|00|--
0001|00|--
0001|00|--
0010|00|--
--
fx-l=Wobble;12
0000|10|--
0000|10|--
0000|00|--
0000|00|--
fx-r=Gate;16
0000|01|--
0000|01|--
0000|00|--
0000|00|--
--
0000|20|--
0000|00|--
0000|20|--
0000|00|--
fx-r=Phaser
0000|01|--
0000|01|--
0000|00|--
0000|00|--
--
0000|00|0-
0000|00|:-
0000|00|o-
0000|00|:-
--
0000|00|o-
0000|00|:-
0000|00|0-
0000|00|:-
--
0000|00|0-
0000|00|:-
0000|00|o-
0000|00|:-
--
0000|00|0-
0000|00|:-
0000|00|:-
0000|00|:-
0000|00|o-
0000|00|:-
0000|00|0-
0000|00|--
--
0000|00|-o
0000|00|-:
0000|00|-0
0000|00|-:
--
0000|00|-0
0000|00|-:
0000|00|-o
0000|00|-:
--
0000|00|-o
0000|00|-:
0000|00|-0
0000|00|-:
--
0000|00|-o
0000|00|-:
0000|00|-:
0000|00|-:
0000|00|-0
0000|00|-:
0000|00|-o
0000|00|--
--
fx-l=BitCrusher;10
0000|10|--
0000|10|--
0000|00|--
0000|00|--
fx-r=BitCrusher;10
0000|01|--
0000|01|--
0000|00|--
0000|00|--
--
fx-l=Phaser
0000|10|--
0000|10|--
0000|00|--
0000|00|--
0000|00|--
0000|00|--
0000|00|--
0000|00|--
--
fx-r=BitCrusher;10
0000|01|--
0000|01|--
0000|00|--
0000|00|--
fx-l=BitCrusher;10
0000|10|--
0000|10|--
0000|00|--
0000|00|--
--
fx-r=Gate;16
0000|01|--
0000|01|--
0000|01|--
0000|01|--
0000|00|--
0000|00|--
0000|20|--
0000|00|--
--
0001|00|--
0001|00|--
0001|00|--
0000|00|--
--
fx-l=Gate;8
0000|10|--
0000|10|--
fx-r=Gate;16
0000|01|--
0000|01|--
fx-l=Wobble;12
0000|10|--
0000|10|--
0000|00|--
0000|00|--
--
fx-r=Gate;8
0000|01|--
0000|01|--
fx-l=Retrigger;16
0000|10|--
0000|10|--
fx-r=Flanger
0000|01|--
0000|01|--
fx-l=Retrigger;12
0000|10|--
0000|10|--
--
0001|00|--
0000|00|--
0001|00|--
0000|00|--
0001|00|--
0000|00|--
0000|00|--
0000|00|--
--
1000|00|--
1000|00|--
1000|00|--
0000|00|--
--
fx-r=Gate;8
0000|01|--
0000|01|--
fx-l=Gate;8
0000|10|--
0000|10|--
fx-r=Wobble;12
0000|01|--
0000|01|--
0000|00|--
0000|00|--
--
fx-l=Flanger
0000|10|--
0000|10|--
fx-r=Gate;16
0000|01|--
0000|01|--
fx-l=BitCrusher;10
0000|10|--
0000|10|--
fx-r=Retrigger;16
0000|01|--
0000|01|--
--
1000|00|--
0000|00|--
1000|00|--
0000|00|--
fx-l=Phaser
0000|10|--
0000|10|--
0000|00|--
0000|00|--
--
1001|00|--
1001|00|--
1001|00|--
0000|00|--
--
fx-l=Gate;8
0000|10|--
0000|10|--
fx-r=Gate;8
0000|01|--
0000|01|--
fx-l=Retrigger;32
0000|10|--
0000|10|--
0000|00|--
0000|00|--
--
fx-r=Wobble;12
0000|01|--
0000|01|--
fx-l=Gate;16
0000|10|--
0000|10|--
fx-r=Gate;16
0000|01|--
0000|01|--
fx-l=Retrigger;16
0000|10|--
0000|10|--
--
0001|00|--
0000|00|--
0001|00|--
0000|00|--
0010|00|--
0000|00|--
0010|00|--
0000|00|--
--
fx-l=Phaser
0000|10|--
0000|10|--
0000|00|--
0000|00|--
--
fx-r=Gate;8
0000|01|--
0000|01|--
fx-l=Gate;8
0000|10|--
0000|10|--
fx-r=Retrigger;12
0000|01|--
0000|01|--
0000|00|--
0000|00|--
--
fx-l=BitCrusher;10
0000|10|--
0000|10|--
fx-r=Gate;16
0000|01|--
0000|01|--
fx-l=Flanger
0000|10|--
0000|10|--
fx-r=Retrigger;16
0000|01|--
0000|01|--
--
1000|00|--
0000|00|--
1000|00|--
0000|00|--
0001|00|--
0000|00|--
0001|00|--
0000|00|--
--
0000|00|0-
0000|00|:-
0000|00|o-
0000|00|:-
filtertype=fx;bitc
0000|00|o-
0000|00|:-
0000|00|0-
0000|00|:-
--
filtertype=hpf1
0000|00|0-
0000|00|:-
0000|00|:-
0000|00|:-
0000|00|:-
0000|00|:-
0000|00|:-
0000|00|:-
0000|00|:-
0000|00|:-
0000|00|:-
0000|00|:-
0000|00|:-
0000|00|:-
0000|00|:-
0000|00|:-
0000|00|:-
0000|00|:-
0000|00|:-
0000|00|:-
0000|00|:-
0000|00|:-
0000|00|:-
0000|00|:-
0000|00|o-
0000|00|--
filtertype=peak
0000|00|--
0000|00|--
0000|00|--
0000|00|--
0000|00|--
0000|00|--
--
0001|00|--
0001|00|--
0010|00|--
0010|00|--
--
1000|00|--
1000|00|--
0100|00|--
0100|00|--
--
0001|00|--
0001|00|--
0010|00|--
0010|00|--
--
fx-l=Retrigger;8
0000|10|--
0000|10|--
0000|00|--
0000|00|--
fx-r=Retrigger;16
0000|01|--
0000|01|--
0000|00|--
0000|00|--
--
0000|00|0-
0000|00|:-
0000|00|:-
0000|00|:-
0000|00|:-
0000|00|:-
0000|00|o-
0000|00|--
--
0000|00|-o
0000|00|-:
0000|00|-:
0000|00|-:
0000|00|-:
0000|00|-:
0000|00|-0
0000|00|--
--
0000|00|0-
0000|00|:-
0000|00|:-
0000|00|:-
0000|00|:-
0000|00|:-
0000|00|o-
0000|00|--
--
fx-r=Gate;16
0000|01|--
0000|01|--
fx-l=Wobble;12
0000|10|--
0000|10|--
--
0000|10|--
0000|10|--
0000|10|--
0000|10|--
0000|10|--
0000|10|--
0000|10|--
0000|10|--
0000|00|--
0000|00|--
fx-r=Flanger
0000|01|--
0000|01|--
0000|01|--
0000|01|--
0000|01|--
0000|01|--
--
0000|01|--
0000|01|--
0000|01|--
0000|01|--
0000|01|--
0000|01|--
0000|00|--
0000|00|--
0000|00|--
0000|00|--
0000|00|--
0000|00|--
0000|00|--
0000|00|--
0000|00|--
0000|00|--
--
0000|00|--
--
zoom_top=-30
zoom_bottom=15
0000|00|--
--
