title=REGALIA
artist=Riz
effect=Megacycle
jacket=jk.png
illustrator=なす
difficulty=extended
level=17
t=222
m=regalia.wav
o=0
bg=desert
layer=arrow
po=0
plength=15000
pfiltergain=50
filtertype=peak
chokkakuautovol=0
chokkakuvol=50
ver=140d
--
beat=5/4
t=222
tilt=normal
zoom_top=-30
zoom_bottom=15
0000|00|--
0000|00|--
0000|00|--
0000|00|--
0000|00|--
0000|00|--
0000|00|--
0000|00|--
0000|00|--
0000|00|--
0000|00|--
0000|00|--
0000|00|--
0000|00|--
0000|00|--
0000|00|--
0000|00|--
0000|00|--
0000|00|--
0000|00|--
--
1010|00|-o
0000|00|-0
0000|00|--
0000|00|--
0000|00|--
0000|00|--
0000|00|--
0000|00|--
0000|00|--
0000|00|--
0000|00|--
0000|00|--
filtertype=hpf1
0000|XF|0-@)96
0000|XF|o-
0000|XF|:-
0000|XF|:-
0000|XF|:-
0000|XF|:-
0000|XF|:-
0000|XF|:-
0000|XF|:-
0000|XF|:-
0000|XF|:-
0000|XF|:-
0000|XF|:-
0000|XF|:-
0000|XF|:-
0000|XF|:-
0000|XF|:-
0000|XF|:-
0000|XF|:-
0000|XF|:-
0000|XF|:-
0000|XF|:-
0000|XF|:-
0000|XF|:-
0000|XF|:-
0000|XF|:-
0000|XF|:-
0000|XF|:-
--
0000|XF|:-
0000|XF|:-
0000|XF|:-
0000|XF|:-
0000|XF|:-
0000|XF|:-
0000|XF|:-
0000|XF|:-
0000|XF|:-
0000|XF|:-
0000|XF|:-
0000|XF|:-
0000|XF|:-
0000|XF|:-
0000|XF|:-
0000|XF|:-
0000|00|0-
0000|00|:-
0000|00|:-
0000|00|:-
--
0101|00|0-
0000|00|o-
filtertype=peak
0000|00|--
0000|00|--
0000|00|--
0000|00|--
0000|00|--
0000|00|--
0000|00|--
0000|00|--
0000|00|--
0000|00|--
filtertype=fx;bitc
0000|XF|-o@(96
0000|XF|-0
0000|XF|-:
0000|XF|-:
0000|XF|-:
0000|XF|-:
0000|XF|-:
0000|XF|-:
0000|XF|-:
0000|XF|-:
0000|XF|-:
0000|XF|-:
0000|XF|-:
0000|XF|-:
0000|XF|-:
0000|XF|-:
0000|XF|-:
0000|XF|-:
0000|XF|-:
0000|XF|-:
0000|XF|-:
0000|XF|-:
0000|XF|-:
0000|XF|-:
0000|XF|-:
0000|XF|-:
0000|XF|-:
0000|XF|-:
--
0000|XF|-:
0000|XF|-:
0000|XF|-:
0000|XF|-:
0000|XF|-:
0000|XF|-:
0000|XF|-:
0000|XF|-:
0000|XF|-:
0000|XF|-:
0000|XF|-:
0000|XF|-:
0000|XF|-:
0000|XF|-:
0000|XF|-:
0000|XF|-:
0000|00|-o
filtertype=peak
0000|00|--
0000|00|--
0000|00|--
--
beat=4/4
0022|00|--
0022|00|--
0022|00|--
zoom_bottom=15
0022|00|--
0022|00|--
0022|00|--
0022|00|P-
0022|00|:-
0022|00|:-
0022|00|:-
0022|00|:-
0022|00|:-
0022|00|:-
0022|00|:-
0022|00|:-
0022|00|:-
--
0022|00|:-
0022|00|:-
0022|00|:-
0022|00|:-
zoom_bottom=-60
0022|00|0-
0022|00|:-
0022|00|:-
0022|00|:-
0022|00|:-
0022|00|:-
0022|00|:-
0022|00|:-
0022|00|o-
0022|00|--
0022|00|--
0022|00|--
--
2200|00|--
2200|00|--
2200|00|--
2200|00|--
2200|00|--
zoom_bottom=-60
2200|00|--
filtertype=lpf1
2200|00|-P
2200|00|-:
2200|00|-:
2200|00|-:
2200|00|-:
2200|00|-:
2200|00|-:
2200|00|-:
2200|00|-:
2200|00|-:
--
2200|00|-:
2200|00|-:
2200|00|-:
2200|00|-:
filtertype=peak
zoom_bottom=15
2200|00|-o
2200|00|-:
2200|00|-:
2200|00|-:
2200|00|-:
2200|00|-:
2200|00|-:
2200|00|-:
2200|00|-0
2200|00|--
2200|00|--
2200|00|--
--
beat=7/4
0002|F0|--
0002|F0|--
0002|F0|--
0002|F0|--
2020|00|--
2020|00|--
2020|00|--
2020|00|--
0200|0X|--
0200|0X|--
0200|0X|--
0200|0X|--
0022|00|--
0022|00|--
0022|00|--
0022|00|--
2200|00|--
2200|00|--
2200|00|--
2200|00|--
0010|0H|--
0000|0H|--
0010|0H|--
0000|0H|--
0100|H0|--
0000|H0|--
0100|H0|--
0000|H0|--
--
beat=4/4
2000|00|-o
2000|00|-0
2000|00|-:
2000|00|-:
2000|00|-:
2000|00|-:
2000|00|-:
2000|00|-:
0200|00|-:
0200|00|-:
0200|00|-:
0200|00|-:
0200|00|-0
0200|00|-o
0200|00|-:
0200|00|-: fx-l_param1=10
0000|B0|-:
0000|B0|-:
0000|B0|-:
0000|B0|-:
0000|B0|-:
0000|B0|-:
0000|B0|-:
0000|B0|-:
1100|00|-o
0000|00|-0
0000|00|--
0000|00|--
0000|00|--
0000|00|--
0000|00|--
0000|00|--
--
filtertype=hpf1
0002|00|0-
0002|00|o-
0002|00|:-
0002|00|:-
0002|00|:-
0002|00|:-
0002|00|:-
0002|00|:-
0020|00|:-
0020|00|:-
0020|00|:-
0020|00|:-
filtertype=peak
0020|00|o-
0020|00|0-
0020|00|:-
0020|00|:-
0000|0X|:-
0000|0X|:-
0000|0X|:-
0000|0X|:-
0000|0X|:-
0000|0X|:-
0000|0X|:-
0000|0X|:-
0011|00|0-
0000|00|o-
0000|00|--
0000|00|--
0000|00|--
0000|00|--
0000|00|--
0000|00|--
--
beat=3/4 fx-l_param1=10
0101|B0|--
0000|B0|--
0000|B0|--
0000|B0|--
0000|B0|--
0000|B0|--
0000|B0|--
0000|B0|--
0000|B0|-P
0000|B0|-o
0000|B0|-:
0000|B0|-:
0000|B0|-:
0000|B0|-:
0000|B0|-:
0000|B0|-:
0000|B0|-o
0000|B0|-P
0000|B0|--
0000|B0|--
0000|B0|--
0000|B0|--
0000|B0|--
0000|B0|--
--
1010|0F|--
0000|0F|--
0000|0F|--
0000|0F|--
0000|0F|--
0000|0F|--
0000|0F|--
0000|0F|--
0000|0F|P-
0000|0F|0-
0000|0F|:-
0000|0F|:-
0000|0F|:-
0000|0F|:-
0000|0F|:-
0000|0F|:-
0000|0F|0-
0000|0F|P-
0000|0F|--
0000|0F|--
0000|0F|--
0000|0F|--
0000|0F|--
0000|0F|--
--
0001|00|--
0010|00|--
0100|00|--
1000|00|--
0001|00|--
0010|00|--
0100|00|--
1000|00|--
0001|00|--
0010|00|--
0100|00|--
1000|00|--
--
beat=4/4
0000|H0|--
0000|H0|--
0000|H0|--
0000|H0|--
0110|H0|--
0000|H0|--
0000|H0|--
0000|H0|--
0001|0T|--
0000|0T|--
1000|0T|--
0000|0T|--
0001|0T|--
0000|0T|--
1000|0T|--
0000|0T|--
0000|X0|--
0000|X0|--
0000|X0|--
0000|X0|--
0000|X0|--
0000|X0|--
0000|X0|--
0000|X0|--
1100|00|-o
0000|00|-0
0000|00|--
0000|00|--
0000|00|--
0000|00|--
0000|00|--
0000|00|--
--
0020|00|0-
0020|00|o-
0020|00|:-
0020|00|:-
0020|00|:-
0020|00|:-
0020|00|:-
0020|00|:-
0020|00|:-
0020|00|:-
0020|00|:-
0020|00|:-
0002|00|0-
0002|00|:-
0002|00|:-
0002|00|:-
0002|00|:-
0002|00|:-
0002|00|:-
0002|00|:-
0002|00|:-
0002|00|:-
0002|00|:-
0002|00|:-
0010|00|o-
0000|00|--
0000|00|--
0000|00|--
0001|00|--
0000|00|--
0000|00|--
0000|00|--
--
2000|00|-o
2000|00|-:
2000|00|-:
2000|00|-:
2000|00|-:
2000|00|-:
0200|00|-0
0200|00|-:
0200|00|-:
0200|00|-:
0200|00|-:
0200|00|-:
0000|D0|-o
0000|D0|--
0000|D0|--
0000|D0|--
--
0202|00|--
0202|00|--
0202|00|--
0202|00|--
0202|00|--
0202|00|--
0202|00|--
0202|00|--
0202|00|--
0202|00|--
0202|00|--
0202|00|--
2020|00|--
2020|00|--
2020|00|--
2020|00|--
2020|00|--
2020|00|--
2020|00|--
2020|00|--
2020|00|--
2020|00|--
2020|00|--
2020|00|-- fx-l_param1=10
0000|B0|--
0000|B0|--
0000|B0|--
0000|B0|--
0000|B0|--
0000|B0|--
0000|B0|--
0000|B0|--
0000|B0|--
0000|B0|--
0000|B0|--
0000|B0|--
1000|0V|--
0000|0V|--
0000|0V|--
0000|0V|--
0100|0V|--
0000|0V|--
0000|0V|--
0000|0V|--
0010|0V|--
0000|0V|--
0000|0V|--
0000|0V|--
--
1002|00|--
0002|00|--
0002|00|--
0002|00|--
0012|00|--
0102|00|--
1002|00|--
0102|00|--
0010|H0|--
0000|H0|--
0100|H0|--
0000|H0|--
0010|H0|--
0000|H0|--
0100|H0|--
0000|H0|--
--
1000|00|-o
0000|00|-0
0000|00|-:
0000|00|-:
0000|00|-0
0000|00|-:
0000|00|-:
0000|00|-:
0000|00|-:
0000|00|-:
0000|00|-:
0000|00|-:
0000|00|0o
0000|00|o0
0000|00|:-
0000|00|:-
0000|00|:-
0000|00|:-
0000|00|:-
0000|00|:-
0000|00|:-
0000|00|:-
0000|00|:-
0000|00|:- fx-r_param1=10
0000|0B|o-
0000|0B|:-
0000|0B|:-
0000|0B|:-
0000|0B|:-
0000|0B|:-
0000|0B|:-
0000|0B|:-
--
0002|00|P-
0002|00|:-
0002|00|:-
0002|00|:-
0020|00|b-
0020|00|:-
0020|00|:-
0020|00|:-
0002|00|C-
0002|00|:-
0002|00|:-
0002|00|:-
0000|0U|P-
0000|0U|:-
0000|0U|:-
0000|0U|:-
--
0011|00|0-
0000|00|o-
0000|00|--
0000|00|--
0011|00|--
0000|00|--
0000|00|--
0000|00|--
0000|00|--
0000|00|--
0000|00|--
0000|00|-- fx-l_param1=10
0000|B0|-o
0000|B0|-0
0000|B0|-:
0000|B0|-:
0000|B0|-:
0000|B0|-:
0000|B0|-:
0000|B0|-:
0000|B0|-:
0000|B0|-:
0000|B0|-:
0000|B0|-:
1100|00|-0
0000|00|-o
0000|00|--
0000|00|--
0000|00|--
0000|00|--
0000|00|--
0000|00|--
--
0001|00|0-
0000|00|:-
0000|00|:-
0000|00|:-
0001|00|:-
0000|00|:-
0000|00|:-
0000|00|:-
0001|00|o-
0000|00|0-
0010|00|--
0000|00|--
0100|00|--
0000|00|--
1000|00|--
0000|00|--
filtertype=lpf1
0000|H0|-o
0000|H0|-:
0000|H0|-:
0000|H0|-:
1000|H0|-:
0000|H0|-:
0000|H0|-:
0000|H0|-:
0100|00|-0
0000|00|-o
filtertype=peak
0000|00|--
0000|00|--
0000|00|--
0000|00|--
0000|00|--
0000|00|--
--
1000|0F|--
0000|0F|--
1000|0F|--
0000|0F|--
1000|0F|--
0000|0F|--
1000|0F|--
0000|0F|--
1000|0F|--
0000|0F|--
1000|0F|--
0000|0F|--
0110|00|--
0000|00|--
1000|00|--
0000|00|--
--
0001|X0|--
0000|X0|--
0001|X0|--
0000|X0|--
0001|X0|--
0000|X0|--
2010|00|--
2000|00|--
2100|00|--
2000|00|--
2010|00|--
2000|00|--
0100|0H|--
0000|0H|--
0001|0H|--
0000|0H|--
--
0011|00|0-
0000|00|o-
0000|00|:-
0000|00|:-
0011|00|:-
0000|00|:-
0000|00|:-
0000|00|:-
0110|00|:-
0000|00|:-
0000|00|:-
0000|00|:-
0110|00|:-
0000|00|:-
0000|00|:-
0000|00|:-
1100|00|:-
0000|00|:-
0000|00|:-
0000|00|:-
1100|00|:-
0000|00|:-
0000|00|:-
0000|00|:-
0010|00|:-
0000|00|:-
0000|00|:-
0000|00|:-
0001|00|:-
0000|00|:-
0000|00|:-
0000|00|:-
--
0000|0D|o-
0000|0D|:-
0000|0D|:-
0000|0D|:-
0000|0D|:-
0000|0D|:-
0020|00|C-
0020|00|:-
0020|00|:-
0020|00|:-
0020|00|:-
0020|00|:-
filtertype=fx;bitc
0002|00|b-
0002|00|:-
0002|00|:-
0002|00|:-
--
0000|02|0-
0000|00|o-
filtertype=peak
0000|00|--
0000|00|--
0010|00|--
0000|00|--
0000|00|--
0000|00|--
0100|00|--
0000|00|--
0000|00|--
0000|00|--
1000|00|--
0000|00|--
0000|00|--
0000|00|--
0000|20|--
0000|00|--
0000|00|--
0000|00|--
0100|00|--
0000|00|--
0000|00|--
0000|00|--
0010|00|--
0000|00|--
0000|00|--
0000|00|--
0001|00|--
0000|00|--
0000|00|--
0000|00|--
--
beat=3/4
0000|02|0-
0000|00|o-
0000|00|--
0000|00|--
0010|00|--
0000|00|--
0000|00|--
0000|00|--
0100|00|--
0000|00|--
0000|00|--
0000|00|--
0000|20|-o
0000|00|-0
0000|00|--
0000|00|--
0100|00|--
0000|00|--
0000|00|--
0000|00|--
0010|00|--
0000|00|--
0000|00|--
0000|00|--
--
beat=7/8
0000|02|0-
0000|00|o-
0000|00|--
0000|00|--
0010|00|--
0000|00|--
0000|00|--
0000|00|--
0100|00|--
0000|00|--
0000|00|--
0000|00|--
1000|00|--
0000|00|--
0000|00|--
0000|00|--
0100|00|--
0000|00|--
0000|00|--
0000|00|--
0010|00|--
0000|00|--
0000|00|--
0000|00|--
0100|00|--
0000|00|--
0000|00|--
0000|00|--
--
beat=3/4
0000|20|-P
0000|00|-o
0000|00|--
0000|00|--
0100|00|--
0000|00|--
0000|00|--
0000|00|--
0010|00|--
0000|00|--
0000|00|--
0000|00|--
0000|02|P-
0000|00|0-
0000|00|--
0000|00|--
0010|00|--
0000|00|--
0000|00|--
0000|00|--
0100|00|--
0000|00|--
0000|00|--
0000|00|--
--
beat=2/4
1000|00|--
0000|00|--
0100|00|--
0000|00|--
0010|00|--
0000|00|--
0001|00|--
0000|00|--
--
beat=7/8
1100|0D|--
0000|0D|--
0000|0D|--
0000|0D|--
0000|0D|--
0000|0D|--
0000|0D|--
0000|0D|--
1100|0D|--
0000|0D|--
0000|0D|--
0000|0D|--
0000|0D|--
0000|0D|--
0000|0D|--
0000|0D|--
1100|0D|--
0000|0D|--
0000|0D|--
0000|0D|--
0000|0D|--
0000|0D|--
0000|0D|--
0000|0D|--
1101|0D|--
0000|0D|--
0000|0D|--
0000|0D|--
--
0010|0D|--
0000|0D|--
0000|0D|--
0000|0D|--
1100|0D|--
0000|0D|--
0000|0D|--
0000|0D|--
0010|0D|--
0000|0D|--
0000|0D|--
0000|0D|--
1100|0D|--
0000|0D|--
0000|0D|--
0000|0D|--
0001|0D|--
0000|0D|--
0000|0D|--
0000|0D|--
1110|0D|--
0000|0D|--
0000|0D|--
0000|0D|--
0001|0D|--
0000|0D|--
0000|0D|--
0000|0D|--
--
0011|X0|--
0000|X0|--
0000|X0|--
0000|X0|--
0000|X0|--
0000|X0|--
0000|X0|--
0000|X0|--
0011|X0|--
0000|X0|--
0000|X0|--
0000|X0|--
0000|X0|--
0000|X0|--
0000|X0|--
0000|X0|--
0011|X0|--
0000|X0|--
0000|X0|--
0000|X0|--
0000|X0|--
0000|X0|--
0000|X0|--
0000|X0|--
1011|X0|--
0000|X0|--
0000|X0|--
0000|X0|--
--
0100|X0|--
0000|X0|--
0000|X0|--
0000|X0|--
0011|X0|--
0000|X0|--
0000|X0|--
0000|X0|--
0100|X0|--
0000|X0|--
0000|X0|--
0000|X0|--
1001|X0|--
0000|X0|--
0000|X0|--
0000|X0|--
1001|X0|--
0000|X0|--
0000|X0|--
0000|X0|--
0110|00|--
0000|00|--
0000|00|--
0000|00|--
0110|00|--
0000|00|--
0000|00|--
0000|00|--
--
beat=5/4 fx-r_param1=10
0000|0B|0-
0000|0B|:-
0000|0B|:-
0000|0B|:-
0000|0B|:-
0000|0B|:-
0011|00|:-
0000|00|:-
0000|00|:-
0000|00|:-
0000|00|:-
0000|00|:-
0101|00|:-
0000|00|:-
0000|00|:-
0000|00|:-
0110|00|o-
0000|00|:-
0000|00|:-
0000|00|:-
--
beat=4/4
0000|X0|:-
0000|X0|:-
0000|X0|:-
0000|X0|:-
0100|00|:-
0000|00|:-
0010|00|:-
0000|00|:-
0000|00|:-
0000|00|:-
0010|00|:-
0000|00|:-
0100|00|0-
0000|00|--
0000|00|--
0000|00|--
--
0000|F0|-o
0000|F0|-:
0000|F0|-:
0000|F0|-:
0000|F0|-:
0000|F0|-:
2000|00|-:
2000|00|-:
2000|00|-:
2000|00|-:
2000|00|-:
2000|00|-:
0200|00|-:
0200|00|-:
0200|00|-:
0200|00|-:
--
beat=2/4
0000|20|-0
0000|00|-P
0000|00|-:
0000|00|-:
0000|20|-P
0000|00|-o
0000|00|-:
0000|00|-:
0000|00|-:
0000|00|-:
0000|00|-:
0000|00|-:
0000|02|0:
0000|00|P:
0000|00|::
0000|00|::
--
beat=3/4
0000|02|P:
0000|00|o:
0000|00|::
0000|00|::
0010|00|::
0000|00|::
0000|00|::
0000|00|::
0100|00|::
0000|00|::
0000|00|::
0000|00|::
0000|00|::
0000|00|::
0000|00|::
0000|00|::
0000|00|oo
0000|00|00
0000|00|:-
0000|00|:-
0000|00|:-
0000|00|:-
0000|00|:-
0000|00|:-
--
beat=4/4
0011|00|0-
0000|00|:-
0000|00|:-
0000|00|:-
0011|00|:-
0000|00|:-
0000|00|:-
0000|00|:-
0110|00|:-
0000|00|:-
0000|00|:-
0000|00|:-
0110|00|:-
0000|00|:-
0000|00|:-
0000|00|:-
-- fx-r_param1=10
0000|0B|o-
0000|0B|:-
0000|0B|:-
0000|0B|:-
0000|I0|C-
0000|I0|:-
0000|I0|:-
0000|I0|:-
0000|0X|b-
0000|0X|:-
0000|0X|:-
0000|0X|:-
0110|00|0-
0000|00|--
0000|00|--
0000|00|--
--
1100|00|-o
0000|00|-:
0000|00|-:
0000|00|-:
1100|00|-:
0000|00|-:
0000|00|-:
0000|00|-:
0110|00|-:
0000|00|-:
0000|00|-:
0000|00|-:
0110|00|-:
0000|00|-:
0000|00|-:
0000|00|-:
--
filtertype=hpf1
0000|F0|-0
0000|F0|-:
0000|F0|-:
0000|F0|-:
0000|0D|-b
0000|0D|-:
0000|0D|-:
0000|0D|-:
0000|U0|-C
0000|U0|-:
0000|U0|-:
0000|U0|-:
0110|00|-o
filtertype=peak
0000|00|--
0000|00|--
0000|00|--
--
filtertype=lpf1
0001|00|P-
0000|00|:-
0000|00|:-
0000|00|:-
0010|00|:-
0000|00|:-
0000|00|:-
0000|00|:-
0100|00|0-
0000|00|:-
0000|00|:-
0000|00|:-
0010|00|:-
0000|00|:-
0000|00|:-
0000|00|:-
--
filtertype=hpf1 fx-l_param1=10
0000|B0|o-
0000|B0|:-
0000|B0|:-
0000|B0|:-
0000|0X|C-
0000|0X|:-
0000|0X|:-
0000|0X|:-
0000|D0|b-
0000|D0|:-
0000|D0|:-
0000|D0|:-
0110|00|0-
filtertype=peak
0000|00|--
0000|00|--
0000|00|--
--
filtertype=fx;bitc
1000|00|-P
0000|00|-:
0000|00|-:
0000|00|-:
0100|00|-:
0000|00|-:
0000|00|-:
0000|00|-:
filtertype=peak
0010|00|-o
0000|00|-:
0000|00|-:
0000|00|-:
0100|00|-:
0000|00|-:
0000|00|-:
0000|00|-:
--
0000|0F|-0
0000|0F|-:
0000|0F|-:
0000|0F|-:
filtertype=lpf1
0000|U0|-b
0000|U0|-:
0000|U0|-:
0000|U0|-: fx-r_param1=30
0000|0A|-C
0000|0A|-:
0000|0A|-:
0000|0A|-:
0110|00|-o
filtertype=peak
0000|00|--
0000|00|--
0000|00|--
--
0001|D0|--
0000|D0|--
0000|D0|--
0000|D0|--
0000|D2|--
0000|D0|--
0010|D0|--
0000|D0|--
0010|D0|--
0000|D0|--
0010|D0|--
0000|D0|--
0200|02|--
0200|00|--
0201|00|--
0200|00|--
--
2001|00|--
2010|00|--
2001|00|--
2000|00|--
2000|02|--
2000|00|--
2010|00|--
2000|00|--
2010|00|--
2000|00|--
2010|00|--
2000|00|--
2000|02|--
2000|00|--
2001|00|--
2000|00|--
--
2010|00|--
2000|00|--
2010|00|--
2000|00|--
2000|20|--
2000|00|--
2010|00|--
2000|00|--
2001|00|--
2000|00|--
2001|00|--
2000|00|--
0000|20|--
0000|00|--
0001|00|--
0000|00|--
--
0100|H0|--
0000|H0|--
0000|H0|--
0000|H0|--
0010|H0|--
0000|H0|--
0000|H0|--
0000|H0|--
0100|00|--
0000|00|--
0000|00|--
0000|00|--
0000|0U|--
0000|0U|--
0000|0U|--
0000|0U|--
0011|00|0-
0000|00|o-
0000|00|--
0000|00|--
0000|00|--
0000|00|--
0000|00|--
0000|00|--
1100|00|-o
0000|00|-0
0000|00|--
0000|00|--
0000|00|--
0000|00|--
0000|00|--
0000|00|--
--
0000|0H|0-
0000|0H|o-
0000|0H|--
0000|0H|--
0001|0H|--
0000|0H|--
0000|0H|--
0000|0H|--
0010|00|--
0000|00|--
0000|00|--
0000|00|--
0100|00|--
0000|00|--
0000|00|--
0000|00|-- fx-l_param1=10
0000|B0|-o
0000|B0|-P
0000|B0|-:
0000|B0|-:
0000|B0|-:
0000|B0|-:
0000|B0|-:
0000|B0|-:
1100|00|-0
0000|00|-o
0000|00|--
0000|00|--
0000|00|--
0000|00|--
0000|00|--
0000|00|--
--
filtertype=hpf1
0000|0X|0-
0000|0X|P-
0000|0X|:-
0000|0X|:-
0000|0X|:-
0000|0X|:-
0000|0X|:-
0000|0X|:-
0011|00|o-
0000|00|0-
filtertype=peak
0000|00|--
0000|00|--
0000|00|--
0000|00|--
0000|00|--
0000|00|--
0110|00|-o
0000|00|-0
0000|00|--
0000|00|--
0000|00|--
0000|00|--
0000|00|--
0000|00|--
0110|00|0-
0000|00|o-
0000|00|--
0000|00|--
0000|00|--
0000|00|--
0000|00|--
0000|00|--
--
zoom_bottom=15
0000|20|-o
0000|00|-0
0000|00|--
0000|00|--
1000|00|--
0000|00|--
0000|00|--
0000|00|--
0000|20|-o
0000|00|-0
0000|00|--
0000|00|--
1000|00|--
0000|00|--
0000|00|--
0000|00|--
0000|20|-o
0000|00|-0
0000|00|--
0000|00|--
1000|00|--
0000|00|--
0000|00|--
0000|00|--
0000|20|-o
0000|00|-0
0000|00|--
0000|00|--
0000|00|--
0000|00|--
0000|00|--
0000|00|--
--
0000|02|0-
0000|00|o-
0000|00|--
0000|00|--
0001|00|--
0000|00|--
0000|00|--
0000|00|--
0000|02|0-
0000|00|o-
0000|00|--
0000|00|--
0001|00|--
0000|00|--
0000|00|--
0000|00|--
0000|02|0-
0000|00|o-
0000|00|--
0000|00|--
0001|00|--
0000|00|--
0000|00|--
0000|00|--
0000|02|0-
0000|00|o-
0000|00|--
0000|00|--
0000|00|--
0000|00|--
0000|00|--
0000|00|--
--
filtertype=fx;bitc
0000|00|0o
0000|00|PP
0000|00|::
0000|00|::
0000|00|::
0000|00|::
0000|00|::
0000|00|::
0000|00|o0
0000|00|0o
filtertype=peak
0000|00|--
0000|00|--
0000|00|--
0000|00|--
0000|00|--
0000|00|--
zoom_bottom=-60
1000|00|--
0000|00|--
0100|00|--
0000|00|--
0010|00|--
0000|00|--
0001|00|--
0000|00|--
1000|00|--
0000|00|--
0100|00|--
0000|00|--
0010|00|--
0000|00|--
0001|00|--
0000|00|--
--
laserrange_l=2x
0000|0F|C-
0000|0F|:-
0000|0F|:-
0000|0F|:-
0010|0F|:-
0000|0F|:-
0000|0F|:-
0000|0F|:-
0000|0F|:-
0000|0F|:-
0000|0F|:-
0000|0F|:-
0010|00|i-
0000|00|:-
0002|00|i-
0002|00|:-
--
0002|00|:-
0002|00|:-
0002|00|:-
0002|00|:-
0002|02|:-
0002|00|:-
0002|00|:-
0002|00|:-
0002|00|6-
0002|00|:-
0002|00|:-
0002|00|:-
0000|02|b-
0000|00|:-
0000|00|:-
0000|00|:-
--
laserrange_r=2x
0000|D0|bb
0000|D0|-:
0000|D0|-:
0000|D0|-:
0100|D0|-:
0000|D0|-:
0000|D0|-:
0000|D0|-:
0000|D0|-:
0000|D0|-:
0000|D0|-:
0000|D0|-:
filtertype=hpf1
0100|00|-6
0000|00|-:
2000|00|-6
2000|00|-:
--
2000|00|-:
2000|00|-:
2000|00|-:
2000|00|-:
0000|20|-i
0000|00|-:
0000|00|-:
0000|00|-:
0110|00|-0
0000|00|-:
0000|00|-:
0000|00|-:
0000|20|-P
0000|00|-:
0000|00|-:
0000|00|-:
--
filtertype=lpf1
laserrange_l=2x
filtertype=hpf1
0020|00|PP
0020|00|:-
0020|00|:-
0020|00|:-
0020|02|:-
0020|00|:-
0020|00|:-
0020|00|:-
filtertype=lpf1
0002|00|6-
0002|00|:-
0002|00|:-
0002|00|:-
0002|02|:-
0002|00|:-
0002|00|:-
0002|00|:-
--
filtertype=peak
0020|00|i-
0020|00|:-
0020|00|:-
0020|00|:-
0020|02|:-
0020|00|:-
0002|00|6-
0002|00|:-
0002|00|:-
0002|00|:-
0002|00|:-
0002|00|:-
0000|02|P-
0000|00|:-
0000|00|:-
0000|00|:-
--
filtertype=fx;bitc
laserrange_r=2x
0000|DD|PP
0000|DD|-:
0000|DD|-:
0000|DD|-:
0000|DD|-:
0000|DD|-:
filtertype=peak
0220|00|-i
0220|00|-:
0220|00|-:
0220|00|-:
0220|00|-:
0220|00|-:
0220|00|-:
0220|00|-:
0220|00|-:
0220|00|-:
--
filtertype=hpf1
0000|0U|-6
0000|0U|-:
0000|00|-:
0000|00|-:
0000|0U|-:
0000|0U|-:
0000|00|-:
0000|00|-: fx-l_param1=10
0000|B0|-:
0000|B0|-:
0000|00|-:
0000|00|-: fx-l_param1=30
0000|A0|-i
filtertype=peak
0000|A0|--
0000|00|--
0000|00|--
--
0220|00|--
0220|00|--
0220|00|--
0220|00|--
0220|20|--
0220|00|--
0220|00|--
0220|00|--
0220|00|--
0220|00|--
0001|00|--
0000|00|--
0010|20|--
0000|00|--
0100|00|--
0000|00|--
--
0020|00|--
0020|00|--
0020|00|--
0020|00|--
0100|02|--
0000|00|--
1000|00|--
0000|00|--
0002|00|--
0002|00|--
0002|00|--
0002|00|--
0200|02|--
0200|00|--
0200|00|--
0200|00|--
--
0001|H0|--
0000|H0|--
0010|H0|--
0000|H0|--
0100|H0|--
0000|H0|--
1000|0I|--
0100|0I|--
0001|0I|--
0010|0I|--
0100|0I|--
1000|0I|--
0220|00|--
0220|00|--
0220|00|--
0220|00|--
--
0000|F0|--
0000|F0|--
0000|F0|--
0000|F0|--
0000|F0|--
0000|F0|--
0000|F0|--
0000|F0|--
filtertype=lpf1
1000|F0|-o
0000|F0|-0
0000|F0|-:
0000|F0|-:
0000|F0|-:
0000|F0|-:
0000|F0|-:
0000|F0|-:
1000|F0|-0
0000|F0|-o
0000|F0|-:
0000|F0|-:
0000|F0|-:
0000|F0|-:
0000|F0|-:
0000|F0|-:
1000|00|-o
0000|00|-0
filtertype=peak
0000|00|--
0000|00|--
0000|00|--
0000|00|--
0000|00|--
0000|00|--
-- fx-r_param1=10
0000|0B|--
0000|0B|--
0000|0B|--
0000|0B|--
0000|0B|--
0000|0B|--
0000|0B|--
0000|0B|--
0000|0B|--
0000|0B|--
0000|0B|--
0000|0B|--
0022|00|0-
0022|00|o-
0022|00|:-
0022|00|:-
0022|00|:-
0022|00|:-
0022|00|:-
0022|00|:-
0022|00|:-
0022|00|:-
0022|00|:-
0022|00|:-
2020|00|:-
2020|00|:-
2020|00|:-
2020|00|:-
2020|00|:-
2020|00|:-
2020|00|:-
2020|00|:-
--
2200|00|:-
2200|00|:-
2200|00|:-
2200|00|:-
2200|00|:-
2200|00|:-
2200|00|:-
2200|00|:-
0000|X0|:-
0000|X0|:-
0000|X0|:-
0000|X0|:-
0000|X0|:o
0000|X0|:0
0000|X0|::
0000|X0|::
0200|00|::
0200|00|::
0200|00|::
0200|00|::
0200|00|::
0200|00|::
0200|00|::
0200|00|::
0020|00|::
0020|00|::
0020|00|::
0020|00|::
0020|00|::
0020|00|::
0020|00|::
0020|00|::
--
zoom_bottom=-60
0002|0F|::
0002|0F|::
0002|0F|::
0002|0F|::
0002|0F|o:
0002|0F|0:
0002|0F|-:
0002|0F|-:
0002|0F|-:
0002|0F|-:
0002|0F|-:
0002|0F|-:
2000|D0|-:
2000|D0|-:
2000|D0|-:
2000|D0|-:
2000|D0|-:
2000|D0|-:
2000|D0|-:
2000|D0|-:
2000|D0|-:
2000|D0|-:
2000|D0|-:
2000|D0|-:
0200|00|-:
0200|00|-:
0200|00|-:
0200|00|-:
0200|00|-0
0200|00|-o
0200|00|-:
0200|00|-:
--
0000|00|-o
0000|00|-:
0000|00|-:
0000|00|-P
0000|00|-:
0000|00|-:
0000|00|-:
0000|00|-:
0000|00|-:
0000|00|-:
0000|00|-:
0000|00|-:
0000|00|-:
0000|00|-:
0000|00|-:
0000|00|-:
0000|00|0:
0000|00|::
0000|00|::
0000|00|P:
0000|00|::
0000|00|::
0000|00|::
0000|00|::
0000|00|::
0000|00|::
0000|00|::
0000|00|::
0000|00|::
0000|00|::
0000|00|::
0000|00|::
0000|00|:P
0000|00|::
0000|00|::
0000|00|:o
0000|00|:-
0000|00|:-
0000|00|:-
0000|00|:-
0000|00|:-
0000|00|:-
0000|00|:-
0000|00|:-
0000|00|:-
0000|00|:-
0000|00|:-
0000|00|:-
0000|00|P-
0000|00|:-
0000|00|:-
0000|00|0-
0000|00|--
0000|00|--
0000|00|--
0000|00|--
0000|00|--
0000|00|--
0000|00|--
0000|00|--
0000|00|--
0000|00|--
0000|00|--
0000|00|--
0000|00|--
0000|00|--
0000|00|--
0000|00|--
0000|00|--
0000|00|--
0000|00|--
0000|00|--
0000|00|--
0000|00|--
0000|00|--
0000|00|--
0000|00|--
0000|00|--
0000|00|--
0000|00|--
0000|00|--
0000|00|--
0000|00|--
0000|00|--
0000|00|--
0000|00|--
0000|00|--
0000|00|--
0000|00|--
0000|00|--
0000|00|--
0000|00|--
0000|00|--
0000|00|--
0000|00|--
0000|00|--
--
zoom_bottom=15
2000|02|--
2010|00|--
2100|00|--
2010|00|--
2100|00|--
2010|00|--
2100|00|--
2010|00|--
2000|02|--
2000|00|--
2000|00|--
2000|00|--
2100|00|--
2010|00|--
2100|00|--
2010|00|--
--
2000|02|--
2010|00|--
2100|00|--
2010|00|--
2100|00|--
2010|00|--
2100|00|--
2010|00|--
0000|DD|--
0000|DD|--
0000|DD|--
0000|DD|--
0000|00|--
0000|00|--
0010|00|--
0100|00|--
--
0002|20|--
0102|00|--
0012|00|--
0102|00|--
0012|00|--
0102|00|--
0012|00|--
0102|00|-- fx-l_param1=10 fx-r_param1=10
0000|BB|--
0000|BB|--
0000|BB|--
0000|BB|--
0000|00|--
0000|00|--
0100|00|--
0010|00|--
--
2000|02|--
2010|00|--
2100|00|--
2010|00|--
2100|00|--
2010|00|--
2100|00|--
2010|00|--
2000|02|--
2010|00|--
2100|00|--
2010|00|--
2100|00|--
2010|00|--
2100|00|--
2010|00|--
--
0001|0F|--
0010|0F|--
0100|0F|--
1000|0F|--
0001|0F|--
0010|0F|--
0100|0F|--
1000|0F|--
0002|X0|--
0002|X0|--
0002|X0|--
0002|X0|--
0002|X0|--
0002|X0|--
0102|X0|--
0012|X0|--
--
1000|0F|--
0100|0F|--
0010|0F|--
0001|0F|--
1000|0F|--
0100|0F|--
0010|0F|--
0001|0F|--
2000|D0|--
2000|D0|--
2000|D0|--
2000|D0|--
2000|D0|--
2000|D0|--
2010|D0|--
2100|D0|--
--
0001|0F|--
0010|0F|--
0100|0F|--
1000|0F|--
0001|0F|--
0010|0F|--
0100|0F|--
1000|0F|--
0002|0F|--
0002|0F|--
0002|0F|--
0002|0F|--
0002|0F|--
0002|0F|--
0102|0F|--
0012|0F|--
--
1000|X0|--
0100|X0|--
0010|X0|--
0001|X0|--
1000|X0|--
0100|X0|--
0010|X0|--
0001|X0|--
0100|X0|--
0010|X0|--
1000|X0|--
0001|X0|--
0100|X0|--
0010|X0|--
1000|X0|--
0001|X0|--
--
1000|00|--
0100|00|--
0010|00|--
0001|00|--
1000|00|--
0100|00|--
0010|00|--
0001|00|--
0000|20|--
1000|00|--
0100|00|--
0010|00|--
0000|20|--
1000|00|--
0100|00|--
0010|00|--
--
0000|02|--
0001|00|--
0010|00|--
0100|00|--
0000|02|--
0001|00|--
0010|00|--
0100|00|--
0001|00|--
0010|00|--
0100|00|--
1000|00|--
0001|00|--
0010|00|--
0100|00|--
1000|00|--
--
0000|U0|-o
0000|U0|-0
0000|U0|--
0000|U0|--
0000|U0|--
0000|U0|--
0000|U0|--
0000|U0|--
1000|00|--
0000|00|--
0100|00|--
0000|00|--
0010|00|--
0000|00|--
0001|00|--
0000|00|--
0000|02|0-
0000|00|P-
0000|00|:-
0000|00|:-
0000|00|:-
0000|00|:-
0000|00|:-
0000|00|:- fx-l_param1=10
0000|B0|:o
0000|B0|:P
0000|B0|::
0000|B0|::
0000|B0|::
0000|B0|::
0000|B0|::
0000|B0|::
--
0001|00|::
0000|00|::
0010|00|::
0000|00|::
0100|00|::
0000|00|::
1000|00|::
0000|00|::
0000|20|:P
0000|00|:o
0000|00|:-
0000|00|:-
0000|00|:-
0000|00|:-
0000|00|:-
0000|00|:-
0000|0U|P-
0000|0U|0-
0000|0U|--
0000|0U|--
0000|0U|--
0000|0U|--
0000|0U|--
0000|0U|--
0110|H0|--
0000|H0|--
0000|H0|--
0000|H0|--
0110|H0|--
0000|H0|--
0000|H0|--
0000|H0|--
--
0001|00|--
0000|00|--
0000|00|--
0000|00|--
0010|00|--
0000|00|--
0000|00|--
0000|00|--
0100|00|--
0000|00|--
0000|00|--
0000|00|--
0001|00|--
0000|00|--
0000|00|--
0000|00|--
0010|00|--
0000|00|--
0000|00|--
0000|00|--
0100|00|--
0000|00|--
0000|00|--
0000|00|--
1000|00|--
0000|00|--
0000|00|--
0000|00|--
0100|00|--
0000|00|--
0000|00|--
0000|00|--
0010|00|--
0000|00|--
0000|00|--
0000|00|--
1000|00|--
0000|00|--
0000|00|--
0000|00|--
0100|00|--
0000|00|--
0000|00|--
0000|00|--
0010|00|--
0000|00|--
0000|00|--
0000|00|--
--
1000|0D|--
0000|0D|--
0000|0D|--
0000|0D|--
0100|0D|--
0000|0D|--
0000|0D|--
0000|0D|--
1000|0D|--
0000|0D|--
0000|0D|--
0000|0D|--
0100|0D|--
0000|0D|--
0000|0D|--
0000|0D|--
0010|0D|--
0000|0D|--
0000|0D|--
0000|0D|--
0100|0D|--
0000|0D|--
0000|0D|--
0000|0D|--
1000|X0|--
0000|X0|--
0000|X0|--
0000|X0|--
0010|X0|--
0000|X0|--
0000|X0|--
0000|X0|--
1000|X0|--
0000|X0|--
0000|X0|--
0000|X0|--
0100|X0|--
0000|X0|--
0000|X0|--
0000|X0|--
0001|X0|--
0000|X0|--
0000|X0|--
0000|X0|--
0100|X0|--
0000|X0|--
0000|X0|--
0000|X0|--
--
zoom_top=-30
zoom_bottom=15
0010|00|--
0000|00|--
0000|00|--
0000|00|--
0100|00|--
0000|00|--
0000|00|--
0000|00|--
1000|00|--
0000|00|--
0000|00|--
0000|00|--
0010|00|--
0000|00|--
0000|00|--
0000|00|--
0100|00|--
0000|00|--
0000|00|--
0000|00|--
1000|00|--
0000|00|--
0000|00|--
0000|00|--
0010|00|--
0000|00|--
0000|00|--
0000|00|--
0100|00|--
0000|00|--
0000|00|--
0000|00|--
1000|00|--
0000|00|--
0000|00|--
0000|00|--
0010|00|--
0000|00|--
0000|00|--
0000|00|--
0100|00|--
0000|00|--
0000|00|--
0000|00|--
1000|00|--
0000|00|--
0000|00|--
0000|00|--
--
0001|00|--
0000|00|--
0000|00|--
0000|00|--
0010|00|--
0000|00|--
0000|00|--
0000|00|--
0100|00|--
0000|00|--
0000|00|--
0000|00|--
0001|00|--
0000|00|--
0000|00|--
0000|00|--
0010|00|--
0000|00|--
0000|00|--
0000|00|--
0100|00|--
0000|00|--
0000|00|--
0000|00|--
0001|00|--
0000|00|--
0000|00|--
0000|00|--
0010|00|--
0000|00|--
0000|00|--
0000|00|--
0100|00|--
0000|00|--
0000|00|--
0000|00|--
0010|00|--
0000|00|--
0000|00|--
0000|00|--
0100|00|--
0000|00|--
0000|00|--
0000|00|--
1000|00|--
0000|00|--
0000|00|--
0000|00|--
-- fx-l_param1=30
laserrange_r=2x
zoom_top=15
zoom_bottom=-60
0000|A0|-b
0000|A0|-J
0000|A0|-:
0000|A0|-:
0000|A0|-:
0000|A0|-:
0000|A0|-:
0000|A0|-:
0101|00|-:
0000|00|-:
0000|00|-:
0000|00|-:
0000|00|-:
0000|00|-:
0000|00|-:
0000|00|-:
laserrange_l=2x
0000|0U|C:
0000|0U|W:
0000|0U|::
0000|0U|::
0000|0U|::
0000|0U|::
0000|0U|::
0000|0U|::
1010|00|::
0000|00|::
0000|00|::
0000|00|::
0000|00|::
0000|00|::
0000|00|::
0000|00|::
--
1000|H0|:J
0000|H0|:b
0000|H0|::
0000|H0|::
0100|H0|::
0000|H0|::
0000|H0|::
0000|H0|::
0010|0H|::
0000|0H|::
0000|0H|::
0000|0H|::
0001|0H|::
0000|0H|::
0000|0H|::
0000|0H|::
0010|00|W:
0000|00|C:
0000|00|::
0000|00|::
0000|00|::
0000|00|::
0000|00|::
0000|00|::
0000|00|Cb
0000|00|bC
0000|00|::
0000|00|::
0000|00|::
0000|00|::
0000|00|::
0000|00|::
--
0000|00|bC
0000|00|6i
0000|00|::
0000|00|::
0000|00|::
0000|00|::
0000|00|::
0000|00|::
0000|0X|::
0000|0X|::
0000|0X|::
0000|0X|::
0000|0X|::
0000|0X|::
0000|0X|::
0000|0X|::
0020|00|6:
0020|00|i:
0020|00|::
0020|00|::
0020|00|::
0020|00|::
0020|00|::
0020|00|::
0200|00|::
0200|00|::
0200|00|::
0200|00|::
0200|00|::
0200|00|::
0200|00|::
0200|00|::
--
0000|H0|:i
0000|H0|:6
0000|H0|::
0000|H0|::
1000|H0|::
0000|H0|::
0000|H0|::
0000|H0|::
0001|0I|::
0000|0I|::
0010|0I|::
0000|0I|::
0100|0I|::
0000|0I|::
1000|0I|::
0000|0I|::
0110|00|::
0000|00|::
0000|00|::
0000|00|::
0000|00|::
0000|00|::
0000|00|::
0000|00|::
0000|00|i6
0000|00|6i
0000|00|::
0000|00|::
0000|00|::
0000|00|::
0000|00|::
0000|00|::
--
0000|00|6i
0000|00|PP
0000|00|::
0000|00|::
0000|00|::
0000|00|::
0000|00|::
0000|00|::
0110|00|::
0000|00|::
0000|00|::
0000|00|::
0000|00|::
0000|00|::
0000|00|::
0000|00|::
1100|00|:6
0000|00|::
0000|00|::
0000|00|::
0000|00|::
0000|00|::
0000|00|::
0000|00|::
0110|00|::
0000|00|::
0000|00|::
0000|00|::
0000|00|::
0000|00|::
0000|00|::
0000|00|::
-- fx-l_param1=10
0000|B0|:i
0000|B0|::
0000|B0|::
0000|B0|::
0000|B0|::
0000|B0|::
0000|B0|::
0000|B0|::
2200|00|:C
2200|00|::
2200|00|::
2200|00|::
0000|00|:P
0000|00|::
0000|00|::
0000|00|::
--
zoom_top=15
zoom_bottom=-60
0001|0H|P:
0000|0H|::
0010|0H|::
0000|0H|::
0001|0H|::
0000|0H|::
0010|0H|::
0000|0H|::
0001|0H|::
0000|0H|::
0010|0H|::
0000|0H|::
0001|0H|::
0000|0H|::
0010|0H|::
0000|0H|::
--
0001|00|i:
0000|00|::
0000|00|::
0000|00|::
0000|00|::
0000|00|::
0000|00|::
0000|00|::
0000|00|PP
0000|00|::
0000|00|::
0000|00|::
0000|00|::
0000|00|::
0000|00|::
0000|00|::
0000|00|66
0000|00|::
0000|00|::
0000|00|::
0000|00|::
0000|00|::
0000|00|::
0000|00|::
zoom_top=-30
zoom_bottom=15
0000|00|66
0000|00|bb
0000|00|-:
0000|00|-:
0000|00|-:
0000|00|-:
0000|00|-:
0000|00|-:
--
filtertype=hpf1
0000|20|-b
0000|00|-C
0000|00|-:
0000|00|-:
0000|00|-:
0000|00|-:
0000|00|-:
0000|00|-:
1100|00|-C
0000|00|-b
0000|00|-:
0000|00|-:
0000|00|-:
0000|00|-:
0000|00|-:
0000|00|-:
0110|00|-b
0000|00|-C
0000|00|-:
0000|00|-:
0000|00|-:
0000|00|-:
0000|00|-:
0000|00|-:
1100|00|-C
0000|00|-b
0000|00|-:
0000|00|-:
0000|00|-:
0000|00|-:
0000|00|-:
0000|00|-:
-- fx-l_param1=10
filtertype=peak
0000|B0|-b
0000|B0|-C
0000|B0|-:
0000|B0|-:
0000|B0|-:
0000|B0|-:
0000|B0|-:
0000|B0|-:
0000|B0|-C
0000|B0|-b
0000|B0|-:
0000|B0|-:
0000|B0|-:
0000|B0|-:
0000|B0|-:
0000|B0|-:
2200|00|-b
2200|00|-C
2200|00|-:
2200|00|-:
2200|00|-:
2200|00|-:
2200|00|-:
2200|00|-:
0000|00|-C
0000|00|-b
0000|00|--
0000|00|--
0000|00|--
0000|00|--
0000|00|--
0000|00|--
--
0000|02|0-
0000|00|o-
0000|00|:-
0000|00|:-
0000|00|:-
0000|00|:-
0000|00|:-
0000|00|:-
0011|00|o-
0000|00|0-
0000|00|:-
0000|00|:-
0000|00|:-
0000|00|:-
0000|00|:-
0000|00|:-
0110|00|0-
0000|00|o-
0000|00|:-
0000|00|:-
0000|00|:-
0000|00|:-
0000|00|:-
0000|00|:-
0011|00|o-
0000|00|0-
0000|00|:-
0000|00|:-
0000|00|:-
0000|00|:-
0000|00|:-
0000|00|:-
--
filtertype=hpf1
0000|0X|0-
0000|0X|P-
0000|0X|:-
0000|0X|:-
0000|0X|P-
0000|0X|o-
0000|0X|:-
0000|0X|:-
filtertype=lpf1
0000|0X|o-
0000|0X|P-
0000|0X|:-
0000|0X|:-
0000|0X|P-
0000|0X|0-
0000|0X|:-
0000|0X|:-
filtertype=peak
0022|00|0-
0022|00|o-
0022|00|:-
0022|00|:-
0022|00|o-
0022|00|0-
0022|00|:-
0022|00|:-
0022|00|0-
0022|00|o-
0022|00|:-
0022|00|:-
0022|00|o-
0022|00|0-
0022|00|--
0022|00|--
--
0000|0F|--
0000|0F|--
0000|0F|--
0000|0F|--
0000|H0|--
0000|H0|--
0110|H0|--
0000|H0|--
1000|00|--
0100|00|--
0010|00|--
0001|00|--
1000|00|--
0100|00|--
0010|00|--
0001|00|--
-- fx-r_param1=10
0000|0B|--
0000|0B|--
0000|0B|--
0000|0B|--
0000|0B|--
0000|0B|--
0000|0B|--
0000|0B|--
0000|0B|--
0000|0B|--
0000|0B|--
0000|0B|--
0100|V0|--
0000|V0|--
0000|V0|--
0000|V0|--
0010|V0|--
0000|V0|--
0000|V0|--
0000|V0|--
0100|V0|--
0000|V0|--
0000|V0|--
0000|V0|--
0001|00|--
0000|00|--
0000|00|--
0010|00|--
0000|00|--
0000|00|--
0100|00|--
0000|00|--
0000|00|--
1000|00|--
0000|00|--
0000|00|--
0001|00|--
0000|00|--
0000|00|--
0010|00|--
0000|00|--
0000|00|--
0100|00|--
0000|00|--
0000|00|--
1000|00|--
0000|00|--
0000|00|--
--
0000|20|-P
0000|00|-o
0000|00|-:
0000|00|-:
0000|00|-:
0000|00|-:
0000|00|-:
0000|00|-:
0000|0U|-:
0000|0U|-:
0000|0U|-:
0000|0U|-:
0011|00|P:
0000|00|0:
0000|00|::
0000|00|::
0000|00|::
0000|00|::
0000|00|::
0000|00|:: fx-l_param1=30
0000|A0|::
0000|A0|::
0000|A0|::
0000|A0|::
1100|00|:o
0000|00|:0
0000|00|:-
0000|00|:-
0000|00|:-
0000|00|:-
0000|00|:-
0000|00|:-
--
0000|02|:-
0000|00|:-
0000|00|:-
0000|00|:-
0000|02|0-
0000|00|o-
0000|00|--
0000|00|--
0011|00|--
0000|00|--
0000|00|--
0000|00|--
0011|00|--
0000|00|--
0000|00|--
0000|00|--
0110|00|--
0000|00|--
0000|00|--
0000|00|--
0110|00|--
0000|00|--
0000|00|--
0000|00|--
1100|00|--
0000|00|--
0000|00|--
0000|00|--
1100|00|--
0000|00|--
0000|00|--
0000|00|--
--
zoom_bottom=15
0000|20|-o
0000|00|-0
0000|00|-:
0000|00|-:
0000|00|-:
0000|00|-:
0000|00|-:
0000|00|-:
0000|00|00
0000|00|o:
0000|00|-:
0000|00|-:
0000|00|-:
0000|00|-:
0000|00|-:
0000|00|-:
0000|00|0:
0000|00|o:
0000|00|-:
0000|00|-:
0000|00|-:
0000|00|-:
0000|00|-:
0000|00|-:
0000|00|0:
0000|00|o:
0000|00|-:
0000|00|-:
0000|00|-:
0000|00|-:
0000|00|-:
0000|00|-:
--
0000|00|0o
0000|00|o:
0000|00|::
0000|00|::
0000|00|::
0000|00|::
0000|00|::
0000|00|::
filtertype=fx;bitc
0000|00|oo
0000|00|:0
0000|00|:-
0000|00|:-
0000|00|:-
0000|00|:-
0000|00|:-
0000|00|:-
0000|00|:o
0000|00|:0
0000|00|:-
0000|00|:-
0000|00|:-
0000|00|:-
0000|00|:-
0000|00|:-
0000|00|:o
0000|00|:0
0000|00|:-
0000|00|:-
0000|00|:-
0000|00|:-
0000|00|:-
0000|00|:-
--
zoom_bottom=90
0000|00|0o
0000|00|o0
filtertype=peak
zoom_bottom=15
0000|00|--
0000|00|--
0000|00|--
0000|00|--
0000|00|--
0000|00|--
0000|00|--
0000|00|--
0000|00|--
0000|00|--
0000|00|--
0000|00|--
0000|00|--
0000|00|--
0000|00|--
0000|00|--
0000|00|--
0000|00|--
0000|00|--
0000|00|--
0000|00|--
0000|00|--
0000|00|--
0000|00|--
0000|00|--
0000|00|--
0000|00|--
0000|00|--
0000|00|--
0000|00|--
--
0000|00|--
0000|00|--
0000|00|--
0000|00|--
0000|00|--
0000|00|--
0000|00|--
0000|00|--
0000|00|--
0000|00|--
0000|00|--
0000|00|--
0000|00|--
0000|00|--
0000|00|--
0000|00|--
--
0000|00|--
0000|00|--
0000|00|--
0000|00|--
0000|00|--
0000|00|--
0000|00|--
0000|00|--
0000|00|--
0000|00|--
0000|00|--
0000|00|--
0000|00|--
0000|00|--
0000|00|--
0000|00|--
--
0000|00|--
0000|00|--
0000|00|--
0000|00|--
0000|00|--
0000|00|--
0000|00|--
0000|00|--
0000|00|--
0000|00|--
0000|00|--
0000|00|--
0000|00|--
0000|00|--
0000|00|--
0000|00|--
--
