title=ポメグラネイト
artist=ここなつ
effect=ふかせ
jacket=icon.png
illustrator=CUTEG
difficulty=light
level=4
t=130
m=nofx160.wav;nofx160.wav
o=0
bg=cyber
layer=hidden
po=0
plength=15000
pfiltergain=50
filtertype=peak
chokkakuautovol=0
chokkakuvol=50
ver=160
--
beat=4/4
t=130
zoom_top=-30
zoom_bottom=15
0000|00|--
--
fx-r=Gate;24
0000|01|--
0000|01|--
--
filtertype=lpf1
0000|00|0-
0000|00|:-
--
0000|00|:-
--
0000|00|:-
--
fx-r=SideChain
0000|01|o-
0000|01|--
filtertype=peak
0000|01|--
0000|01|--
0000|01|--
0000|01|--
0000|01|--
0000|01|--
0000|01|--
0000|01|--
0000|01|--
0000|01|--
0000|01|--
0000|01|--
0000|01|--
0000|01|--
fx-l=Gate;24
0000|10|--
0000|10|--
0000|10|--
0000|10|--
0000|10|--
0000|10|--
0000|10|--
0000|10|--
0000|10|--
0000|10|--
0000|10|--
0000|10|--
0000|10|--
0000|10|--
0000|10|--
0000|10|--
--
0000|00|-o
0000|00|-:
--
0000|00|-:
--
0000|00|-:
--
0000|00|-0
0000|00|-:
fx-l=
0000|10|-o
0000|10|--
--
0001|00|--
0000|00|--
0001|00|--
0000|00|--
--
0001|00|--
0000|00|--
0100|00|--
0100|00|--
--
0001|00|--
0001|00|--
--
0001|00|--
0000|00|--
0010|00|--
0010|00|--
--
1000|00|--
1000|00|--
--
1000|00|--
0000|00|--
0010|00|--
0010|00|--
--
1000|00|--
1000|00|--
--
fx-r=Flanger
0000|01|--
0000|01|--
0000|01|--
0000|01|--
0000|01|--
0000|01|--
0000|00|--
0000|00|--
--
1000|00|--
1000|00|--
1000|00|--
0000|00|--
--
0010|00|--
0010|00|--
0010|00|--
0000|00|--
--
1000|00|--
1000|00|--
1000|00|--
0000|00|--
--
0001|00|--
0001|00|--
0001|00|--
0000|00|--
--
0010|00|--
0010|00|--
0010|00|--
0000|00|--
--
1000|00|--
1000|00|--
1000|00|--
0000|00|--
--
0001|00|--
0001|00|--
0001|00|--
0000|00|--
--
fx-l=Gate;24
0000|10|--
0000|10|--
0000|00|--
0000|00|--
--
0010|00|--
0000|00|--
0000|00|--
0000|00|--
0000|00|--
0000|00|--
0001|00|--
0000|00|--
0000|00|--
0000|00|--
0000|00|--
0000|00|--
0200|00|--
0200|00|--
0200|00|--
0200|00|--
--
0200|00|--
0200|00|--
0000|00|--
0000|00|--
0000|00|--
0000|00|--
0000|00|--
0000|00|--
--
0002|00|--
0002|00|--
0002|00|--
0002|00|--
0002|00|--
0002|00|--
2000|00|--
2000|00|--
--
2000|00|--
2000|00|--
0000|00|--
0000|00|--
--
0010|00|--
0010|00|--
0010|00|--
0010|00|--
--
0100|00|--
0100|00|--
0100|00|--
0100|00|--
--
0001|00|--
1000|00|--
0001|00|--
1000|00|--
--
fx-r=
0000|01|--
0000|01|--
fx-l=
0000|10|--
0000|10|--
--
0010|00|--
0000|00|--
0001|00|--
0000|00|--
--
0010|00|--
0100|00|--
--
1000|00|--
0000|00|--
0001|00|--
0100|00|--
--
0010|00|--
0010|00|--
0001|00|--
1000|00|--
--
0100|00|--
0010|00|--
--
0001|00|--
0000|00|--
1000|00|--
0010|00|--
--
0100|00|--
0010|00|--
0001|00|--
0010|00|--
--
fx-l=SideChain
0000|10|--
0000|10|--
0000|10|--
0000|10|--
0000|10|--
0000|10|--
0000|00|--
0000|00|--
--
0010|00|--
0010|00|--
0100|00|--
0100|00|--
--
0001|00|--
0001|00|--
0100|00|--
0100|00|--
--
0010|00|--
0010|00|--
1000|00|--
1000|00|--
--
0010|00|--
0100|00|--
0001|00|--
0010|00|--
--
1100|00|--
0011|00|--
--
0100|00|--
0001|00|--
0100|00|--
0000|00|--
--
1000|00|--
0010|00|--
0100|00|--
0001|00|--
--
fx-l=Gate;16
0000|10|--
0000|10|--
fx-r=Flanger
0000|01|--
0000|01|--
--
0000|00|0-
0000|00|:-
--
0000|00|o-
0000|00|:-
--
filtertype=fx;bitc
0000|00|0-
0000|00|:-
0000|00|o-
0000|00|:-
--
fx-r=SideChain
0000|01|0-
0000|01|--
filtertype=peak
0000|01|--
0000|01|--
0000|01|--
0000|01|--
0000|01|--
0000|01|--
0000|01|--
0000|01|--
0000|01|--
0000|01|--
0000|01|--
0000|01|--
0000|01|--
0000|01|--
fx-l=Gate;16
0000|10|--
0000|10|--
0000|10|--
0000|10|--
0000|10|--
0000|10|--
0000|10|--
0000|10|--
0000|10|--
0000|10|--
0000|10|--
0000|10|--
0000|10|--
0000|10|--
0000|10|--
0000|10|--
--
0000|00|-o
0000|00|-:
--
0000|00|-0
0000|00|-:
--
filtertype=fx;bitc
0000|00|-o
0000|00|-:
0000|00|-0
0000|00|-:
--
0100|00|-o
0000|00|--
filtertype=peak
0000|00|--
0000|00|--
0000|00|--
0000|00|--
0000|00|--
0000|00|--
zoom_top=-30
0100|00|--
0000|00|--
0000|00|--
0000|00|--
0000|00|--
0000|00|--
0000|00|--
0000|00|--
0010|00|--
0000|00|--
0000|00|--
0000|00|--
0000|00|--
0000|00|--
0000|00|--
0000|00|--
0010|00|--
0000|00|--
0000|00|--
0000|00|--
0000|00|--
0000|00|--
0000|00|--
0000|00|--
--
0000|22|--
--
0000|00|--
--
zoom_top=-30
zoom_bottom=15
0000|00|--
--
