title=めうめうぺったんたん!!
artist=日向美ビタースイーツ♪
effect=金色の夜叉
jacket=icon.png
illustrator=CUTEG
difficulty=light
level=3
t=185
m=Meumeupettantan!!.mp3;Meumeupettantan!!.mp3
o=-594
bg=desert
layer=arrow
po=0
plength=15000
pfiltergain=50
filtertype=peak
chokkakuautovol=0
chokkakuvol=50
ver=140d
--
beat=4/4
t=185
zoom_top=-30
zoom_bottom=15
0000|00|--
--
1000|00|--
--
0001|00|--
--
1000|00|--
--
0001|00|--
--
0000|H0|--
0000|H0|--
0000|00|--
0000|00|--
--
0000|0X|--
0000|0X|--
0000|00|--
0000|00|--
--
0000|I0|--
0000|I0|--
0000|00|--
0000|00|--
-- fx-r_param1=10
0000|0B|--
0000|0B|--
0000|00|--
0000|00|--
--
1000|00|--
1000|00|--
--
1000|00|--
--
0001|00|--
0001|00|--
--
0001|00|--
--
0000|00|0-
0000|00|:-
--
0000|00|:-
0000|00|:-
0000|00|o-
0000|00|--
--
0000|0F|--
0000|0F|--
0000|H0|--
0000|H0|--
--
0000|01|--
0000|01|--
0000|01|--
0000|01|--
0000|01|--
0000|01|--
0000|00|--
0000|00|--
-- fx-l_param1=10
0000|B0|--
0000|B0|--
0000|00|--
0000|00|--
--
0001|00|--
0001|00|--
--
0000|H0|--
0000|H0|--
0000|00|--
0000|00|--
--
0000|00|--
0010|00|--
0010|00|--
0000|00|--
--
0000|0X|--
0000|0X|--
0000|00|--
0000|00|--
--
1000|00|--
1000|00|--
--
0000|0S|--
0000|0S|--
0000|00|--
0000|00|--
0000|T0|--
0000|T0|--
0000|00|--
0000|00|--
--
0001|00|--
0001|00|--
0001|00|--
0000|00|--
--
0010|00|--
0010|00|--
0010|00|--
0000|00|--
--
0100|00|--
0100|00|--
0100|00|--
0000|00|--
--
1000|00|--
1000|00|--
--
0001|00|--
--
0010|00|--
--
0100|00|--
--
1000|00|--
1000|00|--
1000|00|--
0000|00|--
--
0000|0F|--
0000|0F|-- fx-l_param1=10
0000|B0|--
0000|B0|--
--
0000|0X|--
0000|0X|--
0000|H0|--
0000|H0|--
--
0000|0F|--
0000|0F|--
0000|0F|--
0000|0F|--
0000|0F|--
0000|0F|--
0000|0F|--
0000|0F|--
0000|0F|--
0000|0F|--
0000|0F|--
0000|0F|--
0000|0F|--
0000|0F|--
0000|00|--
0000|00|--
--
0000|00|--
--
1000|00|--
--
0100|00|--
--
0010|00|--
--
0001|00|--
0001|00|--
0001|00|--
0000|00|--
-- fx-l_param1=10
0000|B0|--
0000|B0|--
0000|0X|--
0000|0X|--
--
0000|H0|--
0000|H0|--
0000|0I|--
0000|0I|--
--
0000|H0|--
0000|H0|--
0000|H0|--
0000|H0|--
0000|H0|--
0000|H0|--
0000|H0|--
0000|H0|--
0000|H0|--
0000|H0|--
0000|H0|--
0000|H0|--
0000|H0|--
0000|H0|--
0000|00|--
0000|00|--
--
0000|00|--
--
0000|00|-o
0000|00|-:
--
0000|00|-:
0000|00|-:
0000|00|-0
0000|00|--
--
0000|00|0-
0000|00|:-
--
0000|00|:-
0000|00|:-
0000|00|o-
0000|00|--
--
0000|00|-o
0000|00|-:
--
0000|00|-:
0000|00|-:
0000|00|-0
0000|00|--
--
0000|00|0-
0000|00|:-
--
0000|00|:-
0000|00|:-
0000|00|o-
0000|00|--
--
0001|00|--
--
1000|00|--
--
0100|00|--
0100|00|--
--
0000|0H|--
0000|0H|--
0000|0H|--
0000|0H|--
0000|0H|--
0000|0H|--
0000|00|--
0000|00|--
--
1000|00|--
1000|00|--
1000|00|--
0000|00|--
--
0100|00|--
0100|00|--
0100|00|--
0000|00|--
--
0000|0F|--
0000|0F|--
0000|S0|--
0000|S0|--
--
0000|0X|--
0000|0X|--
0000|00|--
0000|00|--
--
1000|00|--
1000|00|--
1000|00|--
0000|00|--
--
0001|00|--
0001|00|--
0001|00|--
0000|00|--
--
0000|H0|--
0000|H0|-- fx-r_param1=10
0000|0B|--
0000|0B|--
--
0000|F0|--
0000|F0|--
0000|00|--
0000|00|--
--
0000|00|-o
0000|00|-:
--
0000|00|-:
0000|00|-:
0000|00|-0
0000|00|--
--
0000|00|0-
0000|00|:-
--
0000|00|:-
0000|00|:-
0000|00|o-
0000|00|--
--
0001|00|--
0001|00|--
--
0010|00|--
0010|00|--
--
0100|00|--
0100|00|--
--
zoom_top=-30
zoom_bottom=15
1000|00|--
1000|00|--
--
0001|00|--
0001|00|--
0001|00|--
0000|00|--
--
1000|00|--
1000|00|--
1000|00|--
0000|00|--
-- fx-r_param1=10
0000|0B|--
0000|0B|--
0000|I0|--
0000|I0|--
--
0000|01|--
0000|01|--
0000|01|--
0000|01|--
0000|01|--
0000|01|--
0000|00|--
0000|00|--
--
0000|00|0-
0000|00|:-
--
0000|00|o-
0000|00|:-
--
0000|00|o-
0000|00|:-
0000|00|0-
0000|00|--
--
0000|00|--
0010|00|--
0010|00|--
0000|00|--
--
0000|00|-o
0000|00|-:
0000|00|-0
0000|00|-:
--
0000|00|-0
0000|00|-:
0000|00|-o
0000|00|--
--
0000|S0|--
0000|S0|--
0000|00|--
0000|00|--
0000|0T|--
0000|0T|--
0000|00|--
0000|00|--
--
1000|00|--
1000|00|--
1000|00|--
0000|00|--
--
0100|00|--
0100|00|--
0100|00|--
0000|00|--
--
0010|00|--
0010|00|--
0010|00|--
0000|00|--
--
0001|00|--
0001|00|--
0001|00|--
0001|00|--
--
0000|00|--
0000|00|--
0000|00|0-
0000|00|:-
--
0000|00|:-
--
zoom_top=-30
zoom_bottom=15
0000|00|:-
--
0000|00|o-
0000|00|:-
0000|00|:-
0000|00|:-
0000|00|:-
0000|00|:-
0000|00|:-
0000|00|:-
0000|00|:-
0000|00|:-
0000|00|:-
0000|00|:-
0000|00|:-
0000|00|:-
0000|00|:-
0000|00|:-
0000|00|:-
0000|00|:-
0000|00|:-
0000|00|:-
0000|00|:-
0000|00|:-
0000|00|:-
0000|00|:-
0000|00|:-
0000|00|:-
0000|00|:-
0000|00|:-
0000|00|:-
0000|00|:-
0000|00|:-
0000|00|:-
0000|00|o-
0000|00|:-
0000|00|0-
0000|00|--
0000|00|--
0000|00|--
0000|00|--
0000|00|--
0000|00|--
0000|00|--
0000|00|--
0000|00|--
0000|00|--
0000|00|--
0000|00|--
0000|00|--
0000|00|--
0000|00|--
0000|00|--
0000|00|--
0000|00|--
0000|00|--
0000|00|--
0000|00|--
0000|00|--
0000|00|--
0000|00|--
0000|00|--
0000|00|--
0000|00|--
0000|00|--
0000|00|--
--
