title=マサカリブレイド
artist=REDALiCE
effect=MAD CHILD
jacket=n_ja.jpg
illustrator=天下布武★鉞担ぎし魔金時
difficulty=light
level=6
t=194
m=n.mp3;n.mp3
o=-318
bg=grass
layer=arrow
po=0
plength=15000
pfiltergain=0
filtertype=peak
chokkakuautovol=1
chokkakuvol=0
pfilterdelay=0
icon=../icon03.png
ver=140d
--
beat=4/4
t=194
0000|00|--
--
0000|00|-m
0000|00|-:
--
0000|00|-:
0000|00|-:
0000|00|-2
0000|00|--
--
0000|00|2-
0000|00|:-
--
0000|00|:-
0000|00|:-
0000|00|:-
0000|00|:-
0000|00|:-
0000|00|:-
0000|00|:-
0000|00|:-
0000|00|:-
0000|00|:-
0000|00|:-
0000|00|:-
0000|00|:-
0000|00|:-
0000|00|:-
0000|00|:-
0000|00|:-
0000|00|:-
0000|00|:-
0000|00|:-
0000|00|:-
0000|00|:-
0000|00|:-
0000|00|:-
0000|00|:-
0000|00|:-
0000|00|:-
0000|00|:-
0000|00|:-
0000|00|:-
0000|00|:-
0000|00|:-
0000|00|m-
0000|00|:-
0000|00|:-
0000|00|:-
0000|00|:-
0000|00|:-
0000|00|:-
0000|00|:-
0000|00|:-
0000|00|:-
0000|00|:-
0000|00|:-
0000|00|:-
0000|00|:-
0000|00|:-
0000|00|:-
0000|00|m-
0000|00|:-
0000|00|2-
0000|00|--
0000|00|--
0000|00|--
0000|00|--
0000|00|--
0000|00|--
0000|00|--
0000|00|--
0000|00|--
0000|00|--
0000|00|--
0000|00|--
0000|00|--
--
0001|00|--
0001|00|--
0001|00|--
0001|00|--
--
1000|00|--
1000|00|--
1000|00|--
1000|00|--
--
0000|01|--
0000|01|--
0000|10|--
0000|10|--
0000|01|--
0000|01|--
0000|10|--
0000|10|--
--
0000|01|--
0000|01|--
0000|01|--
0000|01|--
0000|11|--
0000|11|--
0000|00|--
0000|00|--
--
0010|00|--
0100|00|--
1000|00|--
0011|00|--
--
2000|00|--
2000|00|--
2000|00|--
2000|00|--
2000|00|--
2000|00|--
0000|00|--
0000|00|--
0000|00|--
0000|00|--
0000|00|--
0000|00|--
0100|00|--
0000|00|--
0000|00|--
0000|00|--
--
0020|00|--
0020|00|--
0020|00|--
0020|00|--
0020|00|--
0020|00|--
0000|00|--
0000|00|--
0000|00|--
0000|00|--
0000|00|--
0000|00|--
0000|00|--
0000|00|--
0000|00|--
0000|00|--
--
0002|00|--
0002|00|--
0002|00|--
0002|00|--
0002|00|--
0002|00|--
0000|00|--
0000|00|--
0000|00|--
0000|00|--
0000|00|--
0000|00|--
0010|00|--
0000|00|--
0000|00|--
0000|00|--
--
0200|00|--
0200|00|--
0200|00|--
0200|00|--
0200|00|--
0200|00|--
0000|00|--
0000|00|--
0000|00|--
0000|00|--
0000|00|--
0000|00|--
0000|00|--
0000|00|--
0000|00|--
0000|00|--
--
2200|00|--
2200|00|--
2200|00|--
2200|00|--
2200|00|--
2200|00|--
0000|00|--
0000|00|--
0000|00|--
0000|00|--
0000|00|--
0000|00|--
0100|00|--
0000|00|--
0000|00|--
0000|00|--
--
0022|00|--
0022|00|--
0022|00|--
0022|00|--
0022|00|--
0022|00|--
0000|00|--
0000|00|--
0000|00|--
0000|00|--
0000|00|--
0000|00|--
0010|00|--
0000|00|--
0000|00|--
0000|00|--
--
0000|10|--
0000|10|--
0000|10|--
0000|10|--
0000|10|--
0000|10|--
0000|00|--
0000|00|--
0000|00|--
0000|00|--
0000|00|--
0000|00|--
0000|20|--
0000|00|--
0000|00|--
0000|00|--
--
0000|01|--
0000|01|--
0000|01|--
0000|01|--
0000|01|--
0000|01|--
0000|00|--
0000|00|--
0000|00|--
0000|00|--
0000|00|--
0000|00|--
0000|02|--
0000|00|--
0000|00|--
0000|00|--
--
0000|00|2-
0000|00|:-
--
0000|00|:-
--
0000|00|l-
0000|00|:-
0000|00|E-
0000|00|:-
--
0000|00|Z-
0000|00|:-
0000|00|:-
0000|00|:-
0000|00|2-
0000|00|:-
0000|00|l-
0000|00|--
--
0000|00|-m
0000|00|-:
--
0000|00|-:
--
0000|00|-2
0000|00|-:
0000|00|-Z
0000|00|-:
--
0000|00|-E
0000|00|-:
0000|00|-:
0000|00|-:
0000|00|-l
0000|00|-:
0000|00|-2
0000|00|--
--
1000|00|--
1000|00|--
1000|00|--
1000|00|--
--
0100|00|--
0100|00|--
0100|00|--
0100|00|--
--
0010|00|--
0010|00|--
0010|00|--
0010|00|--
--
0001|00|--
0001|00|--
0001|00|--
0001|00|--
--
0000|10|--
0000|10|--
0000|00|--
0000|00|--
0000|01|--
0000|01|--
0000|00|--
0000|00|--
--
0000|10|--
0000|10|--
0000|01|--
0000|01|--
0000|10|--
0000|10|--
0000|00|--
0000|00|--
--
0000|00|-m
0000|00|-:
0000|00|-:
0000|00|-:
0000|00|-:
0000|00|-:
0000|00|-2
0000|00|--
--
0000|00|2-
0000|00|:-
0000|00|:-
0000|00|:-
0000|00|:-
0000|00|:-
0000|00|l-
0000|00|--
--
0000|01|--
0000|01|--
0000|10|--
0000|10|--
--
0000|11|--
0000|11|--
0000|11|--
0000|11|--
0000|00|--
0000|00|--
0000|00|--
0000|00|--
0000|00|--
0000|00|--
0110|00|--
0000|00|--
0110|00|--
0000|00|--
0000|00|--
0000|00|--
--
0001|00|--
0010|00|--
0100|00|--
1000|00|--
--
0000|10|--
0000|10|--
0000|00|--
0000|00|--
0000|01|--
0000|01|--
0000|00|--
0000|00|--
--
1000|00|--
0100|00|--
0010|00|--
0001|00|--
--
0000|01|--
0000|01|--
0000|00|--
0000|00|--
0000|10|--
0000|10|--
0000|00|--
0000|00|--
--
0002|00|--
0002|00|--
0002|00|--
0002|00|--
0002|00|--
0002|00|--
0000|00|--
0000|00|--
0020|00|--
0020|00|--
0020|00|--
0020|00|--
0020|00|--
0020|00|--
0000|00|--
0000|00|--
--
0200|00|--
0200|00|--
0200|00|--
0200|00|--
0200|00|--
0200|00|--
0000|00|--
0000|00|--
2000|00|--
2000|00|--
2000|00|--
2000|00|--
2000|00|--
2000|00|--
0000|00|--
0000|00|--
--
0100|00|--
0100|00|--
0010|00|--
0010|00|--
--
0000|20|--
0000|20|--
0000|20|--
0000|02|--
--
1000|00|--
0100|00|--
0010|00|--
0001|00|--
--
0000|01|--
0000|01|--
0000|00|--
0000|00|--
0000|10|--
0000|10|--
0000|00|--
0000|00|--
--
0001|00|--
0010|00|--
0100|00|--
1000|00|--
--
0000|10|--
0000|10|--
0000|00|--
0000|00|--
0000|01|--
0000|01|--
0000|00|--
0000|00|--
--
2000|00|--
2000|00|--
2000|00|--
2000|00|--
2000|00|--
2000|00|--
0000|00|--
0000|00|--
0200|00|--
0200|00|--
0200|00|--
0200|00|--
0200|00|--
0200|00|--
0000|00|--
0000|00|--
--
0020|00|--
0020|00|--
0020|00|--
0020|00|--
0020|00|--
0020|00|--
0000|00|--
0000|00|--
0002|00|--
0002|00|--
0002|00|--
0002|00|--
0002|00|--
0002|00|--
0000|00|--
0000|00|--
--
0010|00|--
0010|00|--
0100|00|--
0100|00|--
--
0000|01|--
0000|01|--
0000|10|--
0000|10|--
0000|01|--
0000|01|--
0000|00|--
0000|00|--
--
0000|00|2-
0000|00|:-
0000|00|m-
0000|00|--
0000|00|--
0000|00|--
0000|00|--
0000|00|--
0000|00|--
0000|00|--
0000|00|--
0000|00|--
0000|00|--
0000|00|--
0000|00|--
0000|00|--
0000|00|--
0000|00|--
0000|00|--
0000|00|--
0000|00|--
0000|00|--
0000|00|--
0000|00|--
0000|00|--
0000|00|--
0000|00|--
0000|00|--
0000|00|--
0000|00|--
0000|00|--
0000|00|--
0000|00|--
0000|00|--
0000|00|--
0000|00|--
0000|00|--
0000|00|--
0000|00|--
0000|00|--
0000|00|--
0000|00|--
0000|00|--
0000|00|--
0000|00|--
0000|00|--
0000|00|--
0000|00|--
0000|00|--
0000|00|--
0000|00|--
0000|00|--
0000|00|--
0000|00|--
0000|00|--
0000|00|--
0000|00|--
0000|00|--
0000|00|--
0000|00|--
0000|00|--
0000|00|--
0000|00|--
0000|00|--
--
0000|00|--
--
0000|00|-m
0000|00|-:
--
0000|00|-:
0000|00|-:
0000|00|-2
0000|00|--
--
0000|00|2-
0000|00|:-
--
0000|00|l-
0000|00|:-
0000|00|2-
0000|00|--
--
0000|00|-m
0000|00|-:
--
0000|00|-2
0000|00|-:
0000|00|-m
0000|00|--
--
0000|00|2-
0000|00|:-
0000|00|m-
0000|00|:-
--
0000|00|2-
0000|00|:-
0000|00|m-
0000|00|--
--
0000|00|-m
0000|00|-:
0000|00|-2
0000|00|-:
--
0000|00|-m
0000|00|-:
0000|00|-2
0000|00|--
--
1000|00|--
1000|00|--
1000|00|--
1000|00|--
--
0100|00|--
0100|00|--
0100|00|--
0100|00|--
--
0010|00|--
0010|00|--
0010|00|--
0010|00|--
--
0001|00|--
0001|00|--
0001|00|--
0001|00|--
--
0000|10|--
0000|10|--
0000|00|--
0000|00|--
0000|01|--
0000|01|--
0000|00|--
0000|00|--
--
0000|10|--
0000|10|--
0000|01|--
0000|01|--
0000|10|--
0000|10|--
0000|00|--
0000|00|--
--
0000|00|-m
0000|00|-:
0000|00|-:
0000|00|-:
0000|00|-:
0000|00|-:
0000|00|-2
0000|00|--
--
0000|00|2-
0000|00|:-
0000|00|:-
0000|00|:-
0000|00|:-
0000|00|:-
0000|00|l-
0000|00|--
--
0002|00|--
0002|00|--
0000|00|--
0000|00|--
0022|00|--
0022|00|--
0000|00|--
0000|00|--
--
2000|00|--
2000|00|--
0000|00|--
0000|00|--
2200|00|--
2200|00|--
0000|00|--
0000|00|--
--
0000|11|--
0000|11|--
0000|11|--
0000|11|--
0000|11|--
0000|11|--
0000|00|--
0000|00|--
--
0010|00|--
0100|00|--
1000|00|--
0011|00|--
--
1000|00|--
0100|00|--
0010|00|--
0001|00|--
--
0000|10|--
0000|10|--
0000|00|--
0000|00|--
0000|01|--
0000|01|--
0000|00|--
0000|00|--
--
0001|00|--
0010|00|--
0100|00|--
1000|00|--
--
0000|01|--
0000|01|--
0000|00|--
0000|00|--
0000|10|--
0000|10|--
0000|00|--
0000|00|--
--
0002|00|--
0002|00|--
0002|00|--
0002|00|--
0002|00|--
0002|00|--
0000|00|--
0000|00|--
0020|00|--
0020|00|--
0020|00|--
0020|00|--
0020|00|--
0020|00|--
0000|00|--
0000|00|--
--
0200|00|--
0200|00|--
0200|00|--
0200|00|--
0200|00|--
0200|00|--
0000|00|--
0000|00|--
2000|00|--
2000|00|--
2000|00|--
2000|00|--
2000|00|--
2000|00|--
0000|00|--
0000|00|--
--
0010|00|--
0010|00|--
0100|00|--
0100|00|--
--
0000|02|--
0000|02|--
0000|02|--
0000|20|--
--
0001|00|--
0010|00|--
0100|00|--
1000|00|--
--
0000|01|--
0000|01|--
0000|01|--
0000|01|--
0000|10|--
0000|10|--
0000|10|--
0000|10|--
0000|00|--
0000|00|--
0000|02|--
0000|00|--
0000|02|--
0000|00|--
0000|00|--
0000|00|--
--
0000|00|--
1100|00|--
0011|00|--
1100|00|--
--
0000|01|--
0000|01|--
0000|10|--
0000|10|--
0000|11|--
0000|11|--
0000|00|--
0000|00|--
--
0020|00|--
0020|00|--
0020|00|--
0020|00|--
0020|00|--
0020|00|--
0000|00|--
0000|00|--
0200|00|--
0200|00|--
0200|00|--
0200|00|--
0200|00|--
0200|00|--
0000|00|--
0000|00|--
--
0002|00|--
0002|00|--
0002|00|--
0002|00|--
0002|00|--
0002|00|--
0000|00|--
0000|00|--
2000|00|--
2000|00|--
2000|00|--
2000|00|--
2000|00|--
2000|00|--
0000|00|--
0000|00|--
--
0001|00|--
0010|00|--
0100|00|--
1000|00|--
--
0000|01|--
0000|01|--
0000|01|--
0000|01|--
0000|01|--
0000|01|--
0000|01|--
0000|01|--
0000|01|--
0000|01|--
0000|01|--
0000|01|--
0000|01|--
0000|01|--
0000|01|--
0000|01|--
0000|10|--
0000|10|--
0000|10|--
0000|10|--
0000|10|--
0000|10|--
0000|10|--
0000|10|--
0000|10|--
0000|10|--
0000|10|--
0000|10|--
0000|10|--
0000|10|--
0000|10|--
0000|10|--
0000|00|--
0000|00|--
0000|00|--
0000|00|--
0000|00|--
0000|00|--
0000|00|--
0000|00|--
0000|00|--
0000|00|--
0000|00|--
0000|00|--
0000|00|--
0000|00|--
0000|00|--
0000|00|--
0000|00|-m
0000|00|-:
0000|00|-2
0000|00|--
0000|00|--
0000|00|--
0000|00|--
0000|00|--
0000|00|--
0000|00|--
0000|00|--
0000|00|--
0000|00|--
0000|00|--
0000|00|--
0000|00|--
--
