title=Innocent Eyes
artist=FELT
effect=TAKUYA
jacket=nov.jpg
illustrator=AO
difficulty=light
level=3
t=180
m=nov.mp3;nov.mp3
o=0
bg=desert
layer=arrow
po=0
plength=15000
pfiltergain=0
filtertype=peak
chokkakuautovol=1
chokkakuvol=0
ver=140d
--
beat=4/4
0000|00|--
--
0000|00|0-
0000|00|:-
--
0000|00|:-
--
0000|00|:-
--
0000|00|o-
0000|00|:-
--
0000|00|0-
0000|00|:-
--
0000|00|:-
--
0000|00|:-
--
0000|00|o-
0000|00|:-
0000|00|0-
0000|00|--
--
0000|00|-o
0000|00|-:
--
0000|00|-:
--
0000|00|-:
--
0000|00|-0
0000|00|-:
--
0000|00|-o
0000|00|-:
--
0000|00|-:
--
0000|00|-:
--
0000|00|-0
0000|00|-:
0000|00|-o
0000|00|--
--
0000|10|--
0000|10|--
0000|00|--
0000|00|--
--
0001|00|--
0001|00|--
--
0000|10|--
0000|10|--
0000|00|--
0000|00|--
--
0010|00|--
0010|00|--
--
0000|10|--
0000|10|--
0000|00|--
0000|00|--
--
0001|00|--
0001|00|--
--
0000|10|--
0000|10|--
0000|00|--
0000|00|--
--
0100|00|--
0000|00|--
0000|00|--
0100|00|--
0000|00|--
0000|00|--
0100|00|--
0000|00|--
--
0000|01|--
0000|01|--
0000|00|--
0000|00|--
--
1000|00|--
1000|00|--
--
0000|01|--
0000|01|--
0000|00|--
0000|00|--
--
0100|00|--
0100|00|--
--
0000|01|--
0000|01|--
0000|00|--
0000|00|--
--
1000|00|--
1000|00|--
--
0000|01|--
0000|01|--
--
0000|00|--
0000|00|--
--
0000|00|0-
0000|00|:-
--
0000|00|:-
--
0000|00|o-
0000|00|:-
--
0000|00|:-
--
0000|00|0-
0000|00|:-
--
0000|00|o-
0000|00|:-
--
0000|00|0-
0000|00|:-
--
0000|00|o-
0000|00|:-
0000|00|0-
0000|00|--
--
0000|00|-o
0000|00|-:
--
0000|00|-:
--
0000|00|-0
0000|00|-:
--
0000|00|-:
--
0000|00|-o
0000|00|-:
--
0000|00|-0
0000|00|-:
--
0000|00|-o
0000|00|-:
--
0000|00|-0
0000|00|-:
0000|00|-o
0000|00|--
--
1000|00|--
1000|00|--
--
1000|00|--
--
0000|01|--
0000|01|--
0000|00|--
0000|00|--
--
0000|10|--
0000|10|--
0000|00|--
0000|00|--
--
0001|00|--
0001|00|--
--
0001|00|--
--
0000|10|--
0000|10|--
0000|00|--
0000|00|--
--
0000|01|--
0000|01|--
0000|00|--
0000|00|--
--
0000|00|0-
0000|00|:-
--
0000|00|o-
0000|00|:-
0000|00|:-
0000|00|:-
0000|00|:-
0000|00|:-
0000|00|:-
0000|00|:-
0000|00|:-
0000|00|:-
0000|00|:-
0000|00|:-
0000|00|:-
0000|00|:-
0000|00|:-
0000|00|:-
0000|00|o-
0000|00|:-
0000|00|0-
0000|00|--
0000|00|--
0000|00|--
0000|00|--
0000|00|--
0000|00|--
0000|00|--
0000|00|--
0000|00|--
0000|00|--
0000|00|--
0000|00|--
0000|00|--
0000|00|--
0000|00|--
0000|00|--
0000|00|--
0000|00|--
0000|00|--
0000|00|--
0000|00|--
0000|00|--
0000|00|--
0000|00|--
0000|00|--
0000|00|--
0000|00|--
0000|00|--
0000|00|--
0000|00|--
0000|00|--
0000|00|--
0000|00|--
0000|00|--
0000|00|--
0000|00|--
0000|00|--
0000|00|--
0000|00|--
0000|00|--
0000|00|--
0000|00|--
0000|00|--
0000|00|--
0000|00|--
--
0000|00|--
--
0001|00|--
0001|00|--
--
1000|00|--
1000|00|--
--
0001|00|--
0001|00|--
--
0000|10|--
0000|10|--
0000|00|--
0000|00|--
--
0010|00|--
0010|00|--
--
0100|00|--
0100|00|--
--
0000|01|--
0000|01|--
0000|00|--
0000|00|--
--
0000|10|--
0000|10|--
0000|00|--
0000|00|--
--
0001|00|--
0001|00|--
--
1000|00|--
1000|00|--
--
0001|00|--
0001|00|--
--
0000|10|--
0000|10|--
0000|00|--
0000|00|--
--
0000|00|-o
0000|00|-:
0000|00|-0
0000|00|-:
--
0000|00|-0
0000|00|-:
0000|00|-o
0000|00|--
--
0000|00|0-
0000|00|:-
0000|00|o-
0000|00|:-
--
0000|00|o-
0000|00|:-
0000|00|0-
0000|00|:-
--
0000|00|0-
0000|00|:-
--
0000|00|o-
0000|00|:-
0000|00|0-
0000|00|--
--
0000|00|-o
0000|00|-:
--
0000|00|-0
0000|00|-:
0000|00|-o
0000|00|--
--
0000|10|--
0000|10|--
--
0000|01|--
0000|01|--
0000|10|--
0000|10|--
--
0000|01|--
0000|01|--
--
0000|01|--
0000|01|--
0000|00|--
0000|00|--
--
0000|00|0-
0000|00|:-
--
0000|00|:-
--
0000|00|o-
0000|00|:-
0000|00|o-
0000|00|:-
--
0000|00|0-
0000|00|:-
0000|00|o-
0000|00|:-
--
0000|00|0-
0000|00|--
0000|01|--
0000|01|--
--
0000|00|--
0000|00|--
0000|10|--
0000|10|--
--
0000|00|--
0000|00|--
0001|00|--
0000|00|--
0001|00|--
0000|00|--
0001|00|--
0000|00|--
--
0000|10|--
0000|10|--
0000|00|--
0000|00|--
--
0000|00|-o
0000|00|-:
--
0000|00|-0
0000|00|-:
--
0000|00|-o
0000|00|-:
--
0000|00|-:
--
0000|00|-:
0000|00|-:
0000|00|-0
0000|00|--
--
