title=Growth Memories
artist=Hidra-Xjeil
effect=月刊ミズタニと博多の男
jacket=growth_memories_hidra_ex.png
illustrator=カエルとマキシマのわがまま☆ココナツボディ齲
difficulty=extended
level=18
t=215
m=growth_memories_hidra.wav
o=0
bg=cyber
layer=hidden
po=0
plength=15000
pfiltergain=50
filtertype=peak
chokkakuautovol=0
chokkakuvol=50
ver=140d
--
beat=4/4
t=215
tilt=normal
0000|00|--
0000|00|--
0000|00|--
0000|00|--
0000|00|--
0000|00|--
0000|00|--
0000|00|--
0000|00|--
0000|00|--
0000|00|--
0000|00|--
0000|00|--
0000|00|--
0000|00|--
0000|00|--
--
0100|00|-o
0000|00|-0
0000|00|--
0000|00|--
1000|00|--
0000|00|--
0000|00|--
0000|00|--
0100|00|--
0000|00|--
0000|00|--
0000|00|--
0010|00|-o
0000|00|-0
0000|00|--
0000|00|--
0000|00|--
0000|00|--
0000|00|--
0000|00|--
0100|00|--
0000|00|--
0000|00|--
0000|00|--
0001|00|-o
0000|00|-0
0000|00|--
0000|00|--
0000|00|--
0000|00|--
0000|00|--
0000|00|--
--
0000|00|--
0000|00|--
0001|20|--
0000|00|--
0010|00|--
0000|00|--
0002|00|--
0002|00|--
0002|20|--
0002|00|--
0020|00|--
0020|00|--
0020|20|--
0020|00|--
0100|00|--
0000|00|--
--
0010|00|0-
0000|00|o-
0000|00|--
0000|00|--
0001|00|--
0000|00|--
0000|00|--
0000|00|--
0010|00|--
0000|00|--
0000|00|--
0000|00|--
0100|00|0-
0000|00|o-
0000|00|--
0000|00|--
0000|00|--
0000|00|--
0000|00|--
0000|00|--
0010|00|--
0000|00|--
0000|00|--
0000|00|--
1000|00|0-
0000|00|o-
0000|00|--
0000|00|--
0000|00|--
0000|00|--
0000|00|--
0000|00|--
--
0000|00|--
0000|00|--
0100|02|--
0000|00|--
0000|00|--
0000|00|--
0010|20|--
0000|00|--
0000|00|--
0000|00|--
0100|02|--
0000|00|--
0001|00|--
0000|00|--
0010|00|--
0000|00|--
--
0100|00|-o
0000|00|-0
0000|00|--
0000|00|--
1000|00|--
0000|00|--
0000|00|--
0000|00|--
0100|00|--
0000|00|--
0000|00|--
0000|00|--
0010|00|-o
0000|00|-0
0000|00|--
0000|00|--
0000|00|--
0000|00|--
0000|00|--
0000|00|--
0100|00|--
0000|00|--
0000|00|--
0000|00|--
tilt=biggest
0001|00|-o
0000|00|-0
0000|00|-:
0000|00|-:
0000|00|-:
0000|00|-:
0000|00|-:
0000|00|-:
--
0000|H0|-:
0000|H0|-:
0010|H0|-:
0000|H0|-:
1000|H0|-:
0000|H0|-:
0001|H0|-:
0000|H0|-:
0100|H0|-:
0000|H0|-:
1000|H0|-:
0000|H0|-:
0001|00|-:
0000|00|-:
0100|00|-:
0010|00|-:
--
0001|00|-:
0000|00|-:
1100|00|-:
0000|00|-:
0110|00|-:
0000|00|-:
0011|00|-:
0000|00|-:
0000|00|-:
0000|00|-:
0220|00|-:
0220|00|-:
0220|00|-:
0220|00|-:
0000|22|-:
0000|00|-:
--
tilt=normal
0220|00|-0
0220|00|-:
0220|00|-:
0220|00|-:
0220|00|-:
0220|00|-:
0220|00|-:
0220|00|-:
0220|00|-b
0220|00|-:
0220|00|-:
0220|00|-:
0220|00|-C
0220|00|-:
0220|00|-:
0220|00|-:
--
0000|00|-b
0000|00|-:
0000|00|-:
0000|00|-:
0000|II|-:
0000|II|-:
0000|II|-:
0000|II|-:
0000|II|-:
0000|II|-:
0000|II|-:
0000|II|-:
0000|II|-:
0000|II|-:
0000|II|-:
0000|II|-:
0110|00|-0
0000|00|-o
0000|00|-:
0000|00|-:
0110|00|-o
0000|00|-0
0000|00|--
0000|00|--
0000|00|--
0000|00|--
0000|00|--
0000|00|--
2002|00|--
2002|00|--
2002|00|--
2002|00|--
--
2002|00|--
2002|00|--
0110|00|--
0000|00|--
0110|00|--
0000|00|--
0110|00|--
0000|00|--
0000|02|--
0000|20|--
0000|02|--
0000|00|--
1100|00|--
0000|00|--
0020|00|--
0020|00|--
--
1020|00|--
0020|00|--
0001|00|--
0000|00|--
1100|00|--
0000|00|--
0010|00|--
0000|00|--
1002|00|--
0002|00|--
0002|00|--
0002|00|--
1100|00|--
0000|00|--
0020|00|--
0020|00|--
--
1020|00|--
0020|00|--
0000|20|--
0000|02|--
0000|20|--
0000|00|--
0001|00|--
0000|00|--
1010|00|--
0000|00|--
0100|00|--
0000|00|--
1001|00|--
0000|00|--
0010|00|--
0000|00|--
--
1000|I0|--
0100|I0|--
0010|I0|--
0001|I0|--
1000|I0|--
0100|I0|--
0010|I0|--
0001|I0|--
0110|0S|--
0000|0S|--
0110|0S|--
0000|0S|--
0110|0S|--
0000|0S|--
2002|00|--
2002|00|--
--
2002|00|--
2002|00|--
0110|00|--
0000|00|--
0110|00|--
0000|00|--
0110|00|--
0000|00|--
0000|02|--
0000|20|--
0000|02|--
0000|00|--
1100|00|--
0000|00|--
0020|00|--
0020|00|--
--
1020|00|--
0020|00|--
0001|00|--
0000|00|--
1100|00|--
0000|00|--
0010|00|--
0000|00|--
1002|00|--
0002|00|--
0002|00|--
0002|00|--
1100|00|--
0000|00|--
0010|00|--
0000|00|--
--
1000|00|--
0000|00|--
0000|00|--
0000|00|--
filtertype=lpf1
0200|00|-o
0200|00|-P
0200|00|-:
0200|00|-:
0200|00|-:
0200|00|-:
0200|00|-:
0200|00|-:
1000|00|-P
0000|00|-o
0000|00|-:
0000|00|-:
0200|00|-o
0200|00|-P
0200|00|-:
0200|00|-:
0200|00|-:
0200|00|-:
0200|00|-:
0200|00|-:
1000|00|-P
0000|00|-o
0000|00|-:
0000|00|-:
1000|00|-o
0000|00|-0
filtertype=peak
0000|00|--
0000|00|--
--
0000|00|--
0000|00|--
0000|00|--
0000|00|--
0000|02|0-
0000|00|o-
0000|00|--
0000|00|--
0000|00|--
0000|00|--
0000|00|--
0000|00|--
tilt=keep_normal
0000|20|-o
0000|00|-0
0000|00|-:
0000|00|-:
1000|00|-:
0000|00|-:
0100|00|-:
0000|00|-:
0010|00|-:
0000|00|-:
0001|00|-:
0000|00|-:
0010|00|-0
0000|00|--
0100|00|--
0000|00|--
2002|00|--
2002|00|--
2002|00|--
2002|00|--
--
2002|00|--
2002|00|--
0110|00|--
0000|00|--
0110|00|--
0000|00|--
0110|00|--
0000|00|--
0000|02|--
0000|20|--
0000|02|--
0000|00|--
1100|00|--
0000|00|--
0020|00|--
0020|00|--
--
1020|00|--
0020|00|--
0001|00|--
0000|00|--
1100|00|--
0000|00|--
0010|00|--
0000|00|--
1002|00|--
0002|00|--
0002|00|--
0002|00|--
1100|00|--
0000|00|--
0020|00|--
0020|00|--
--
1020|00|--
0020|00|--
0000|20|--
0000|02|--
0000|20|--
0000|00|--
0001|00|--
0000|00|--
1010|00|--
0000|00|--
0100|00|--
0000|00|--
1001|00|--
0000|00|--
0010|00|--
0000|00|--
--
0100|T0|--
0010|T0|--
0100|T0|--
0010|T0|--
0100|T0|--
0010|T0|--
0100|T0|--
0010|T0|--
1000|0S|--
0000|0S|--
1000|0S|--
0000|0S|--
tilt=normal
1000|0S|--
0000|0S|--
0002|00|--
0002|00|--
--
0002|00|0-
0002|00|:-
0010|00|:-
0000|00|:-
0010|00|:-
0000|00|:-
0010|00|:-
0000|00|:-
0100|00|o-
0010|00|:-
0100|00|:-
0000|00|:-
0010|00|C-
0000|00|:-
0200|00|:-
0200|00|:-
--
0200|00|o-
0200|00|:-
0010|00|:-
0000|00|:-
0100|00|:-
0000|00|:-
0010|00|:-
0000|00|:-
0002|00|C-
0002|00|:-
0002|00|:-
0002|00|:-
0010|00|o-
0000|00|:-
0100|00|:-
0000|00|:-
--
0000|I0|:o
0000|I0|:0
0000|I0|::
0000|I0|::
0000|I0|::
0000|I0|::
0000|I0|::
0000|I0|::
0110|00|::
0000|00|::
0000|00|::
0000|00|::
0000|0I|::
0000|0I|::
0000|0I|::
0000|0I|::
0000|0I|::
0000|0I|::
0000|0I|::
0000|0I|::
0110|00|::
0000|00|::
0000|00|::
0000|00|::
0000|I0|::
0000|I0|::
0000|I0|::
0000|I0|::
0000|I0|::
0000|I0|::
0000|I0|::
0000|I0|::
--
0000|02|::
0000|00|::
0000|00|::
0000|00|::
0110|00|o:
0000|00|0:
0000|00|::
0000|00|::
0000|00|::
0000|00|::
0000|00|::
0000|00|::
0000|20|::
0000|00|::
0000|00|::
0000|00|::
0000|02|::
0000|00|::
0000|00|::
0000|00|::
0000|00|::
0000|00|::
0000|00|::
0000|00|::
0101|00|::
0000|00|::
0000|00|::
0000|00|::
1010|00|::
0000|00|::
0000|00|::
0000|00|::
--
0000|00|::
0000|00|::
0000|00|::
0000|00|::
0000|20|::
0000|00|::
0000|00|::
0000|00|::
1000|00|:0
0000|00|:o
0000|00|::
0000|00|::
0100|00|::
0000|00|::
0000|00|::
0000|00|::
0011|00|0:
0000|00|P:
0000|00|::
0000|00|::
0011|00|P:
0000|00|0:
0000|00|::
0000|00|::
0000|00|0:
0000|00|o:
0000|00|::
0000|00|::
0011|00|::
0000|00|::
0000|00|::
0000|00|::
--
0000|00|o:
0000|00|0:
0000|00|::
0000|00|::
0000|00|:o
0000|00|:6
0000|00|::
0000|00|::
0000|00|0:
0000|00|i:
0000|00|::
0000|00|::
0000|00|:6
0000|00|:o
0000|00|::
0000|00|::
0000|0U|i:
0000|0U|0:
0000|0U|::
0000|0U|::
0000|0U|::
0000|0U|::
0000|0U|::
0000|0U|::
0001|00|0o
0000|00|--
0010|00|--
0000|00|--
0100|00|--
0000|00|--
1000|00|--
0000|00|--
--
0020|00|--
0020|00|--
0020|00|--
0020|00|--
0020|00|--
0020|00|--
0020|00|--
0020|00|--
0020|00|0-
0020|00|b-
0020|00|:-
0020|00|:-
0020|00|:-
0020|00|:-
0020|00|:-
0020|00|:-
0020|00|:-
0020|00|:-
0020|00|:-
0020|00|:-
0020|00|:-
0020|00|:-
0020|00|:-
0020|00|:-
0000|H0|c-
0000|H0|C-
0000|H0|:-
0000|H0|:-
0000|H0|:-
0000|H0|:-
0000|H0|:-
0000|H0|:-
--
0200|00|:-
0200|00|:-
0200|00|:-
0200|00|:-
0200|00|C-
0200|00|o-
0200|00|:-
0200|00|:-
0200|00|:-
0200|00|:-
0200|00|:-
0200|00|:-
0020|00|o-
0020|00|0-
0020|00|:-
0020|00|:-
0020|00|:-
0020|00|:-
0020|00|:-
0020|00|:-
0020|00|0-
0020|00|P-
0020|00|:-
0020|00|:-
0002|00|P-
0002|00|0-
0002|00|:-
0002|00|:-
0002|00|:-
0002|00|:-
0002|00|:-
0002|00|:-
--
0000|0H|:-
0000|0H|:-
0000|0H|:-
0000|0H|:-
0000|0H|0-
0000|0H|o-
0000|0H|:-
0000|0H|:-
0010|00|:-
0000|00|:-
0000|00|:-
0000|00|:-
0100|00|o-
0000|00|6-
0000|00|:-
0000|00|:-
0000|00|:-
0000|00|:-
0000|00|:-
0000|00|:-
0010|20|6-
0000|00|i-
0000|00|:-
0000|00|:-
0000|00|:-
0000|00|:-
0000|00|:-
0000|00|:-
0100|02|i-
0000|00|0-
0000|00|:-
0000|00|:-
--
0000|00|:-
0000|00|:-
0020|00|:-
0020|00|:-
0020|X0|:-
0020|X0|:-
0020|X0|:-
0020|X0|:-
0100|0H|0-
0000|0H|--
0001|0H|--
0000|0H|--
0100|0H|--
0000|0H|--
0001|0H|--
0000|0H|--
--
0200|00|--
0200|00|--
0200|00|--
0200|00|--
0200|00|-o
0200|00|-C
0200|00|-:
0200|00|-:
0200|00|-:
0200|00|-:
0200|00|-:
0200|00|-:
0200|00|-C
0200|00|-b
0200|00|-:
0200|00|-:
0200|00|-:
0200|00|-:
0200|00|-:
0200|00|-:
0200|00|-b
0200|00|-0
0200|00|-:
0200|00|-:
0010|00|-:
0000|00|-:
0000|00|-:
0000|00|-:
0100|00|-0
0000|00|-o
0000|00|-:
0000|00|-:
--
0020|00|-:
0020|00|-:
0020|00|-:
0020|00|-:
0020|00|-:
0020|00|-:
0020|00|-:
0020|00|-:
0020|00|-o
0020|00|-W
0020|00|-:
0020|00|-:
0200|00|-W
0200|00|-C
0200|00|-:
0200|00|-:
0200|00|-C
0200|00|-o
0200|00|-:
0200|00|-:
0200|00|-:
0200|00|-:
0200|00|-:
0200|00|-:
1000|00|-o
0000|00|-0
0000|00|-:
0000|00|-:
0000|00|-:
0000|00|-:
0000|00|-:
0000|00|-:
--
0000|T0|-:
0000|T0|-:
0000|T0|-:
0000|T0|-:
0000|T0|-:
0000|T0|-:
0000|T0|-:
0000|T0|-:
0100|00|-0
0000|00|-o
0000|00|-:
0000|00|-:
0010|00|-:
0000|00|-:
0000|00|-:
0000|00|-:
0000|00|-:
0000|00|-:
0000|00|-:
0000|00|-:
0100|02|-o
0000|00|-6
0000|00|-:
0000|00|-:
0000|00|-:
0000|00|-:
0000|00|-:
0000|00|-:
0010|20|-6
0000|00|-o
0000|00|-:
0000|00|-:
--
0000|00|-:
0000|00|-:
0000|00|-:
0000|00|-:
0010|00|-:
0000|00|-:
0000|00|-:
0000|00|-:
0200|00|-o
0200|00|-0
0200|00|-:
0200|00|-:
0200|00|-:
0200|00|-:
0200|00|-:
0200|00|-:
0200|0X|-:
0200|0X|-:
0200|0X|-:
0200|0X|-:
0200|0X|-:
0200|0X|-:
0200|0X|-:
0200|0X|-: fx-l_param1=10
0020|B0|-0
0020|B0|--
0020|B0|--
0020|B0|--
0020|B0|--
0020|B0|--
0020|B0|--
0020|B0|--
--
1001|00|--
0000|00|--
0000|00|--
0000|00|--
0000|00|--
0000|00|--
0000|00|--
0000|00|--
0110|00|--
0000|00|--
0000|00|--
0000|00|--
1001|00|--
0000|00|--
0000|00|--
0000|00|--
0000|00|--
0000|00|--
0000|00|--
0000|00|--
tilt=keep_normal
0220|00|0-
0220|00|o-
0220|00|:-
0220|00|:-
0220|00|:-
0220|00|:-
0220|00|:-
0220|00|:-
0220|00|o-
0220|00|--
tilt=normal
0220|00|--
0220|00|--
--
1001|00|--
0000|00|--
0000|00|--
0000|00|--
0000|00|--
0000|00|--
0000|00|--
0000|00|--
0000|00|--
0000|00|--
0000|00|--
0000|00|--
0000|00|--
0000|00|--
0000|00|--
0000|00|--
0000|00|--
0000|00|--
0000|00|--
0000|00|--
0000|00|--
0000|00|--
0000|00|--
0000|00|--
0010|00|--
0000|00|--
0000|00|--
0000|00|--
0001|00|--
0000|00|--
0000|00|--
0000|00|--
0010|00|--
0000|00|--
0000|00|--
0000|00|--
1100|00|--
0000|00|--
0000|00|--
0000|00|--
0000|00|--
0000|00|--
0000|00|--
0000|00|--
0000|00|--
0000|00|--
0000|00|--
0000|00|--
0000|00|--
0000|00|--
0000|00|--
0000|00|--
0000|00|--
0000|00|--
0000|00|--
0000|00|--
0000|00|--
0000|00|--
0000|00|--
0000|00|--
tilt=keep_normal
0000|XX|-o
0000|XX|-:
0000|XX|-:
0000|XX|-0
0000|XX|-:
0000|XX|-:
0000|XX|-:
0000|XX|-:
0000|XX|-:
0000|XX|-:
0000|XX|-:
0000|XX|-:
0000|XX|-:
0000|XX|-:
0000|XX|-:
0000|XX|-:
0000|XX|-:
0000|XX|-:
0000|XX|-:
0000|XX|-:
0000|XX|-:
0000|XX|-:
0000|XX|-:
0000|XX|-:
0110|00|-:
0000|00|-:
0000|00|-:
0000|00|-:
0000|00|-:
0000|00|-:
0000|00|-:
0000|00|-:
0000|00|-:
0000|00|-:
0000|00|-:
0000|00|-:
--
0001|20|-0
0000|00|--
0000|00|--
0100|02|--
0000|00|--
0000|00|--
0010|20|--
0000|00|--
0000|00|--
1000|02|--
0000|00|--
0000|00|--
0011|20|--
0000|00|--
0000|00|--
1100|02|--
--
0000|00|--
0000|00|--
0011|20|--
0000|00|--
0000|00|--
0000|00|--
0110|00|--
0000|00|--
tilt=normal
1001|00|--
0000|00|--
0010|XX|--
0100|XX|--
1000|XX|--
0001|XX|--
0010|XX|--
0100|XX|--
--
1002|00|--
0002|00|--
0002|00|--
0002|00|--
1102|00|--
0002|00|--
0010|00|--
0000|00|--
1000|00|--
0000|00|--
0011|00|--
0000|00|--
1100|00|--
0000|00|--
0020|00|--
0020|00|--
--
1020|00|--
0020|00|--
0001|00|--
0000|00|--
1100|02|--
0000|00|--
1100|02|--
0000|00|--
1100|02|--
0000|00|--
0000|00|--
0000|00|--
0001|I0|--
0010|I0|--
0100|I0|--
1000|I0|--
--
0000|02|--
0000|00|--
0110|00|--
0000|00|--
0000|02|--
0000|00|--
1100|00|--
0000|00|--
0000|02|--
0000|00|--
1010|00|--
0000|00|--
0000|02|--
0000|00|--
0101|00|--
0000|00|--
--
0000|20|--
0000|00|--
0000|0I|--
0010|0I|--
0001|20|--
0000|00|--
0000|0I|--
0010|0I|--
0001|20|--
0000|00|--
0000|0I|--
0010|0I|-- fx-l_param1=30
0001|A0|--
0000|A0|--
0000|A0|--
0000|A0|--
--
1010|00|--
0000|00|--
0001|00|--
0010|00|--
0100|00|--
0000|00|--
0001|00|--
0000|00|--
0010|00|--
0000|00|--
1100|00|--
0000|00|--
0001|00|--
0000|00|--
0110|00|--
0000|00|--
--
1000|0T|--
0100|0T|--
0010|0T|--
0001|0T|--
0100|00|--
0000|00|--
0010|00|--
0000|00|--
1100|00|--
0000|00|--
0011|00|--
0000|00|--
1100|00|--
0000|00|--
0001|00|--
0010|00|--
--
0100|H0|--
0000|H0|--
0001|H0|--
0000|H0|--
1000|H0|--
0000|H0|--
0100|H0|--
0000|H0|--
0010|00|--
0000|00|--
0100|0U|--
0000|0U|--
0010|00|--
0000|00|--
1001|00|--
0000|00|--
--
0010|00|--
0000|00|--
0000|00|--
0000|00|--
0000|02|0-
0000|00|o-
0000|00|--
0000|00|--
0000|00|--
0000|00|--
0000|00|--
0000|00|--
0000|02|0-
0000|00|o-
0000|00|--
0000|00|--
0000|00|--
0000|00|--
0000|00|--
0000|00|--
0000|20|-o
0000|00|-0
0000|00|--
0000|00|--
0000|00|0-
0000|00|o-
0000|00|:-
0000|00|:-
0000|00|:-
0000|00|:-
0000|00|:-
0000|00|:-
--
0000|0S|o-
0000|0S|:-
0000|0S|:-
0000|0S|:-
0000|0S|:-
0000|0S|:-
0000|0S|:-
0000|0S|:-
0000|0S|:-
0000|0S|:-
0000|0S|:-
0000|0S|:-
0011|00|0-
0000|00|:-
0000|00|:-
0000|00|:-
0000|00|:-
0000|00|:-
0000|00|:-
0000|00|:-
1100|00|:-
0000|00|:-
0000|00|:-
0000|00|:-
0000|00|0o
0000|00|-0
0000|00|-:
0000|00|-:
0000|X0|-:
0000|X0|-:
0000|X0|-:
0000|X0|-:
--
0000|X0|-0
0000|X0|-:
0000|X0|-:
0000|X0|-:
1000|00|-:
0000|00|-:
0000|00|-:
0000|00|-:
0100|00|-:
0000|00|-:
0000|00|-:
0000|00|-:
0010|00|-o
0000|00|-:
0000|00|-:
0000|00|-:
1100|00|-:
0000|00|-:
0000|00|-:
0000|00|-:
0000|00|-:
0000|00|-:
0000|00|-:
0000|00|-:
0002|00|0o
0002|00|o-
0002|00|:-
0002|00|:-
0002|00|:-
0002|00|:-
0002|00|:-
0002|00|:-
--
0010|00|o-
0000|00|:-
0000|00|:-
0000|00|:-
0001|00|:-
0000|00|:-
0000|00|:-
0000|00|:-
0010|00|:-
0000|00|:-
0000|00|:-
0000|00|:-
0100|00|0-
0000|00|:-
0000|00|:-
0000|00|:-
1000|00|:-
0000|00|:-
0000|00|:-
0000|00|:-
0100|00|:-
0000|00|:-
0000|00|:-
0000|00|:-
0000|00|0o
0000|00|-0
0000|00|--
0000|00|--
0200|00|--
0200|00|--
0200|00|--
0200|00|--
--
0200|00|--
0200|00|--
0011|00|--
0000|00|--
0101|00|--
0000|00|--
1001|00|--
0000|00|--
0000|X0|--
1000|X0|--
0100|X0|--
0010|X0|--
0001|X0|--
0010|X0|--
0100|X0|--
1000|X0|--
--
0010|00|--
0000|00|--
0000|00|--
0000|00|--
0010|00|--
0000|00|--
0100|00|--
0000|00|--
0010|00|0-
0000|00|o-
0000|00|--
0000|00|--
0000|00|--
0000|00|--
0000|00|--
0000|00|--
0000|20|--
0000|00|--
0000|00|--
0000|00|--
0000|20|--
0000|00|--
0000|02|--
0000|00|--
0000|20|-o
0000|00|-0
0000|00|--
0000|00|--
1100|00|--
0000|00|--
0000|00|--
0000|00|--
--
0011|00|--
0000|00|--
1000|00|--
0100|00|--
0010|00|--
1000|00|--
0100|00|--
0010|00|--
0001|00|--
0010|00|--
0100|00|--
1000|00|--
0001|00|--
0010|00|--
0100|00|--
1000|00|--
--
0000|20|-o
0000|00|-0
0000|00|-:
0000|00|-:
0000|20|-0
0000|00|-o
0000|00|-:
0000|00|-:
0000|20|-o
0000|00|-0
0000|00|--
0000|00|--
0000|00|--
0000|00|--
0000|00|--
0000|00|--
0100|02|--
0000|00|--
0000|00|--
0000|00|--
0100|02|--
0000|00|--
0010|00|--
0000|00|--
0100|02|--
0000|00|--
0000|00|--
0000|00|--
0100|02|--
0000|00|--
0000|00|--
0000|00|--
--
0000|00|--
0010|20|--
0000|00|--
0000|00|--
0100|02|--
0000|00|--
0000|00|--
0000|00|0o
0000|00|::
0000|00|WJ
0000|00|::
0000|00|::
0000|00|i6
0000|00|::
0000|00|::
0000|00|::
--
filtertype=hpf1
0000|00|o0
0000|00|:P
0000|00|::
0000|00|::
0000|00|o:
0000|00|0:
0000|00|::
0000|00|::
0000|00|0:
0000|00|o:
0000|00|::
0000|00|::
0000|00|o:
0000|00|P:
0000|00|::
0000|00|::
0000|00|:P
0000|00|:0
0000|00|::
0000|00|::
0000|00|:0
0000|00|:o
0000|00|::
0000|00|::
0000|00|:o
0000|00|:0
0000|00|::
0000|00|::
0000|00|:0
0000|00|:P
0000|00|::
0000|00|::
--
0000|00|PP
0000|00|::
0000|00|6i
0000|00|::
0000|00|0o
0000|00|::
0000|00|6i
0000|00|::
0000|00|PP
0000|00|o0
0000|00|::
0000|00|::
0000|00|o0
0000|00|PP
0000|00|::
0000|00|::
0000|00|:P
0000|00|:o
0000|00|::
0000|00|::
0000|00|::
0000|00|::
0000|00|::
0000|00|::
0000|00|PP
0000|00|::
0000|00|::
0000|00|::
0000|00|::
0000|00|::
0000|00|::
0000|00|::
--
filtertype=peak
0000|00|0P
0000|00|Po
0000|00|::
0000|00|::
0000|00|:o
0000|00|:b
0000|00|::
0000|00|::
0000|00|Pb
0000|00|0P
0000|00|::
0000|00|::
0000|00|0:
0000|00|C:
0000|00|::
0000|00|::
0000|00|CP
0000|00|P:
0000|00|:i
0000|00|::
0000|00|:o
0000|00|::
0000|00|:i
0000|00|::
0000|00|PP
0000|00|::
0000|00|6:
0000|00|::
0000|00|0:
0000|00|::
0000|00|6:
0000|00|::
--
0000|00|PP
0000|00|:o
0000|00|::
0000|00|::
0000|00|P:
0000|00|0:
0000|00|::
0000|00|::
0000|00|0:
0000|00|o:
0000|00|::
0000|00|::
0000|00|o:
0000|00|0:
0000|00|::
0000|00|::
0000|00|00
0000|00|:o
0000|00|::
0000|00|::
0000|00|:o
0000|00|:0
0000|00|::
0000|00|::
0000|00|o0
0000|00|:P
0000|00|::
0000|00|::
0000|00|:P
0000|00|:0
0000|00|::
0000|00|::
--
0000|UU|::
0000|UU|::
0000|UU|::
0000|UU|::
0000|UU|::
0000|UU|::
0000|UU|::
0000|UU|::
0000|00|:0
0000|00|:o
0000|00|::
0000|00|::
0000|00|:o
0000|00|:0
0000|00|::
0000|00|::
0000|00|o:
0000|00|::
0000|00|W:
0000|00|::
0000|00|P:
0000|00|::
0000|00|W:
0000|00|::
0000|00|o0
0000|00|::
0000|00|:J
0000|00|::
0000|00|:P
0000|00|::
0000|00|:J
0000|00|::
--
0000|00|o0
0000|00|0o
0000|00|::
0000|00|::
0000|00|::
0000|00|::
0000|00|::
0000|00|::
0001|00|::
0000|00|::
0010|00|::
0000|00|::
0100|00|::
0000|00|::
1000|00|::
0000|00|::
0000|S0|:o
0000|S0|::
0000|S0|::
0000|S0|::
0000|S0|::
0000|S0|::
0000|S0|::
0000|S0|::
0000|02|:o
0000|00|:0
0000|00|::
0000|00|::
0000|00|::
0000|00|::
0000|00|::
0000|00|::
--
0000|00|:0
0000|00|:o
0000|00|::
0000|00|::
0000|00|0o
0000|00|iJ
0000|00|::
0000|00|::
0000|00|iJ
0000|00|Ji
0000|00|::
0000|00|::
0000|00|Ji
0000|00|bC
0000|00|::
0000|00|::
0000|00|cC
0000|00|Cb
0000|00|::
0000|00|::
0000|00|Cb
0000|00|W6
0000|00|::
0000|00|::
0000|00|W6
0000|00|6W
0000|00|::
0000|00|::
0000|00|6W
0000|00|P0
0000|00|::
0000|00|::
--
0011|00|:0
0000|00|::
0000|00|::
0000|00|::
0100|00|::
0000|00|::
0010|00|::
0000|00|::
0001|00|::
0000|00|::
0000|00|::
0000|00|::
1100|00|::
0000|00|::
0000|00|::
0000|00|::
0000|00|P0
0000|00|oP
0000|00|::
0000|00|::
0000|00|::
0000|00|::
0000|00|oP
0000|00|P0
0000|00|::
0000|00|::
0000|00|::
0000|00|::
0000|00|P0
0000|00|oP
0000|00|::
0000|00|::
--
2002|00|oP
2002|00|--
2002|00|--
2002|00|--
2002|00|--
2002|00|--
2002|00|--
2002|00|--
0110|00|--
0000|00|--
0000|00|--
0000|00|--
1001|00|--
0000|00|--
0000|00|--
0000|00|--
0000|00|--
0000|00|--
0000|00|--
0000|00|--
tilt=biggest
0220|00|-o
0220|00|-0
0220|00|-:
0220|00|-:
0220|00|-:
0220|00|-:
0220|00|-:
0220|00|-:
0220|00|-:
0220|00|-:
0220|00|-:
0220|00|-:
--
tilt=normal
1001|00|-0
0000|00|--
0000|00|--
0000|00|--
0000|00|--
0000|00|--
0000|00|--
0000|00|--
0000|00|--
0000|00|--
0000|00|--
0000|00|--
0000|00|--
0000|00|--
0000|00|--
0000|00|--
0000|00|--
0000|00|--
0000|00|--
0000|00|--
0000|00|--
0000|00|--
0000|00|--
0000|00|--
0010|00|--
0000|00|--
0000|00|--
0000|00|--
0001|00|--
0000|00|--
0000|00|--
0000|00|--
0010|00|--
0000|00|--
0000|00|--
0000|00|--
1100|00|--
0000|00|--
0000|00|--
0000|00|--
0000|00|--
0000|00|--
0000|00|--
0000|00|--
0000|00|--
0000|00|--
0000|00|--
0000|00|--
0000|00|--
0000|00|--
0000|00|--
0000|00|--
0000|00|--
0000|00|--
0000|00|--
0000|00|--
0000|00|--
0000|00|--
0000|00|--
0000|00|--
tilt=biggest
0000|XX|0-
0000|XX|:-
0000|XX|:-
0000|XX|o-
0000|XX|:-
0000|XX|:-
0000|XX|:-
0000|XX|:-
0000|XX|:-
0000|XX|:-
0000|XX|:-
0000|XX|:-
0000|XX|:-
0000|XX|:-
0000|XX|:-
0000|XX|:-
0000|XX|:-
0000|XX|:-
0000|XX|:-
0000|XX|:-
0000|XX|:-
0000|XX|:-
0000|XX|:-
0000|XX|:-
0110|00|:-
0000|00|:-
0000|00|:-
0000|00|:-
0000|00|:-
0000|00|:-
0000|00|:-
0000|00|:-
0000|00|:-
0000|00|:-
0000|00|:-
0000|00|:-
--
tilt=normal
1000|02|o-
0000|00|--
0000|00|--
0010|20|--
0000|00|--
0000|00|--
0100|02|--
0000|00|--
0000|00|--
0001|20|--
0000|00|--
0000|00|--
1100|02|--
0000|00|--
0000|00|--
0011|20|--
--
0000|00|--
0000|00|--
0000|00|--
0000|00|--
1100|02|--
0000|00|--
0000|00|--
0000|00|--
0000|00|--
0000|00|--
0000|00|--
0000|00|--
tilt=biggest
0000|20|-o
0000|00|-0
0000|00|-:
0000|00|-:
1000|00|-:
0000|00|-:
0100|00|-:
0000|00|-:
0010|00|-:
0000|00|-:
0001|00|-:
0000|00|-:
0010|00|-:
0000|00|-:
0100|00|-:
0000|00|-:
1000|00|-:
0000|00|-:
0000|00|-:
0000|00|-:
--
tilt=normal
0200|00|-0
0200|00|-:
0200|00|-:
0200|00|-:
0200|00|-:
0200|00|-:
0200|00|-:
0200|00|-:
1000|00|-b
0000|00|-:
0000|00|-:
0000|00|-:
0100|00|-:
0000|00|-:
0000|00|-:
0000|00|-:
--
1000|00|-6
0000|00|-:
0000|00|-:
0000|00|-:
0010|00|-:
0000|00|-:
0100|00|-:
0000|00|-:
0010|00|-i
0000|00|-:
0000|00|-:
0000|00|-:
0100|00|-:
0000|00|-:
0000|00|-:
0000|00|-:
--
1000|00|-C
0000|00|-:
0010|00|-:
0000|00|-:
0100|00|-:
0000|00|-:
0010|00|-:
0000|00|-:
0100|00|-:
0000|00|-:
0001|00|-:
0000|00|-:
0100|00|-:
0000|00|-:
0010|00|-:
0000|00|-:
--
0000|02|-o@(96
0000|00|-0
0000|00|--
0000|00|--
0000|00|--
0000|00|--
0000|00|--
0000|00|--
0000|00|--
0000|00|--
0000|00|--
0000|00|--
0000|00|--
0000|00|--
0000|00|--
0000|00|--
0000|00|--
0000|00|--
0000|00|--
0000|00|--
0000|00|--
0000|00|--
0000|00|--
0000|00|--
0000|00|--
0000|00|--
0000|00|--
0000|00|--
0000|00|--
0000|00|--
0000|00|--
0000|00|--
--
0011|00|0-
0000|00|:-
0000|00|:-
0000|00|:-
0000|00|:-
0000|00|:-
0110|00|:-
0000|00|:-
0000|00|b-
0000|00|:-
0000|00|:-
0000|00|:-
1100|00|:-
0000|00|:-
0000|00|:-
0000|00|:-
--
0000|20|6-
0000|00|:-
0000|00|:-
0000|00|:-
0000|00|:-
0000|00|:-
0000|02|:-
0000|00|:-
0000|00|i-
0000|00|:-
0000|00|:-
0000|00|:-
0000|20|:-
0000|00|:-
0000|00|:-
0000|00|:-
--
0100|00|C-
0000|00|:-
0000|00|:-
0000|00|:-
0010|00|:-
0000|00|:-
0001|00|:-
0000|00|:-
0010|00|:-
0000|00|:-
0100|00|:-
0000|00|:-
0000|00|:-
0000|00|:-
0010|00|:-
0000|00|:-
--
0000|20|o-@(96
0000|00|0-
0000|00|--
0000|00|--
0000|00|--
0000|00|--
0000|00|--
0000|00|--
0000|00|--
0000|00|--
0000|00|--
0000|00|--
0000|00|--
0000|00|--
0000|00|--
0000|00|--
0000|00|--
0000|00|--
0000|00|--
0000|00|--
0000|00|--
0000|00|--
0000|00|--
0000|00|--
0000|00|--
0000|00|--
0000|00|--
0000|00|--
0000|00|--
0000|00|--
0000|00|--
0000|00|--
--
1100|00|-o
0000|00|-:
0000|00|-:
0000|00|-:
0000|00|-:
0000|00|-:
0000|20|-:
0000|00|-:
0000|00|-C
0000|00|-:
1100|00|-:
0000|00|-:
0000|00|-:
0000|00|-:
0000|20|-:
0000|00|-:
--
0000|00|-o
0000|00|-:
0100|00|-:
0000|00|-:
0010|00|-:
0000|00|-:
0100|00|-:
0000|00|-:
1000|00|-0
0000|00|-:
0000|00|-:
0000|00|-:
0110|00|-:
0000|00|-:
0000|00|-:
0000|00|-:
--
0011|00|0:
0000|00|::
0000|00|::
0000|00|::
0000|02|::
0000|00|::
0011|00|::
0000|00|::
0000|00|b:
0000|00|::
0110|00|::
0000|00|::
0000|00|::
0000|00|::
0011|00|::
0000|00|::
--
0000|00|0:
0000|00|::
0010|00|::
0000|00|::
0100|00|::
0000|00|::
0010|00|::
0000|00|::
0000|20|o:
0000|00|::
0000|00|::
0000|00|::
0110|00|::
0000|00|::
0000|00|::
0000|00|::
--
1000|00|:0
0000|00|::
0000|00|::
0000|00|::
0100|00|:W
0000|00|::
0000|00|::
0000|00|::
0010|00|:i
0000|00|::
0000|00|::
0000|00|::
1000|00|:o
0000|00|::
0000|00|::
0000|00|::
0100|00|::
0000|00|::
0000|00|::
0000|00|:i
0010|00|::
0000|00|::
0000|00|::
0000|00|::
0100|00|:P
0000|00|::
0000|00|::
0000|00|::
0010|00|::
0000|00|::
0000|00|::
0000|00|::
--
0001|00|o:
0000|00|::
0000|00|::
0000|00|::
0010|00|J:
0000|00|::
0000|00|::
0000|00|::
0100|00|6:
0000|00|::
0000|00|::
0000|00|::
0010|00|0:
0000|00|::
0000|00|::
0000|00|::
0001|00|::
0000|00|::
0000|00|::
0000|00|6:
0010|00|::
0000|00|::
0000|00|::
0000|00|::
0000|00|P:
0000|00|::
0000|00|::
0000|00|::
1100|02|::
0000|00|::
0000|00|::
0000|00|::
--
0000|00|::
0000|00|::
0011|20|::
0000|00|::
0011|20|::
0000|00|::
0011|20|::
0000|00|::
1100|02|::
0000|00|::
1100|02|::
0000|00|::
0000|00|::
0000|00|::
0011|20|::
0000|00|::
--
0000|00|PP
0000|00|::
0000|00|::
0000|00|::
0000|00|i6
0000|00|::
0000|00|::
0000|00|::
0000|00|::
0000|00|::
0000|00|::
0000|00|::
0000|00|o0
0000|00|::
0000|00|::
0000|00|::
0000|00|o0
0000|00|::
0000|00|Cb
0000|00|::
0000|00|::
0000|00|0o
0000|00|::
0000|00|::
0000|00|0o
0000|00|o0
0000|00|--
0000|00|--
0000|00|--
0000|00|--
0000|00|--
0000|00|--
--
0002|20|--
0002|00|--
0002|00|--
0002|00|--
0002|20|--
0002|00|--
0110|00|--
0000|00|--
0000|20|--
0000|00|--
0011|00|--
0000|00|--
0000|20|--
0000|00|--
0110|00|--
0000|00|--
--
0000|20|--
0000|00|--
0100|00|--
0000|00|--
0001|20|--
0000|00|--
0010|00|--
0000|00|--
0001|20|--
0000|00|--
0000|00|--
0000|00|--
0001|I0|--
0010|I0|--
0100|I0|--
1000|I0|--
--
0100|02|--
0000|00|--
0010|00|--
0000|00|--
0100|02|--
0000|00|--
1000|00|--
0000|00|--
0000|02|--
0000|00|--
0110|00|--
0000|00|--
0000|02|--
0000|00|--
0000|I0|--
0000|I0|--
--
0000|I2|--
0000|I0|--
1000|00|--
0000|00|--
0100|02|--
0000|00|--
0010|00|--
0000|00|--
1100|02|--
0000|00|--
0000|00|--
0000|00|-- fx-r_param1=30
0000|2A|--
0000|0A|--
0000|0A|--
0000|0A|--
--
0011|00|0-
0000|00|o-
0000|00|:-
0000|00|:-
0110|00|:-
0000|00|:-
0000|00|:-
0000|00|:-
1100|00|:-
0000|00|:-
0000|00|:-
0000|00|:-
0011|00|o-
0000|00|0-
0000|00|:-
0000|00|:-
0110|00|:-
0000|00|:-
0000|00|:-
0000|00|:-
1100|00|:-
0000|00|:-
0000|00|:-
0000|00|:-
0011|00|0-
0000|00|o-
0000|00|--
0000|00|--
0000|00|--
0000|00|--
0000|00|--
0000|00|--
--
1100|00|-o
0000|00|-0
0000|00|-:
0000|00|-:
0110|00|-:
0000|00|-:
0000|00|-:
0000|00|-:
0011|00|-:
0000|00|-:
0000|00|-:
0000|00|-:
1100|00|-0
0000|00|-o
0000|00|-:
0000|00|-:
0110|00|-:
0000|00|-:
0000|00|-:
0000|00|-:
0011|00|-:
0000|00|-:
0000|00|-:
0000|00|-:
1100|00|-o
0000|00|-0
0000|00|-:
0000|00|-:
0000|00|-:
0000|00|-:
0000|00|-:
0000|00|-:
--
0000|22|-:
0000|00|-:
0000|00|-:
0000|00|-:
0000|00|0:
0000|00|o:
0000|00|-:
0000|00|-:
0000|22|-:
0000|00|-:
0000|00|-:
0000|00|-:
0000|00|0:
0000|00|o:
0000|00|-:
0000|00|-:
0000|22|-:
0000|00|-:
0000|00|-:
0000|00|-:
0000|00|0:
0000|00|o:
0000|00|-:
0000|00|-:
0000|22|-:
0000|00|-:
0000|00|-:
0000|00|-:
0000|00|0:
0000|00|o:
0000|00|-:
0000|00|-:
--
0000|22|-:
0000|00|-:
0000|00|-:
0000|00|-:
0110|00|0:
0000|00|o:
0000|00|::
0000|00|::
0000|00|::
0000|00|::
0000|00|::
0000|00|::
0110|00|o:
0000|00|0:
0000|00|-:
0000|00|-:
0000|00|-:
0000|00|-:
0000|00|-:
0000|00|-:
0110|00|-0
0000|00|-o
0000|00|-:
0000|00|-:
0000|FF|-o
0000|FF|-0
0000|FF|--
0000|FF|--
0000|FF|--
0000|FF|--
0000|FF|--
0000|FF|--
--
0020|00|--
0020|00|--
0020|00|--
0020|00|--
0000|20|--
0000|00|--
0110|00|--
0000|00|--
0000|20|--
0000|00|--
0101|00|--
0000|00|--
0000|20|--
0000|00|--
0110|00|--
0000|00|--
--
0000|20|--
0000|00|--
0010|00|--
0000|00|--
0001|20|--
0000|00|--
0010|00|--
0000|00|--
1000|0T|--
0100|0T|--
1000|0T|--
0100|0T|--
1001|00|--
0000|00|--
0000|00|--
0000|00|--
--
0110|00|--
0000|00|--
1001|00|--
0000|00|--
0100|I0|--
0010|I0|--
0100|I0|--
0010|I0|--
0100|00|--
0000|00|--
0011|00|--
0000|00|--
0000|20|--
0000|00|--
0000|0I|--
0010|0I|--
--
0001|20|--
0000|00|--
0000|0I|--
0010|0I|--
0001|20|--
0000|00|--
0000|0I|--
0010|0I|--
0001|X0|--
1000|X0|--
0100|X0|--
0010|X0|--
0001|X0|--
0010|X0|--
0100|X0|--
1000|X0|--
--
0010|00|--
0000|00|--
0000|00|--
0000|00|--
0010|00|--
0000|00|--
0100|00|--
0000|00|--
0010|00|0-
0000|00|o-
0000|00|--
0000|00|--
0000|00|--
0000|00|--
0000|00|--
0000|00|--
0000|20|--
0000|00|--
0000|00|--
0000|00|--
0000|20|--
0000|00|--
0000|02|--
0000|00|--
0000|20|-o
0000|00|-0
0000|00|--
0000|00|--
0100|00|--
0000|00|--
0000|00|--
0000|00|--
--
0011|00|--
0000|00|--
1000|00|--
0100|00|--
0010|00|--
1000|00|--
0100|00|--
0010|00|--
0001|00|--
0010|00|--
0100|00|--
1000|00|--
0001|00|--
0010|00|--
0100|00|--
1000|00|--
--
beat=7/8
0000|20|-o
0000|00|-0
0000|00|-:
0000|00|-:
0000|20|-0
0000|00|-o
0000|00|-:
0000|00|-:
0000|20|-o
0000|00|-0
0000|00|--
0000|00|--
0000|00|--
0000|00|--
0000|00|--
0000|00|--
0100|02|--
0000|00|--
0000|00|--
0000|00|--
0100|02|--
0000|00|--
0010|00|--
0000|00|--
0100|02|--
0000|00|--
0000|00|--
0000|00|--
--
beat=4/4
0100|02|--
0000|00|--
0000|00|--
0000|00|--
0000|00|--
0000|00|--
0001|20|--
0000|00|--
0000|00|--
0000|00|--
0000|00|--
0000|00|--
1000|02|--
0000|00|--
0000|00|--
0000|00|--
0010|00|0-
0000|00|o-
0000|00|:-
0000|00|:-
0001|00|o-
0000|00|0-
0000|00|:-
0000|00|:-
0010|00|0-
0000|00|o-
0000|00|:-
0000|00|:-
0001|00|o-
0000|00|0-
0000|00|:-
0000|00|:-
--
0010|00|0-
0000|00|o-
0000|00|--
0000|00|--
0001|00|--
0000|00|--
0000|00|--
0000|00|--
0010|00|--
0000|00|--
0000|00|--
0000|00|--
0100|00|0-
0000|00|o-
0000|00|--
0000|00|--
0000|00|--
0000|00|--
0000|00|--
0000|00|--
0010|00|--
0000|00|--
0000|00|--
0000|00|--
0000|20|0-
0000|00|o-
0000|00|--
0000|00|--
0000|00|--
0000|00|--
0000|00|--
0000|00|--
--
0000|00|--
0000|00|--
1000|02|--
0000|00|--
0100|00|--
0000|00|--
2000|00|--
2000|00|--
2000|02|--
2000|00|--
0200|00|--
0200|00|--
0200|02|--
0200|00|--
0010|00|--
0000|00|--
--
0100|00|-o
0000|00|-0
0000|00|--
0000|00|--
1000|00|--
0000|00|--
0000|00|--
0000|00|--
0100|00|--
0000|00|--
0000|00|--
0000|00|--
0010|00|-o
0000|00|-0
0000|00|--
0000|00|--
0000|00|--
0000|00|--
0000|00|--
0000|00|--
0100|00|--
0000|00|--
0000|00|--
0000|00|--
0000|02|-o
0000|00|-0
0000|00|--
0000|00|--
0000|00|--
0000|00|--
0000|00|--
0000|00|--
--
0000|00|--
0000|00|--
0010|20|--
0000|00|--
0000|00|--
0000|00|--
0100|02|--
0000|00|--
0000|00|--
0000|00|--
0010|20|--
0000|00|--
1000|00|--
0000|00|--
0100|00|--
0000|00|--
--
0010|00|0-
0000|00|o-
0000|00|--
0000|00|--
0001|00|--
0000|00|--
0000|00|--
0000|00|--
0010|00|--
0000|00|--
0000|00|--
0000|00|--
0100|00|0-
0000|00|o-
0000|00|--
0000|00|--
0000|00|--
0000|00|--
0000|00|--
0000|00|--
0010|00|--
0000|00|--
0000|00|--
0000|00|--
tilt=biggest
0000|20|0-
0000|00|o-
0000|00|:-
0000|00|:-
0000|00|:-
0000|00|:-
0000|00|:-
0000|00|:-
--
0001|II|:-
1000|II|:-
0100|II|:-
0010|II|:-
0001|II|:-
1000|II|:-
0100|II|:-
0010|II|:-
0001|II|:-
1000|II|:-
0100|II|:-
0010|II|:-
0001|00|:-
0000|00|:-
0000|00|:-
0000|00|:-
--
tilt=normal
0101|00|o-
0000|00|:-
0000|00|:-
0000|00|:-
1010|00|:-
0000|00|:-
0101|00|:-
0000|00|:-
0000|00|:-
0000|00|:-
0110|00|:-
0000|00|:-
0000|00|:-
0000|00|:-
0000|XX|0-
0000|XX|:-
--
0000|XX|:-
0000|XX|:-
0000|XX|:-
0000|XX|:-
0000|XX|:-
0000|XX|:-
0000|XX|:-
0000|XX|:-
0000|XX|:-
0000|XX|:-
0000|XX|:-
0000|XX|:-
0000|XX|:-
0000|XX|:-
0000|XX|:-
0000|XX|:-
0110|00|o-
0000|00|0-
0000|00|:-
0000|00|:-
0110|00|0-
0000|00|o-
0000|00|--
0000|00|--
0000|00|--
0000|00|--
0000|00|--
0000|00|--
0000|00|--
0000|00|--
0000|00|--
0000|00|--
--
0000|00|--
0000|00|--
0000|00|--
0000|00|--
0000|00|--
0000|00|--
0000|00|--
0000|00|--
0000|00|--
0000|00|--
0000|00|--
0000|00|--
0000|00|--
0000|00|--
0000|00|--
0000|00|--
--
0000|00|--
0000|00|--
0000|00|--
0000|00|--
0000|00|--
0000|00|--
0000|00|--
0000|00|--
0000|00|--
0000|00|--
0000|00|--
0000|00|--
0000|00|--
0000|00|--
0000|00|--
0000|00|--
--
0000|00|--
0000|00|--
0000|00|--
0000|00|--
0000|00|--
0000|00|--
0000|00|--
0000|00|--
0000|00|--
0000|00|--
0000|00|--
0000|00|--
0000|00|--
0000|00|--
0000|00|--
0000|00|--
--
