q=0
title=�C�O�W�X�^���X
artist=�X�Y��
effect=TEK-A-RHYTHM
jacket=n_ja.jpg
illustrator=������
difficulty=light
level=5
t=200
m=n.mp3;n.mp3
o=615
bg=bg03
layer=layer03
icon=../icon03.png
po=0
plength=15000
pfiltergain=0
filtertype=peak
chokkakuvol=0
pfilterdelay=0
ver=140d
--
beat=4/4
t=200
laserrange_r=1x
0000|00|-m
--
0000|00|-:
0000|00|-2
--
1000|00|--
1000|00|--
1000|00|--
1000|00|--
--
0000|01|--
0000|00|--
0000|10|--
0000|00|--
--
0001|00|--
0001|00|--
0001|00|--
0001|00|--
--
laserrange_l=1x
0000|00|2-
0000|00|:-
0000|00|:-
0000|00|:-
0000|00|:-
0000|00|:-
0000|00|:-
0000|00|:-
0000|00|:-
0000|00|:-
0000|00|:-
0000|00|:-
0000|00|:-
0000|00|:-
0000|00|:-
0000|00|:-
0000|00|:-
0000|00|:-
0000|00|:-
0000|00|:-
0000|00|:-
0000|00|:-
0000|00|:-
0000|00|:-
0000|00|m-
0000|00|2-
0000|00|--
0000|00|--
0000|00|--
0000|00|--
0000|00|--
0000|00|--
--
0010|00|--
0010|00|--
0010|00|--
0010|00|--
--
0000|10|--
0000|00|--
0000|01|--
0000|00|--
--
0100|00|--
0100|00|--
0100|00|--
0100|00|--
--
laserrange_r=1x
0000|00|-m
--
0000|00|-2
0000|00|-m
0000|00|--
0000|00|--
0000|00|--
0000|00|--
0000|00|--
0000|00|--
0000|00|--
0000|00|--
0000|00|--
0000|00|--
0000|00|--
0000|00|--
0000|00|--
0000|00|--
0000|00|--
0000|00|--
0000|00|--
0000|00|--
0000|00|--
0000|00|--
0000|00|--
0000|00|--
0000|00|--
0000|00|--
0000|00|--
0000|00|--
0000|00|--
0000|00|--
0000|00|--
0000|00|--
--
1000|00|--
1000|00|--
0010|00|--
0010|00|--
--
0000|10|--
0000|00|--
--
0001|00|--
0001|00|--
0100|00|--
0100|00|--
--
0000|01|--
0000|00|--
--
1000|00|--
1000|00|--
0010|00|--
0010|00|--
--
0000|10|--
0000|00|--
--
0001|00|--
0001|00|--
0001|00|--
0001|00|--
--
0000|20|--
0000|02|--
--
1000|00|--
1000|00|--
1000|00|--
1000|00|--
--
laserrange_r=1x
0000|00|-m
0000|00|-:
0000|00|-2
0000|00|-l
--
0000|10|--
0000|00|--
0000|01|--
0000|00|--
--
laserrange_l=1x
0000|00|2-
0000|00|:-
0000|00|m-
0000|00|2-
--
0001|00|--
0001|00|--
1000|00|--
1000|00|--
--
laserrange_r=1x
0000|00|-m
0000|00|-:
0000|00|-2
0000|00|-l
--
0000|10|--
0000|00|--
0000|01|--
0000|00|--
--
0000|10|--
0000|00|--
laserrange_r=1x
0000|00|-m
0000|00|-:
--
0000|00|-2
0000|00|-m
0000|00|--
0000|00|--
0000|00|--
0000|00|--
0000|00|--
0000|00|--
0000|00|--
0000|00|--
0000|00|--
0000|00|--
0000|00|--
0000|00|--
0000|00|--
0000|00|--
laserrange_l=1x
0000|00|2-
0000|00|:-
0000|00|:-
0000|00|:-
0000|00|:-
0000|00|:-
0000|00|:-
0000|00|:-
0000|00|:-
0000|00|:-
0000|00|:-
0000|00|:-
0000|00|:-
0000|00|:-
0000|00|:-
0000|00|:-
--
0000|00|m-
0000|00|2-
0000|00|--
0000|00|--
0000|00|--
0000|00|--
0000|00|--
0000|00|--
0000|00|--
0000|00|--
0000|00|--
0000|00|--
0000|00|--
0000|00|--
0000|00|--
0000|00|--
laserrange_r=1x
0000|00|-m
0000|00|-:
0000|00|-:
0000|00|-:
0000|00|-:
0000|00|-:
0000|00|-:
0000|00|-:
0000|00|-:
0000|00|-:
0000|00|-:
0000|00|-:
0000|00|-:
0000|00|-:
0000|00|-:
0000|00|-:
--
0000|00|-2
0000|00|-m
--
0000|00|-2
0000|00|-:
0000|00|-:
0000|00|-l
--
laserrange_l=1x
0000|00|2-
0000|00|m-
--
0000|00|2-
0000|00|:-
0000|00|:-
0000|00|l-
--
0000|01|--
0000|01|--
0000|10|--
0000|01|--
--
0000|10|--
0000|00|--
--
0001|00|--
0001|00|--
0010|00|--
0010|00|--
--
0100|00|--
0000|00|--
0100|00|--
0000|00|--
0100|00|--
0000|00|--
0000|00|--
0000|01|--
--
0000|01|--
0000|01|--
1000|00|--
0000|00|--
1000|00|--
0000|00|--
0000|00|--
0000|01|--
--
0000|01|--
0100|00|--
0100|00|--
0000|00|--
--
0000|20|--
0000|20|--
0000|02|--
0000|02|--
--
0000|10|--
0000|10|--
0000|10|--
0000|10|--
0000|00|--
0000|00|--
0001|00|--
0002|00|--
--
0002|00|--
0002|00|--
0002|00|--
0000|00|--
--
laserrange_l=1x
0000|00|2-
--
0000|00|m-
0000|00|:-
0000|00|:-
0000|00|:-
0000|00|:-
0000|00|:-
0000|00|:-
0000|00|:-
0000|00|m-
0000|00|2-
0000|00|--
0000|00|--
0000|00|--
0000|00|--
0000|00|--
0000|00|--
0010|00|--
0000|00|--
0000|00|--
0000|00|--
0000|00|--
0000|00|--
0000|00|--
0000|00|--
0010|00|--
0000|00|--
0000|00|--
0000|00|--
0000|00|--
0000|00|--
0000|00|--
0000|00|--
--
0100|00|--
0000|00|--
0100|00|--
0000|00|--
0100|00|--
0000|00|--
0000|00|--
0000|01|--
--
0000|01|--
0000|01|--
1000|00|--
0000|00|--
1000|00|--
0000|00|--
0000|00|--
0000|01|--
--
0000|01|--
0100|00|--
0100|00|--
0000|00|--
--
laserrange_r=1x
0000|00|-m
0000|00|-:
0000|00|-2
0000|00|-l
--
laserrange_l=1x
0000|00|2-
0000|00|:-
0000|00|m-
0000|00|2-
--
0000|01|--
0000|01|--
0000|10|--
0000|10|--
0000|01|--
0000|01|--
0000|01|--
0000|00|--
--
0000|00|--
0000|10|--
--
0000|00|--
laserrange_r=1x
0000|00|-m
--
0000|00|-2
0000|00|-m
--
0000|00|-2
0000|00|-l
laserrange_l=1x
0000|00|2-
0000|00|:-
--
0000|00|m-
0000|00|2-
--
0000|00|m-
0000|00|2-
laserrange_r=1x
0000|00|-m
0000|00|-:
--
0000|00|-2
0000|00|-l
laserrange_l=1x
0000|00|2-
0000|00|:-
--
0000|00|m-
0000|00|2-
laserrange_r=1x
0000|00|-m
0000|00|-:
--
0000|00|-2
0000|00|-m
0000|00|--
0000|00|--
0000|00|--
0000|00|--
0000|00|--
0000|00|--
0000|00|--
0000|00|--
0000|00|--
0000|00|--
0000|00|--
0000|00|--
0000|00|--
0000|00|--
0000|00|--
0000|00|--
0000|00|--
0000|00|--
0000|00|--
0000|00|--
0000|00|--
0000|00|--
0000|00|--
0000|00|--
0000|00|--
0000|00|--
0000|00|--
0000|00|--
0000|00|--
0000|00|--
--
laserrange_l=1x
0000|00|2-
--
0000|00|m-
0000|00|:-
0000|00|:-
0000|00|:-
0000|00|:-
0000|00|:-
0000|00|:-
0000|00|:-
0000|00|m-
0000|00|2-
0000|00|--
0000|00|--
0000|00|--
0000|00|--
0000|00|--
0000|00|--
0010|00|--
0000|00|--
0000|00|--
0000|00|--
0000|00|--
0000|00|--
0000|00|--
0000|00|--
0010|00|--
0000|00|--
0000|00|--
0000|00|--
0000|00|--
0000|00|--
0000|00|--
0000|00|--
--
0100|00|--
0000|00|--
0100|00|--
0000|00|--
0100|00|--
0000|00|--
0000|00|--
0000|01|--
--
0000|01|--
0000|01|--
1000|00|--
0000|00|--
1000|00|--
0000|00|--
0000|00|--
0000|01|--
--
0000|01|--
0100|00|--
0100|00|--
0000|00|--
--
0000|02|--
0000|02|--
0000|20|--
0000|20|--
--
0000|01|--
0000|01|--
0000|01|--
0000|01|--
0000|00|--
0000|00|--
1000|00|--
2000|00|--
--
2000|00|--
2000|00|--
2000|00|--
0000|00|--
--
laserrange_r=1x
0000|00|-m
--
0000|00|-2
0000|00|-:
0000|00|-:
0000|00|-:
0000|00|-:
0000|00|-:
0000|00|-:
0000|00|-:
0000|00|-2
0000|00|-m
0000|00|--
0000|00|--
0000|00|--
0000|00|--
0000|00|--
0000|00|--
0100|00|--
0000|00|--
0000|00|--
0000|00|--
0000|00|--
0000|00|--
0000|00|--
0000|00|--
0100|00|--
0000|00|--
0000|00|--
0000|00|--
0000|00|--
0000|00|--
0000|00|--
0000|00|--
--
0010|00|--
0000|00|--
0010|00|--
0000|00|--
0010|00|--
0000|00|--
0000|00|--
0000|10|--
--
0000|10|--
0000|10|--
0001|00|--
0000|00|--
0001|00|--
0000|00|--
0000|00|--
0000|10|--
--
0000|10|--
0010|00|--
0010|00|--
0000|00|--
--
laserrange_l=1x
0000|00|2-
0000|00|:-
0000|00|m-
0000|00|2-
--
laserrange_r=1x
0000|00|-m
0000|00|-:
0000|00|-2
0000|00|-l
--
0000|10|--
0000|10|--
0000|01|--
0000|01|--
0000|10|--
0000|10|--
0000|10|--
0000|00|--
--
0000|00|--
laserrange_r=1x
0000|00|-m
--
0000|00|-2
0000|00|-m
--
0000|00|-2
0000|00|-m
--
1000|00|--
1000|00|--
0001|00|--
0001|00|--
--
0100|00|--
0100|00|--
0010|00|--
0010|00|--
--
1000|00|--
1000|00|--
0001|00|--
0001|00|--
--
laserrange_l=1x
0000|00|2-
0000|00|:-
0000|00|:-
0000|00|:-
0000|00|:-
0000|00|:-
0000|00|:-
0000|00|:-
0000|00|:-
0000|00|:-
0000|00|:-
0000|00|:-
0000|00|:-
0000|00|:-
0000|00|:-
0000|00|:-
0000|00|:-
0000|00|:-
0000|00|:-
0000|00|:-
0000|00|:-
0000|00|:-
0000|00|:-
0000|00|:-
0000|00|m-
0000|00|2-
0000|00|--
0000|00|--
0000|00|--
0000|00|--
0000|00|--
0000|00|--
--
0000|01|--
0000|00|--
0000|10|--
0000|00|--
--
0010|00|--
0100|00|--
0010|00|--
0100|00|--
--
0000|01|--
0000|00|--
0000|10|--
0000|00|--
--
laserrange_r=1x
0000|00|-m
--
0000|00|-2
0000|00|-:
0000|00|-:
0000|00|-:
0000|00|-:
0000|00|-:
0000|00|-:
0000|00|-:
0000|00|-2
0000|00|-m
0000|00|--
0000|00|--
0000|00|--
0000|00|--
0000|00|--
0000|00|--
1000|00|--
0000|00|--
0000|00|--
0000|00|--
0000|00|--
0000|00|--
0000|00|--
0000|00|--
1000|00|--
0000|00|--
0000|00|--
0000|00|--
0000|00|--
0000|00|--
0000|00|--
0000|00|--
--
0100|00|--
0100|00|--
0010|00|--
0010|00|--
--
0000|10|--
0000|02|--
0000|10|--
0000|02|--
--
0000|10|--
0000|01|--
0000|10|--
0000|00|--
--
0001|00|--
0001|00|--
0010|00|--
0010|00|--
--
laserrange_l=1x
0000|00|2-
0000|00|:-
0000|00|m-
0000|00|2-
--
0010|00|--
0010|00|--
0100|00|--
0100|00|--
--
laserrange_r=1x
0000|00|-m
--
0000|00|-2
0000|10|-:
--
0001|00|-:
0000|00|-:
0000|00|-:
1000|00|-:
0000|00|-:
0000|00|-:
0001|00|-:
0000|00|-:
--
laserrange_l=1x
0000|00|2:
0000|00|m:
0000|00|::
0000|00|::
0000|00|::
0000|00|::
0000|00|::
0000|00|::
0000|00|::
0000|00|::
0000|00|::
0000|00|::
0000|00|m:
0000|00|2:
0000|00|::
0000|00|::
0000|00|::
0000|00|::
0000|00|::
0000|00|::
0000|00|::
0000|00|::
0000|00|::
0000|00|::
0000|00|::
0000|00|::
0000|00|::
0000|00|::
0000|00|::
0000|00|::
0000|00|::
0000|00|::
--
0000|00|::
--
