title=Everlasting Message
artist=ぺのれり
effect=PHQUASE forever
jacket=nov.png
illustrator=眠れる帝国の王女レイシス♥蒼弐 forever
difficulty=light
level=7
t=230
m=nofx160.wav;nofx160.wav
o=0
bg=cyber
layer=hidden
po=0
plength=15000
pfiltergain=50
filtertype=peak
chokkakuautovol=0
chokkakuvol=50
ver=160
--
beat=4/4
t=230
zoom_top=-30
zoom_bottom=15
0000|00|--
--
0000|00|--
0000|00|--
filtertype=fx;bitc
0000|00|0-
0000|00|:-
0000|00|:-
0000|00|:-
0000|00|:-
0000|00|:-
--
beat=6/4
0000|00|o-
0000|00|--
filtertype=peak
0000|00|--
0000|00|--
0000|00|--
0000|00|--
0000|00|--
0000|00|--
0001|00|--
0000|00|--
0000|00|--
0000|00|--
0000|00|--
0000|00|--
0000|00|--
0000|00|--
0010|00|--
0000|00|--
0000|00|--
0000|00|--
0000|00|--
0000|00|--
0000|00|--
0000|00|--
0100|00|--
0000|00|--
0000|00|--
0000|00|--
0000|00|--
0000|00|--
0000|00|--
0000|00|--
1000|00|--
0000|00|--
0000|00|--
0000|00|--
0000|00|--
0000|00|--
0000|00|--
0000|00|--
0100|00|--
0000|00|--
0000|00|--
0000|00|--
0000|00|--
0000|00|--
0000|00|--
0000|00|--
--
beat=7/4
fx-r=Flanger
0000|01|--
0000|01|--
0000|01|--
0000|01|--
0000|01|--
0000|01|--
0000|20|--
0000|00|--
0000|02|--
0000|00|--
0000|20|--
0000|00|--
0000|02|--
0000|00|--
--
beat=4/4
fx-l=Wobble;12
0000|10|--
0000|10|--
0000|10|--
0000|10|--
0000|10|--
0000|10|--
fx-r=Flanger
0000|01|--
0000|01|--
--
0000|01|--
0000|01|--
0000|01|--
0000|01|--
0000|20|--
0000|00|--
0000|20|--
0000|00|--
--
0011|00|--
0000|00|--
0000|00|--
0011|00|--
0000|00|--
0000|00|--
1100|00|--
0000|00|--
--
0000|00|--
0000|00|--
1100|00|--
0000|00|--
0000|00|--
0000|00|--
0000|00|--
0000|00|--
0000|00|-o
0000|00|-:
0000|00|-:
0000|00|-:
0000|00|-:
0000|00|-:
0000|00|-:
0000|00|-:
--
0000|00|-0
0000|00|-:
0000|00|-:
0000|00|-:
0000|00|-:
0000|00|-:
0000|00|-o
0000|00|--
--
0000|00|0-
0000|00|:-
--
0000|00|o-
0000|00|:-
filtertype=hpf1
0000|00|0-
0000|00|:-
--
0000|00|o-
0000|00|:-
0000|00|:-
0000|00|:-
0000|00|:-
0000|00|:-
0000|00|:-
0000|00|:-
0000|00|:-
0000|00|:-
0000|00|:-
0000|00|:-
0000|00|:-
0000|00|:-
0000|00|:-
0000|00|:-
0000|00|:-
0000|00|:-
0000|00|:-
0000|00|:-
0000|00|:-
0000|00|:-
0000|00|:-
0000|00|:-
0000|00|0-
0000|00|--
filtertype=peak
0000|00|--
0000|00|--
0000|00|--
0000|00|--
0000|00|--
0000|00|--
--
0000|00|-o
0000|00|-:
--
0000|00|-0
0000|00|-:
0000|00|-:
0000|00|-:
0000|00|-:
0000|00|-:
0000|00|-o
0000|00|--
--
1100|00|--
0000|00|--
0000|00|--
1100|00|--
0000|00|--
0000|00|--
0011|00|--
0000|00|--
--
0000|00|--
0000|00|--
0011|00|--
0000|00|--
0000|00|--
0000|00|--
0000|00|--
0000|00|--
filtertype=hpf1
0000|00|0-
0000|00|:-
0000|00|:-
0000|00|:-
0000|00|:-
0000|00|:-
0000|00|:-
0000|00|:-
--
0000|00|o-
0000|00|:-
0000|00|:-
0000|00|:-
0000|00|:-
0000|00|:-
0000|00|:-
0000|00|:-
0000|00|:-
0000|00|:-
0000|00|:-
0000|00|:-
0000|00|:-
0000|00|:-
0000|00|:-
0000|00|:-
0000|00|:-
0000|00|:-
0000|00|:-
0000|00|:-
0000|00|:-
0000|00|:-
0000|00|:-
0000|00|:-
0000|00|0-
0000|00|--
filtertype=peak
0000|00|--
0000|00|--
0000|00|--
0000|00|--
0000|00|--
0000|00|--
--
fx-r=Gate;8
0000|01|--
0000|01|--
0000|00|--
0000|00|--
fx-l=Gate;8
0000|10|--
0000|10|--
0000|00|--
0000|00|--
--
0010|00|--
0010|00|--
--
fx-l=Gate;8
0000|10|--
0000|10|--
0000|00|--
0000|00|--
fx-r=Gate;8
0000|01|--
0000|01|--
0000|00|--
0000|00|--
--
1100|00|--
0000|00|--
0000|00|--
1100|00|--
0000|00|--
0000|00|--
0011|00|--
0000|00|--
--
0000|00|--
0011|00|--
0000|00|--
0000|00|--
1100|00|--
0000|00|--
1100|00|--
0000|00|--
--
0000|00|--
0000|00|--
fx-l=Gate;12
0000|10|--
0000|10|--
--
fx-r=Retrigger;12
0000|01|--
0000|01|--
zoom_bottom=15
fx-l=Flanger
0000|11|--
0000|11|--
--
0000|00|--
0000|00|--
zoom_bottom=127
0000|00|--
0000|00|--
--
0000|00|--
--
zoom_bottom=127
0000|00|0o
0000|00|::
--
0000|00|::
0000|00|::
zoom_bottom=15
0000|00|o0
0000|00|-:
--
filtertype=hpf1
0000|00|-0
0000|00|-:
0000|00|-o
0000|00|-:
--
0000|00|-0
0000|00|-:
0000|00|-:
0000|00|-:
0000|00|-:
0000|00|-:
0000|00|-:
0000|00|-:
0000|00|-:
0000|00|-:
0000|00|-:
0000|00|-:
0000|00|-:
0000|00|-:
0000|00|-:
0000|00|-:
0000|00|-:
0000|00|-:
0000|00|-:
0000|00|-:
0000|00|-:
0000|00|-:
0000|00|-:
0000|00|-:
0000|00|-o
0000|00|--
filtertype=peak
0000|00|--
0000|00|--
0000|00|--
0000|00|--
0000|00|--
0000|00|--
--
filtertype=lpf1
0000|00|0-
0000|00|:-
0000|00|o-
0000|00|:-
--
filtertype=peak
0000|00|0-
0000|00|:-
0000|00|o-
0000|00|--
--
0011|00|--
0000|00|--
1000|00|--
0100|00|--
--
0010|00|--
0011|00|--
--
1100|00|--
0000|00|--
0010|00|--
0100|00|--
--
1000|00|--
0011|00|--
--
0000|20|--
0000|00|--
0000|00|--
0000|02|--
0000|00|--
0000|00|--
0000|20|--
0000|00|--
--
fx-r=Gate;8
0000|01|--
0000|01|--
fx-l=Gate;12
0000|10|--
0000|10|--
--
0000|02|--
0000|00|--
0000|00|--
0000|00|--
0000|00|--
0000|00|--
0000|20|--
0000|00|--
0000|00|--
0000|00|--
0000|00|--
0000|00|--
0000|02|--
0000|00|--
0000|00|--
0000|00|--
--
0000|00|--
0000|00|--
0000|20|--
0000|00|--
0000|00|--
0000|00|--
0000|00|--
0000|00|--
fx-r=Retrigger;12
0000|01|--
0000|01|--
0000|01|--
0000|01|--
0000|00|--
0000|00|--
0000|00|--
0000|00|--
--
1001|00|--
0000|00|--
0000|00|--
1001|00|--
0000|00|--
0000|00|--
1001|00|--
1001|00|--
--
0000|00|--
--
zoom_top=-30
zoom_bottom=15
laserrange_r=2x
0000|00|-b
0000|00|-:
--
zoom_top=-75
zoom_bottom=-60
0000|00|-6
0000|00|-:
0000|00|-b
0000|00|-:
--
fx-l=Gate;8
0000|10|-6
0000|10|-:
--
0000|00|-i
0000|00|-:
0000|00|-6
0000|00|--
0000|00|--
0000|00|--
0000|00|--
0000|00|--
0000|00|--
0000|00|--
0000|00|--
0000|00|--
0000|00|--
0000|00|--
0000|00|--
0000|00|--
0000|00|--
0000|00|--
0000|00|--
0000|00|--
0000|00|--
0000|00|--
0000|00|--
0000|00|--
0000|00|--
0000|00|--
0000|00|--
0000|00|--
0000|00|--
0000|00|--
0000|00|--
0000|00|--
laserrange_l=2x
0000|00|6-
0000|00|:-
0000|00|i-
0000|00|--
0000|00|--
0000|00|--
0000|00|--
0000|00|--
0000|00|--
0000|00|--
0000|00|--
0000|00|--
0000|00|--
0000|00|--
0000|00|--
0000|00|--
0000|00|--
0000|00|--
0000|00|--
0000|00|--
0000|00|--
0000|00|--
0000|00|--
0000|00|--
0000|00|--
0000|00|--
0000|00|--
0000|00|--
0000|00|--
0000|00|--
0000|00|--
0000|00|--
--
0001|00|--
0000|00|--
0000|00|--
0000|00|--
0000|00|--
0000|00|--
0002|00|--
0002|00|--
0002|00|--
0002|00|--
0002|00|--
0002|00|--
0000|00|--
0000|00|--
0000|00|--
0000|00|--
--
1000|00|--
0000|00|--
0000|00|--
0000|00|--
0000|00|--
0000|00|--
2000|00|--
2000|00|--
2000|00|--
2000|00|--
2000|00|--
2000|00|--
0000|00|--
0000|00|--
0000|00|--
0000|00|--
--
0010|00|--
0000|00|--
0000|00|--
0100|00|--
0100|00|--
0000|00|--
0000|00|--
0010|00|--
--
0010|00|--
0000|00|--
0000|00|--
0001|00|--
0001|00|--
0000|00|--
0000|00|--
0000|00|--
--
laserrange_l=2x
0000|00|C-
0000|00|:-
--
0000|00|i-
0000|00|:-
0000|00|C-
0000|00|:-
--
fx-r=Wobble;12
0000|01|i-
0000|01|:-
--
0000|00|6-
0000|00|:-
0000|00|i-
0000|00|--
0000|00|--
0000|00|--
0000|00|--
0000|00|--
0000|00|--
0000|00|--
0000|00|--
0000|00|--
0000|00|--
0000|00|--
0000|00|--
0000|00|--
0000|00|--
0000|00|--
0000|00|--
0000|00|--
0000|00|--
0000|00|--
0000|00|--
0000|00|--
0000|00|--
0000|00|--
0000|00|--
0000|00|--
0000|00|--
0000|00|--
0000|00|--
0000|00|--
laserrange_r=2x
0000|00|-i
0000|00|-:
0000|00|-6
0000|00|--
0000|00|--
0000|00|--
0000|00|--
0000|00|--
0000|00|--
0000|00|--
0000|00|--
0000|00|--
0000|00|--
0000|00|--
0000|00|--
0000|00|--
0000|00|--
0000|00|--
0000|00|--
0000|00|--
0000|00|--
0000|00|--
0000|00|--
0000|00|--
0000|00|--
0000|00|--
0000|00|--
0000|00|--
0000|00|--
0000|00|--
0000|00|--
0000|00|--
--
fx-l=Gate;8
0000|10|--
0000|10|--
fx-r=Gate;12
0000|01|--
0000|01|--
--
1000|00|--
0000|00|--
0010|00|--
0000|00|--
1000|00|--
0000|00|--
0010|00|--
0000|00|--
--
fx-l=Wobble;12
0000|10|--
0000|10|--
fx-r=Flanger
0000|01|--
0000|01|--
--
1100|00|--
0000|00|--
0011|00|--
0000|00|--
--
zoom_top=-75
zoom_bottom=-60
0000|00|0o
0000|00|::
--
0000|00|::
0000|00|::
zoom_top=-30
zoom_bottom=15
0000|00|o0
0000|00|:-
--
0000|00|o-
0000|00|:-
0000|00|0-
0000|00|:-
0000|00|:-
0000|00|:-
0000|00|:-
0000|00|:-
0000|00|:-
0000|00|:-
0000|00|:-
0000|00|:-
0000|00|:-
0000|00|:-
0000|00|:-
0000|00|:-
0000|00|:-
0000|00|:-
0000|00|:-
0000|00|:-
0000|00|:-
0000|00|:-
0000|00|:-
0000|00|:-
0000|00|0-
0000|00|:-
0000|00|o-
0000|00|:-
0000|00|:-
0000|00|:-
0000|00|:-
0000|00|:-
0000|00|:-
0000|00|:-
0000|00|:-
0000|00|:-
0000|00|:-
0000|00|:-
0000|00|:-
0000|00|:-
0000|00|:-
0000|00|:-
0000|00|:-
0000|00|:-
0000|00|:-
0000|00|:-
0000|00|:-
0000|00|:-
0000|00|o-
0000|00|:-
0000|00|0-
0000|00|:-
0000|00|:-
0000|00|:-
0000|00|:-
0000|00|:-
0000|00|:-
0000|00|:-
0000|00|:-
0000|00|:-
0000|00|:-
0000|00|:-
0000|00|:-
0000|00|:-
--
0000|00|:-
0000|00|:-
0000|00|:-
0000|00|:-
0000|00|:-
0000|00|:-
0000|00|:-
0000|00|:-
0000|00|0-
0000|00|:-
0000|00|o-
0000|00|--
0000|00|--
0000|00|--
0000|00|--
0000|00|--
0000|00|--
0000|00|--
0000|00|--
0000|00|--
0000|00|--
0000|00|--
0000|00|--
0000|00|--
0000|00|--
0000|00|--
0000|00|--
0000|00|--
0000|00|--
0000|00|--
0000|00|--
0000|00|--
0001|00|--
0000|00|--
0000|00|--
0000|00|--
0000|00|--
0000|00|--
0000|00|--
0000|00|--
0000|00|--
0000|00|--
0000|00|--
0000|00|--
0000|00|--
0000|00|--
0000|00|--
0000|00|--
0001|00|--
0000|00|--
0000|00|--
0000|00|--
0000|00|--
0000|00|--
0000|00|--
0000|00|--
0000|00|--
0000|00|--
0000|00|--
0000|00|--
0000|00|--
0000|00|--
0000|00|--
0000|00|--
--
fx-l=SideChain
0000|10|--
0000|10|--
--
0000|10|--
--
0000|00|--
0000|00|--
--
0000|22|--
0000|22|--
--
0001|00|--
0001|00|--
0010|00|--
0010|00|--
--
0100|00|--
0100|00|--
1000|00|--
1000|00|--
--
0100|00|--
0100|00|--
0010|00|--
0010|00|--
--
0001|00|--
0000|00|--
0001|00|--
0000|00|--
fx-l=Gate;12
0000|10|--
0000|10|--
0000|10|--
0000|10|--
--
fx-r=Gate;8
0000|01|--
0000|01|--
fx-l=Wobble;12
0000|10|--
0000|10|--
--
0000|02|--
0000|00|--
0000|02|--
0000|00|--
fx-l=Flanger
0000|10|--
0000|10|--
0000|10|--
0000|10|--
--
fx-r=BitCrusher;10
0000|01|--
0000|01|--
0000|01|--
0000|01|--
0000|20|--
0000|00|--
0000|20|--
0000|00|--
--
0000|02|--
0000|02|--
0000|02|--
0000|00|--
--
1100|00|--
0000|00|--
0000|00|--
0000|00|--
0000|00|--
0000|00|--
2200|00|--
2200|00|--
2200|00|--
2200|00|--
2200|00|--
2200|00|--
0000|00|--
0000|00|--
0000|00|--
0000|00|--
--
0001|00|--
0001|00|--
0010|00|--
0010|00|--
--
0100|00|--
0100|00|--
1000|00|--
1000|00|--
--
0001|00|--
0001|00|--
1000|00|--
1000|00|--
--
0011|00|--
0000|00|--
0000|00|--
0000|00|--
0000|00|--
0000|00|--
0022|00|--
0022|00|--
0022|00|--
0022|00|--
0022|00|--
0022|00|--
0000|00|--
0000|00|--
0000|00|--
0000|00|--
--
1000|00|--
1000|00|--
0100|00|--
0100|00|--
--
0000|02|--
0000|00|--
0000|00|--
0000|20|--
0000|00|--
0000|00|--
0000|02|--
0000|00|--
--
0000|00|--
0000|20|--
0000|00|--
0000|00|--
0000|02|--
0000|00|--
0000|02|--
0000|00|--
--
fx-l=Gate;8
0000|10|--
0000|10|--
zoom_bottom=15
fx-r=Gate;12
0000|11|--
0000|11|--
--
zoom_bottom=90
0000|00|--
0000|00|--
--
zoom_top=-30
zoom_bottom=90
laserrange_l=2x
0000|00|C-
0000|00|:-
--
zoom_top=-75
zoom_bottom=-60
0000|00|i-
0000|00|:-
0000|00|C-
0000|00|:-
--
fx-r=Gate;8
0000|01|i-
0000|01|:-
--
0000|00|6-
0000|00|:-
0000|00|i-
0000|00|--
0000|00|--
0000|00|--
0000|00|--
0000|00|--
0000|00|--
0000|00|--
0000|00|--
0000|00|--
0000|00|--
0000|00|--
0000|00|--
0000|00|--
0000|00|--
0000|00|--
0000|00|--
0000|00|--
0000|00|--
0000|00|--
0000|00|--
0000|00|--
0000|00|--
0000|00|--
0000|00|--
0000|00|--
0000|00|--
0000|00|--
0000|00|--
0000|00|--
laserrange_r=2x
0000|00|-i
0000|00|-:
0000|00|-6
0000|00|--
0000|00|--
0000|00|--
0000|00|--
0000|00|--
0000|00|--
0000|00|--
0000|00|--
0000|00|--
0000|00|--
0000|00|--
0000|00|--
0000|00|--
0000|00|--
0000|00|--
0000|00|--
0000|00|--
0000|00|--
0000|00|--
0000|00|--
0000|00|--
0000|00|--
0000|00|--
0000|00|--
0000|00|--
0000|00|--
0000|00|--
0000|00|--
0000|00|--
--
1000|00|--
0000|00|--
0000|00|--
0000|00|--
0000|00|--
0000|00|--
2000|00|--
2000|00|--
2000|00|--
2000|00|--
2000|00|--
2000|00|--
0000|00|--
0000|00|--
0000|00|--
0000|00|--
--
0001|00|--
0000|00|--
0000|00|--
0000|00|--
0000|00|--
0000|00|--
0002|00|--
0002|00|--
0002|00|--
0002|00|--
0002|00|--
0002|00|--
0000|00|--
0000|00|--
0000|00|--
0000|00|--
--
0100|00|--
0000|00|--
0000|00|--
0010|00|--
0010|00|--
0000|00|--
0000|00|--
0100|00|--
--
0100|00|--
0000|00|--
0000|00|--
1000|00|--
1000|00|--
0000|00|--
0000|00|--
0000|00|--
--
laserrange_r=2x
0000|00|-b
0000|00|-:
--
0000|00|-6
0000|00|-:
0000|00|-b
0000|00|-:
--
filtertype=hpf1
fx-l=BitCrusher;10
0000|10|-6
0000|10|-:
--
0000|00|-i
0000|00|-:
0000|00|-6
0000|00|--
filtertype=peak
0000|00|--
0000|00|--
0000|00|--
0000|00|--
0000|00|--
0000|00|--
0000|00|--
0000|00|--
0000|00|--
0000|00|--
0000|00|--
0000|00|--
0000|00|--
0000|00|--
0000|00|--
0000|00|--
0000|00|--
0000|00|--
0000|00|--
0000|00|--
0000|00|--
0000|00|--
0000|00|--
0000|00|--
0000|00|--
0000|00|--
0000|00|--
0000|00|--
laserrange_l=2x
0000|00|6-
0000|00|:-
0000|00|i-
0000|00|--
0000|00|--
0000|00|--
0000|00|--
0000|00|--
0000|00|--
0000|00|--
0000|00|--
0000|00|--
0000|00|--
0000|00|--
0000|00|--
0000|00|--
0000|00|--
0000|00|--
0000|00|--
0000|00|--
0000|00|--
0000|00|--
0000|00|--
0000|00|--
0000|00|--
0000|00|--
0000|00|--
0000|00|--
0000|00|--
0000|00|--
0000|00|--
0000|00|--
--
fx-r=Flanger
0000|01|--
0000|01|--
fx-l=Wobble;12
0000|10|--
0000|10|--
--
0001|00|--
0000|00|--
0001|00|--
0000|00|--
0100|00|--
0000|00|--
0100|00|--
0000|00|--
--
0010|00|--
0010|00|--
1000|00|--
1000|00|--
--
0002|00|--
0002|00|--
0000|00|--
0000|00|--
--
fx-l=Gate;8
0000|10|--
0000|10|--
fx-r=Gate;12
0000|01|--
0000|01|--
--
1000|00|--
0000|00|--
0010|00|--
0000|00|--
1000|00|--
0000|00|--
0010|00|--
0000|00|--
--
fx-l=Retrigger;8
0000|10|--
0000|10|--
fx-r=Retrigger;32
0000|01|--
0000|01|--
--
zoom_top=-75
zoom_bottom=-60
1100|00|--
0000|00|--
0011|00|--
0000|00|--
--
zoom_top=-30
zoom_bottom=15
0000|20|--
0000|00|--
0000|00|--
0000|20|--
0000|00|--
0000|00|--
0000|20|--
0000|00|--
--
0000|00|--
0000|20|--
0000|00|--
0000|00|--
0000|02|--
0000|00|--
0000|02|--
0000|00|--
--
1100|00|--
0000|00|--
0000|00|--
1100|00|--
0000|00|--
0000|00|--
1100|00|--
0000|00|--
--
0000|00|--
1100|00|--
0000|00|--
0000|00|--
0011|00|--
0000|00|--
0011|00|--
0000|00|--
--
filtertype=hpf1
0000|00|0-
0000|00|:-
--
0000|00|o-
0000|00|:-
--
filtertype=peak
zoom_bottom=15
0000|00|0o
0000|00|::
--
zoom_bottom=-60
0000|00|o0
0000|00|::
0000|00|::
0000|00|::
0000|00|::
0000|00|::
0000|00|::
0000|00|::
0000|00|::
0000|00|::
0000|00|::
0000|00|::
0000|00|::
0000|00|::
0000|00|0o
0000|00|--
--
