title=Enigma
artist=とろまる
effect=Megacycle
jacket=nov.jpg
illustrator=第四のセフィラ-Mysterieux Rouge†謎のぺぬ
difficulty=light
level=6
t=198
m=nov.mp3;nov.mp3
o=0
bg=desert
layer=arrow
po=0
plength=15000
pfiltergain=50
filtertype=peak
chokkakuautovol=1
chokkakuvol=50
ver=140d
--
beat=4/4
1100|00|--
0000|00|--
0000|00|--
1100|00|--
0000|00|--
0000|00|--
0000|00|--
0000|00|--
--
0001|00|--
0010|00|--
0100|00|--
1000|00|--
--
0011|00|--
0000|00|--
0000|00|--
0011|00|--
0000|00|--
0000|00|--
0000|00|--
0000|00|--
--
1000|00|--
0100|00|--
0010|00|--
0001|00|--
--
0000|20|--
0000|00|--
0000|00|--
0000|20|--
0000|00|--
0000|00|--
0000|00|--
0000|00|--
--
0000|01|--
0000|01|--
0000|10|--
0000|10|--
0000|01|--
0000|01|--
0000|10|--
0000|10|--
--
0000|02|--
0000|00|--
0000|00|--
0000|00|--
0000|00|--
0000|00|--
0000|02|--
0000|00|--
0000|00|--
0000|00|--
0000|00|--
0000|00|--
0000|00|--
0000|00|--
0000|00|--
0000|00|--
--
0000|10|--
0000|10|--
0000|01|--
0000|01|--
0000|10|--
0000|10|--
0000|00|--
0000|00|--
--
1000|00|--
0000|00|--
0000|00|--
0100|00|--
0000|00|--
0000|00|--
0010|00|--
0000|00|--
--
0000|00|--
0001|00|--
0000|00|--
0000|00|--
0110|00|--
0000|00|--
0110|00|--
0000|00|--
--
0001|00|--
0010|00|--
0100|00|--
1000|00|--
--
0000|01|--
0000|01|--
0000|10|--
0000|10|--
0000|01|--
0000|01|--
0000|00|--
0000|00|--
--
0010|00|--
0010|00|--
0100|00|--
0100|00|--
--
0001|00|--
0001|00|--
1000|00|--
1000|00|--
--
0100|00|--
0100|00|--
0010|00|--
0010|00|--
--
1000|00|--
1000|00|--
0001|00|--
0001|00|--
--
0000|10|--
0000|10|--
0000|00|--
0000|00|--
0000|01|--
0000|01|--
0000|00|--
0000|00|--
--
0000|10|--
0000|10|--
0000|01|--
0000|01|--
0000|10|--
0000|10|--
0000|01|--
0000|01|--
--
0000|00|--
0000|00|--
0001|00|--
0000|00|--
0010|00|--
0000|00|--
0100|00|--
0000|00|--
--
1000|00|--
0100|00|--
0010|00|--
0001|00|--
--
0000|00|0-
0000|00|:-
0000|00|:-
0000|00|:-
0000|00|:-
0000|00|:-
0000|00|:-
0000|00|:-
0000|00|:-
0000|00|:-
0000|00|:-
0000|00|:-
0000|00|o-
0000|00|:-
0000|00|o-
0000|00|:-
--
0000|00|o-
0000|00|:-
0000|00|:-
0000|00|:-
0000|00|:-
0000|00|:-
0000|00|0-
0000|00|--
--
0000|00|-o
0000|00|-:
0000|00|-:
0000|00|-:
0000|00|-0
0000|00|-:
0000|00|-0
0000|00|-:
0000|00|-0
0000|00|-:
0000|00|-:
0000|00|-:
0000|00|-o
0000|00|--
0000|00|--
0000|00|--
--
0000|00|0-
0000|00|:-
0000|00|o-
0000|00|:-
0000|00|o-
0000|00|:-
0000|00|0-
0000|00|--
--
0000|00|-o
0000|00|-:
0000|00|-:
0000|00|-:
0000|00|-:
0000|00|-:
0000|00|-0
0000|00|-:
--
0000|00|-0
0000|00|-:
0000|00|-:
0000|00|-:
0000|00|-:
0000|00|-:
0000|00|-o
0000|00|--
--
0000|00|0-
0000|00|:-
0000|00|o-
0000|00|:-
0000|00|o-
0000|00|:-
0000|00|0-
0000|00|--
--
0000|00|-o
0000|00|-:
0000|00|-0
0000|00|-:
0000|00|-0
0000|00|-:
0000|00|-o
0000|00|--
--
0000|20|--
0000|00|--
0000|20|--
0000|00|--
0000|00|--
0000|00|--
0000|00|--
0000|00|--
0000|01|--
0000|01|--
0000|01|--
0000|01|--
0000|00|--
0000|00|--
0000|00|--
0000|00|--
--
0000|20|--
0000|00|--
0000|20|--
0000|00|--
0000|00|--
0000|00|--
0000|00|--
0000|00|--
0000|01|--
0000|01|--
0000|01|--
0000|01|--
0000|00|--
0000|00|--
0000|00|--
0000|00|--
--
0000|20|--
0000|00|--
0000|20|--
0000|00|--
0000|00|--
0000|00|--
0000|00|--
0000|00|--
0000|01|--
0000|01|--
0000|01|--
0000|01|--
0000|00|--
0000|00|--
0000|00|--
0000|00|--
--
0000|20|--
0000|20|--
0000|00|--
0000|00|--
0010|00|--
0000|00|--
0100|00|--
0000|00|--
--
0000|02|--
0000|00|--
0000|02|--
0000|00|--
0000|00|--
0000|00|--
0000|00|--
0000|00|--
0000|10|--
0000|10|--
0000|10|--
0000|10|--
0000|00|--
0000|00|--
0000|00|--
0000|00|--
--
0000|02|--
0000|00|--
0000|02|--
0000|00|--
0000|00|--
0000|00|--
0000|00|--
0000|00|--
0000|10|--
0000|10|--
0000|10|--
0000|10|--
0000|00|--
0000|00|--
0000|00|--
0000|00|--
--
0000|01|--
0000|01|--
0000|10|--
0000|10|--
0000|01|--
0000|01|--
0000|00|--
0000|00|--
--
0001|00|--
0010|00|--
0100|00|--
1000|00|--
--
0000|00|-o
0000|00|-:
--
0000|00|-0
0000|00|-:
0000|00|-:
0000|00|-:
0000|00|-o
0000|00|-:
0000|00|-0
0000|00|--
--
0000|00|0-
0000|00|:-
--
0000|00|o-
0000|00|:-
0000|00|:-
0000|00|:-
0000|00|0-
0000|00|:-
0000|00|o-
0000|00|--
--
0000|00|-o
0000|00|-:
0000|00|-:
0000|00|-:
0000|00|-0
0000|00|-:
0000|00|-o
0000|00|--
--
0000|00|0-
0000|00|:-
0000|00|:-
0000|00|:-
0000|00|o-
0000|00|:-
0000|00|0-
0000|00|--
--
0001|00|--
0010|00|--
0100|00|--
1000|00|--
--
0000|10|--
0000|10|--
0000|01|--
0000|01|--
0000|10|--
0000|10|--
0000|00|--
0000|00|--
--
0000|00|-o
0000|00|-:
0000|00|-0
0000|00|--
0000|00|--
0000|00|--
0000|00|--
0000|00|--
0000|00|--
0000|00|--
0000|00|--
0000|00|--
0000|00|--
0000|00|--
0000|00|--
0000|00|--
0000|00|--
0000|00|--
0000|00|--
0000|00|--
0000|00|--
0000|00|--
0000|00|--
0000|00|--
0000|00|--
0000|00|--
0000|00|--
0000|00|--
0000|00|--
0000|00|--
0000|00|--
0000|00|--
0000|00|--
0000|00|--
0000|00|--
0000|00|--
0000|00|--
0000|00|--
0000|00|--
0000|00|--
0000|00|--
0000|00|--
0000|00|--
0000|00|--
0000|00|--
0000|00|--
0000|00|--
0000|00|--
0000|00|--
0000|00|--
0000|00|--
0000|00|--
0000|00|--
0000|00|--
0000|00|--
0000|00|--
0000|00|--
0000|00|--
0000|00|--
0000|00|--
0000|00|--
0000|00|--
0000|00|--
0000|00|--
--
0000|00|--
--
1000|00|--
0010|00|--
--
0100|00|--
0001|00|--
--
0000|00|0-
0000|00|:-
--
0000|00|o-
0000|00|:-
0000|00|:-
0000|00|:-
0000|00|0-
0000|00|:-
0000|00|o-
0000|00|--
--
0000|00|-o
0000|00|-:
--
0000|00|-0
0000|00|-:
0000|00|-:
0000|00|-:
0000|00|-o
0000|00|-:
0000|00|-0
0000|00|--
--
1000|00|--
1000|00|--
0100|00|--
0010|00|--
--
0001|00|--
0001|00|--
0010|00|--
0100|00|--
--
0000|10|--
0000|10|--
0000|01|--
0000|01|--
0000|10|--
0000|10|--
0000|00|--
0000|00|--
--
0000|01|--
0000|01|--
0000|10|--
0000|10|--
0000|01|--
0000|01|--
0000|00|--
0000|00|--
--
1000|00|--
0000|00|--
2000|00|--
2000|00|--
0000|00|--
0000|00|--
0000|00|--
0000|00|--
--
0100|00|--
0000|00|--
0200|00|--
0200|00|--
0000|00|--
0000|00|--
0000|00|--
0000|00|--
--
0010|00|--
0000|00|--
0020|00|--
0020|00|--
0000|00|--
0000|00|--
0000|00|--
0000|00|--
--
0001|00|--
0000|00|--
0002|00|--
0002|00|--
1000|00|--
0000|00|--
2000|00|--
2000|00|--
--
0001|00|--
0000|00|--
0001|00|--
0000|00|--
0010|00|--
0000|00|--
0010|00|--
0000|00|--
--
1000|00|--
1000|00|--
0100|00|--
0100|00|--
--
0000|00|-o
0000|00|-:
--
0000|00|-0
0000|00|-:
0000|00|-o
0000|00|--
0000|00|--
0000|00|--
0000|00|--
0000|00|--
0000|00|--
0000|00|--
0000|00|--
0000|00|--
0000|00|--
0000|00|--
0000|00|--
0000|00|--
0000|00|--
0000|00|--
0000|00|--
0000|00|--
0000|00|--
0000|00|--
0000|00|--
0000|00|--
0000|00|--
0000|00|--
0000|00|--
0000|00|--
0000|00|--
0000|00|--
0000|00|--
0000|00|--
0000|00|--
0000|00|--
0000|00|--
0000|00|--
0000|00|--
0000|00|--
0000|00|--
0000|00|--
0000|00|--
0000|00|--
0000|00|--
0000|00|--
0000|00|--
0000|00|--
0000|00|--
0000|00|--
0000|00|--
0000|00|--
0000|00|--
0000|00|--
0000|00|--
0000|00|--
0000|00|--
0000|00|--
0000|00|--
0000|00|--
0000|00|--
0000|00|--
0000|00|--
0000|00|--
0000|00|--
0000|00|--
--
0000|00|0-
0000|00|:-
0000|00|:-
0000|00|:-
0000|00|:-
0000|00|:-
0000|00|o-
0000|00|--
--
0000|00|-o
0000|00|-:
0000|00|-:
0000|00|-:
0000|00|-:
0000|00|-:
0000|00|-0
0000|00|--
--
0000|00|0-
0000|00|:-
0000|00|:-
0000|00|:-
0000|00|o-
0000|00|:-
0000|00|0-
0000|00|--
--
0000|00|-o
0000|00|-:
0000|00|-:
0000|00|-:
0000|00|-0
0000|00|-:
0000|00|-o
0000|00|--
--
0000|00|0-
0000|00|:-
0000|00|o-
0000|00|:-
0000|00|o-
0000|00|:-
0000|00|0-
0000|00|--
--
0000|00|-o
0000|00|-:
0000|00|-0
0000|00|-:
0000|00|-0
0000|00|-:
0000|00|-o
0000|00|--
--
0000|00|0-
0000|00|:-
0000|00|o-
0000|00|:-
0000|00|o-
0000|00|:-
0000|00|0-
0000|00|:-
--
0000|00|0o
0000|00|::
0000|00|::
0000|00|::
0000|00|::
0000|00|::
0000|00|o0
0000|00|--
--
0000|00|--
0000|00|--
0000|11|--
0000|11|--
0000|11|--
0000|11|--
0000|00|--
0000|00|--
--
0001|00|--
0001|00|--
0010|00|--
0100|00|--
--
1000|00|--
1000|00|--
0010|00|--
0001|00|--
--
0000|01|--
0000|01|--
0000|00|--
0000|00|--
0000|10|--
0000|10|--
0000|00|--
0000|00|--
--
1000|00|--
0100|00|--
0010|00|--
0001|00|--
--
0001|00|--
0010|00|--
0100|00|--
1000|00|--
--
0000|01|--
0000|01|--
0000|10|--
0000|10|--
0000|01|--
0000|01|--
0000|00|--
0000|00|--
--
0000|20|--
0000|00|--
0000|00|--
0000|02|--
0000|00|--
0000|00|--
0000|20|--
0000|00|--
--
0011|00|--
0000|00|--
0000|00|--
0011|00|--
0000|00|--
0000|00|--
0000|00|--
0000|00|--
--
1000|00|--
0100|00|--
0010|00|--
0001|00|--
--
1100|00|--
0000|00|--
0000|00|--
1100|00|--
0000|00|--
0000|00|--
0000|00|--
0000|00|--
--
0001|00|--
0010|00|--
0100|00|--
1000|00|--
--
0000|02|--
0000|00|--
0000|00|--
0000|00|--
0000|00|--
0000|00|--
0000|02|--
0000|00|--
0000|00|--
0000|00|--
0000|00|--
0000|00|--
0000|10|--
0000|10|--
0000|10|--
0000|10|--
--
0000|01|--
0000|01|--
0000|10|--
0000|10|--
0000|01|--
0000|01|--
0000|00|--
0000|00|--
--
0000|20|--
0000|00|--
0000|00|--
0000|00|--
0000|00|--
0000|00|--
0000|20|--
0000|00|--
0000|00|--
0000|00|--
0000|00|--
0000|00|--
0000|01|--
0000|01|--
0000|01|--
0000|01|--
--
0000|10|--
0000|10|--
0000|01|--
0000|01|--
0000|10|--
0000|10|--
0000|00|--
0000|00|--
--
0001|00|--
0000|00|--
0000|00|--
0010|00|--
0000|00|--
0000|00|--
0100|00|--
0000|00|--
--
0000|00|--
0100|00|--
0000|00|--
0000|00|--
0110|00|--
0000|00|--
0110|00|--
0000|00|--
--
1000|00|--
0100|00|--
0010|00|--
0001|00|--
--
0000|10|--
0000|10|--
0000|01|--
0000|01|--
0000|10|--
0000|10|--
0000|00|--
0000|00|--
--
0001|00|--
0010|00|--
0100|00|--
1000|00|--
--
0100|00|--
0010|00|--
0001|00|--
0000|00|--
--
0000|00|0-
0000|00|:-
0000|00|o-
0000|00|:-
0000|00|:-
0000|00|:-
0000|00|:-
0000|00|:-
0000|00|:-
0000|00|:-
0000|00|:-
0000|00|:-
0000|00|:-
0000|00|:-
0000|00|:-
0000|00|:-
0000|00|:-
0000|00|:-
0000|00|:-
0000|00|:-
0000|00|:-
0000|00|:-
0000|00|:-
0000|00|:-
0000|00|:-
0000|00|:-
0000|00|:-
0000|00|:-
0000|00|:-
0000|00|:-
0000|00|:-
0000|00|:-
0000|00|:-
0000|00|:-
0000|00|:-
0000|00|:-
0000|00|:-
0000|00|:-
0000|00|:-
0000|00|:-
0000|00|:-
0000|00|:-
0000|00|:-
0000|00|:-
0000|00|:-
0000|00|:-
0000|00|:-
0000|00|:-
0000|00|:-
0000|00|:-
0000|00|:-
0000|00|:-
0000|00|:-
0000|00|:-
0000|00|:-
0000|00|:-
0000|00|:-
0000|00|:-
0000|00|:-
0000|00|:-
0000|00|:-
0000|00|:-
0000|00|:-
0000|00|:-
--
0000|00|:-
--
0000|00|o-
0000|00|:-
--
0000|00|:-
--
0000|00|0-
0000|00|--
--
