title=CODE -CRiMSON-
artist=Shiron
effect=TEK-A-RHYTHM × 逆球レジェンド
jacket=code_crimson_shiron_ex.png
illustrator=紅刃とカメラマンぺぬ(紅刃さん笑って~!)
difficulty=extended
level=17
t=167
m=code_crimson_shiron.wav
o=0
bg=cyber
layer=hidden
po=0
plength=15000
pfiltergain=50
filtertype=peak
chokkakuautovol=0
chokkakuvol=50
ver=140d
--
beat=4/4
t=167
tilt=normal
0000|00|--
0000|00|--
0000|00|--
0000|00|--
0000|00|--
0000|00|--
0000|00|--
0000|00|--
0000|00|--
0000|00|--
0000|00|--
0000|00|--
0000|00|--
0000|00|--
0000|00|--
0000|00|--
--
0002|00|--
0002|00|--
0002|00|--
0002|00|--
0202|00|--
0202|00|--
0202|00|--
0202|00|--
0220|00|--
0220|00|--
0220|00|--
0220|00|--
2020|00|--
2020|00|--
2020|00|--
2020|00|--
--
2200|00|--
2200|00|--
2200|00|--
2200|00|--
0202|00|--
0202|00|--
0202|00|--
0202|00|--
2002|00|--
2002|00|--
2002|00|--
2002|00|--
2020|00|--
2020|00|--
2020|00|--
2020|00|--
--
0001|00|--
0000|00|--
0100|00|--
0010|00|--
1001|00|--
0000|00|--
0100|00|--
0010|00|--
1001|00|--
0000|00|--
0100|00|--
0010|00|--
1001|00|--
0000|00|--
0100|00|--
0010|00|--
--
1001|00|--
0000|00|--
0100|00|--
0010|00|--
1001|00|--
0000|00|--
0100|00|--
0010|00|--
1001|00|--
0000|00|--
0100|00|--
0010|00|--
0001|T0|--
0010|T0|--
0001|T0|--
0010|T0|--
--
0001|00|--
0000|00|--
0010|00|--
0100|00|--
1001|00|--
0000|00|--
0010|00|--
0100|00|--
1001|00|--
0000|00|--
0010|00|--
0100|00|--
1001|00|--
0000|00|--
0010|00|--
0100|00|--
--
1001|00|--
0000|00|--
0000|00|--
0000|00|--
0010|00|--
0000|00|--
0100|00|--
0000|00|--
1001|00|--
0000|00|--
0000|00|--
0000|00|--
0010|00|--
0000|00|--
0100|00|--
0000|00|--
1001|00|--
0000|00|--
0000|00|--
0000|00|--
0010|00|--
0000|00|--
0100|00|--
0000|00|--
tilt=keep_normal
filtertype=lpf1
2000|00|-o
2000|00|-:
2000|00|-P
2000|00|-:
2000|00|-:
2000|00|-6
2000|00|-:
2000|00|-:
--
0000|20|-0
filtertype=peak
0000|00|--
0100|00|--
0010|00|--
0001|20|--
0000|00|--
0100|00|--
0010|00|--
0001|20|--
0000|00|--
0100|00|--
0010|00|--
0001|20|--
0000|00|--
0100|00|--
0010|00|--
--
0001|20|--
0000|00|--
0100|00|--
0010|00|--
0001|20|--
0000|00|--
0100|00|--
0010|00|--
0001|I0|--
0010|I0|--
0100|I0|--
1000|I0|--
tilt=normal
0001|I0|--
0010|I0|--
0100|I0|--
1000|I0|--
--
0000|02|--
0000|00|--
0010|00|--
0100|00|--
1000|02|--
0000|00|--
0010|00|--
0100|00|--
1000|02|--
0000|00|--
1000|02|--
0000|00|--
1000|02|--
0000|00|--
0000|22|--
0000|22|--
--
0000|00|--
0000|00|--
0000|00|0o
0000|00|::
0000|00|::
0000|00|::
0000|00|0o
0000|00|::
0000|00|::
0000|00|::
filtertype=fx;bitc
0000|00|Cb
0000|00|::
0000|00|PP
0000|00|::
0000|00|o0
0000|00|::
0000|00|::
0000|00|JW
0000|00|::
0000|00|::
0000|00|6i
0000|00|::
0000|00|::
0000|00|::
0000|00|0o
0000|00|o0
filtertype=peak
0000|00|--
0000|00|--
0000|00|--
0000|00|--
0000|00|--
0000|00|--
--
1010|00|--
0100|00|--
0010|00|--
0000|00|--
0000|22|--
0000|00|--
0010|00|--
0100|00|--
1010|00|--
0000|00|--
0000|22|--
0000|00|--
1010|00|--
0100|00|--
0010|00|--
0000|00|--
--
1010|00|--
0100|00|--
0010|00|--
0000|00|--
0000|22|--
0000|00|--
0010|00|--
0100|00|--
1010|00|--
0000|00|--
0001|00|--
0000|00|--
0010|00|--
0000|00|--
0100|00|--
0000|00|--
--
0001|T0|--
0010|T0|--
0001|T0|--
0010|T0|--
1000|02|--
0000|00|--
0010|00|--
0100|00|--
1010|00|--
0000|00|--
0000|22|--
0000|00|--
1010|00|--
0100|00|--
0010|00|--
0000|00|--
--
1010|00|--
0000|00|--
0100|00|--
0000|00|--
0010|00|--
0000|00|--
0000|00|--
0000|00|--
0000|22|--
0000|00|--
0000|00|--
0000|00|--
0010|00|--
0000|00|--
0100|00|--
0000|00|--
1010|00|--
0000|00|--
0000|00|--
0000|00|--
0001|00|--
0000|00|--
0000|00|--
0000|00|--
tilt=keep_normal
filtertype=lpf1
0000|0X|0-
0000|0X|:-
0000|0X|P-
0000|0X|:-
0000|0X|:-
0000|0X|i-
0000|0X|:-
0000|0X|:-
--
0001|00|o-
filtertype=peak
0010|00|--
0100|00|--
0000|00|--
0000|22|--
0000|00|--
0100|00|--
0010|00|--
0101|00|--
0000|00|--
0000|22|--
0000|00|--
0101|00|--
0010|00|--
0100|00|--
0000|00|--
--
0101|00|--
0010|00|--
0100|00|--
0000|00|--
0000|22|--
0000|00|--
0100|00|--
0010|00|--
0101|00|--
0000|00|--
1000|00|--
0000|00|--
tilt=normal
0100|00|--
0000|00|--
0010|00|--
0000|00|--
--
0100|0T|--
0010|0T|--
0100|0T|--
0010|0T|--
1001|00|--
0000|00|--
0000|00|--
0000|22|--
0000|00|--
0000|22|--
0000|00|--
0000|22|--
0110|00|--
0000|00|--
0110|00|--
0000|00|--
--
0000|22|--
0000|00|--
0000|00|--
0000|00|--
0000|00|--
0000|00|--
0000|00|--
0000|00|--
0000|00|0o
0000|00|::
0000|00|::
0000|00|::
0000|00|WJ
0000|00|::
0000|00|::
0000|00|::
0000|00|i6
0000|00|::
0000|00|::
0000|00|::
0000|00|::
0000|00|::
0000|00|::
0000|00|::
0000|00|o0
0000|00|0o
0000|00|--
0000|00|--
0000|00|--
0000|00|--
0000|00|--
0000|00|--
--
1001|00|--
0000|00|--
0100|00|--
0002|00|--
0002|00|--
0100|00|--
0010|00|--
0100|00|--
0001|00|--
0010|00|--
0100|00|--
0010|00|--
0000|22|--
0000|00|--
0010|00|--
0100|00|--
--
1000|00|--
0000|00|--
0100|00|--
0002|00|--
0002|00|--
0100|00|--
0010|00|--
0100|00|--
0001|00|--
0010|00|--
0100|00|--
0010|00|--
0000|22|--
0000|00|--
0110|00|--
0000|00|--
--
1001|00|--
0000|00|--
0100|00|--
0002|00|--
0002|00|--
0100|00|--
0010|00|--
0100|00|--
0001|00|--
0010|00|--
0100|00|--
0010|00|--
0000|22|--
0000|00|--
0010|00|--
0100|00|--
--
1000|00|--
0000|00|--
0100|00|--
0002|00|--
0002|00|--
0100|00|--
0010|00|--
0100|00|--
0001|00|--
0010|00|--
0100|00|--
0010|00|--
1000|0I|--
0100|0I|--
0010|0I|--
0001|0I|--
--
0000|00|0-
0000|00|o-
0000|00|:-
0000|00|:-
0000|00|:-
0000|00|:-
0000|00|:-
0000|00|:-
1000|00|:o
0000|00|:0
0100|00|::
0000|00|::
1000|00|::
0000|00|::
0100|00|::
0000|00|::
0010|00|::
0000|00|::
0100|00|::
0000|00|::
0010|00|::
0000|00|::
0100|00|::
0000|00|::
1000|02|::
0000|00|::
0000|00|::
0000|00|::
0100|00|::
0000|00|::
0010|00|::
0000|00|::
--
0001|00|::
0000|00|::
0010|00|::
0100|00|::
1000|02|::
0010|00|::
0100|00|::
0010|00|::
0100|00|::
0010|00|::
0100|00|::
0010|00|::
1000|02|::
0000|00|::
0100|00|::
0010|00|::
--
0001|00|::
0000|00|::
0010|00|::
0100|00|::
1000|02|::
0010|00|::
0100|00|::
0010|00|::
0100|00|::
0010|00|::
0100|00|::
0010|00|::
1000|02|::
0000|00|::
0100|00|::
0010|00|::
--
0001|00|o:
0000|00|0:
0000|00|::
0000|00|::
0000|00|::
0000|00|::
1000|00|:0
0000|00|:o
0000|00|::
0000|00|::
0000|00|::
0000|00|::
0001|00|0:
0000|00|o:
0000|00|::
0000|00|::
0000|00|::
0000|00|::
1000|00|:o
0000|00|:0
0000|00|::
0000|00|::
0000|00|::
0000|00|::
0000|00|o0
0000|00|6i
0000|00|::
0000|00|::
0000|00|6i
0000|00|o0
0000|00|::
0000|00|::
--
0000|00|o0
0000|00|0o
0000|00|::
0000|00|::
0000|00|::
0000|00|::
0000|00|::
0000|00|::
0000|22|::
0000|00|::
0000|00|::
0000|00|::
0110|00|0:
0000|00|P:
0000|00|::
0000|00|::
0000|00|::
0000|00|::
0110|00|:o
0000|00|:P
0000|00|::
0000|00|::
0000|00|::
0000|00|::
0000|00|PP
0000|00|o0
0000|00|::
0000|00|::
0000|00|::
0000|00|::
0000|00|::
0000|00|::
--
0000|00|o:
0000|00|0:
0000|00|::
0000|00|::
0000|00|:0
0000|00|:o
0000|00|::
0000|00|::
0000|00|::
0000|00|::
1111|00|::
0000|00|::
1111|00|::
0000|00|::
1111|00|::
0000|00|::
0000|00|::
0000|00|::
0000|00|::
0000|00|::
0000|00|:o
0000|00|:P
0000|00|::
0000|00|::
0000|00|::
0000|00|::
0000|00|0:
0000|00|P:
0000|00|::
0000|00|::
0000|00|:P
0000|00|:0
--
0000|00|P:
0000|00|o:
0000|00|::
0000|00|::
0000|00|::
0000|00|::
0000|00|::
0000|00|::
0000|22|::
0000|00|::
0000|00|::
0000|00|::
0110|00|o:
0000|00|P:
0000|00|::
0000|00|::
0000|00|::
0000|00|::
0110|00|:0
0000|00|:P
0000|00|::
0000|00|::
0000|00|::
0000|00|::
0000|00|PP
0000|00|oo
0000|00|::
0000|00|::
0000|00|::
0000|00|::
0000|00|::
0000|00|::
--
0000|00|o:
0000|00|0:
0000|00|::
0000|00|::
0000|00|:o
0000|00|:0
0000|00|::
0000|00|::
0000|00|::
0000|00|::
1111|00|::
0000|00|::
1111|00|::
0000|00|::
1111|00|::
0000|00|::
0000|00|::
0000|00|::
0000|00|::
0000|00|::
0000|00|:0
0000|00|:P
0000|00|::
0000|00|::
0000|00|0P
0000|00|P:
0000|00|::
0000|00|::
0000|00|::
0000|00|::
0000|00|::
0000|00|::
--
0000|00|o0
0000|00|0:
0000|00|-:
0000|00|-:
0001|00|-:
0000|00|-:
0010|00|-:
0000|00|-:
0100|00|-:
0000|00|-:
0010|00|-:
0000|00|-:
0100|00|-:
0000|00|-:
0010|00|-:
0000|00|-:
0100|00|-:
0000|00|-:
0010|00|-:
0000|00|-:
0100|00|-:
0000|00|-:
0010|00|-:
0000|00|-:
1000|00|-:
0000|00|-:
0000|00|-:
0000|00|-:
0100|00|-:
0000|00|-:
1000|00|-:
0000|00|-:
--
0000|00|-0
0000|00|-o
0000|00|-:
0000|00|-:
1000|00|-:
0000|00|-:
0100|00|-:
0000|00|-:
0010|00|-:
0000|00|-:
0100|00|-:
0000|00|-:
0010|00|-:
0000|00|-:
0100|00|-:
0000|00|-:
0010|00|-:
0000|00|-:
0100|00|-:
0000|00|-:
0010|00|-:
0000|00|-:
0100|00|-:
0000|00|-:
0001|00|-:
0000|00|-:
0000|00|-:
0000|00|-:
0010|00|-:
0000|00|-:
0001|00|-:
0000|00|-:
--
0000|00|0:
0000|00|o:
0000|00|::
0000|00|::
0000|00|o:
0000|00|0:
0000|00|::
0000|00|::
0000|00|:o
0000|00|:0
0000|00|::
0000|00|::
0000|00|:0
0000|00|:o
0000|00|::
0000|00|::
0001|00|0:
0000|00|::
0010|00|::
0000|00|::
0001|00|::
0000|00|::
0010|00|::
0000|00|::
0001|00|::
0000|00|::
0010|00|::
0000|00|::
0001|00|::
0000|00|::
0010|00|::
0000|00|::
--
0001|00|o:
0000|00|0:
0000|00|-:
0000|00|-:
0000|00|-:
0000|00|-:
1000|00|-o
0000|00|-0
0000|00|--
0000|00|--
0000|00|--
0000|00|--
0001|00|0-
0000|00|o-
0000|00|--
0000|00|--
0000|00|--
0000|00|--
1000|00|-o
0000|00|-0
0000|00|--
0000|00|--
0000|00|--
0000|00|--
0001|00|0-
0000|00|o-
0000|00|:-
0000|00|:-
0000|00|:-
0000|00|:-
0000|00|:-
0000|00|:-
--
0000|FF|o-
0000|FF|:-
0000|FF|J-
0000|FF|:-
0000|FF|:-
0000|FF|5-
0000|FF|:-
0000|FF|:-
0110|00|0-
0000|00|P-
0000|00|:-
0000|00|:-
0001|00|:-
0000|00|:-
0010|00|:-
0000|00|:-
0100|00|:-
0000|00|:-
0010|00|:-
0000|00|:-
0100|00|:-
0000|00|:-
0010|00|:-
0000|00|:-
1001|00|:-
0000|00|:-
0000|00|:-
0000|00|:-
0010|00|:-
0000|00|:-
0100|00|:-
0000|00|:-
--
0010|00|:-
0100|00|:-
0010|00|:-
0100|00|:-
1001|00|:-
0000|00|:-
0100|00|:-
0010|00|:-
0100|00|:-
0010|00|:-
0100|00|:-
0010|00|:-
1001|00|:-
0000|00|:-
0010|00|:-
0100|00|:-
--
filtertype=lpf1
1000|00|Po
0000|00|-P
0100|00|-:
0000|00|-:
1000|00|-:
0000|00|-:
0100|00|-:
0000|00|-:
1001|00|-:
0000|00|-:
0000|00|-:
0000|00|-:
0100|00|-:
0000|00|-:
0010|00|-:
0000|00|-:
0100|00|-:
0000|00|-:
0010|00|-:
0000|00|-:
0100|00|-:
0000|00|-:
0010|00|-:
0000|00|-:
1001|00|-:
0000|00|-:
0000|00|-:
0000|00|-:
0001|00|-:
0000|00|-:
0010|00|-:
0000|00|-:
--
filtertype=peak
filtertype=lpf1
0001|00|0P
0000|00|i-
0010|00|:-
0000|00|:-
0001|00|:-
0000|00|:-
0010|00|:-
0000|00|:-
1001|00|:-
0000|00|:-
0000|00|:-
0000|00|:-
0010|00|:-
0000|00|:-
0100|00|:-
0000|00|:-
1000|00|:-
0000|00|:-
0010|00|:-
0000|00|:-
0000|00|:-
0000|00|:-
0100|00|:-
0000|00|:-
0001|00|:-
0000|00|:-
0000|00|:-
0000|00|:-
0100|00|:-
0000|00|:-
0010|00|:-
0000|00|:-
--
filtertype=peak fx-l_param1=10 fx-r_param1=10
0000|BB|i-
0000|BB|--
1000|00|--
0010|00|-- fx-l_param1=10 fx-r_param1=10
0000|BB|--
0000|BB|--
0100|00|--
0001|00|-- fx-l_param1=10 fx-r_param1=10
0000|BB|--
0000|BB|--
1000|00|--
0010|00|-- fx-l_param1=10 fx-r_param1=10
0000|BB|--
0000|BB|--
0100|00|--
0001|00|--
-- fx-l_param1=10 fx-r_param1=10
0000|BB|--
0000|BB|--
0010|00|--
1000|00|-- fx-l_param1=10 fx-r_param1=10
0000|BB|--
0000|BB|--
0001|00|--
0100|00|-- fx-l_param1=10 fx-r_param1=10
0000|BB|--
0000|BB|--
0010|00|--
1000|00|-- fx-l_param1=10 fx-r_param1=10
0000|BB|--
0000|BB|--
0001|00|--
0100|00|--
-- fx-l_param1=10 fx-r_param1=10
0000|BB|--
0000|BB|--
0100|00|--
0010|00|-- fx-l_param1=10 fx-r_param1=10
0000|BB|--
0000|BB|--
1000|00|--
0001|00|-- fx-l_param1=10 fx-r_param1=10
0000|BB|--
0000|BB|--
0100|00|--
0010|00|-- fx-l_param1=10 fx-r_param1=10
0000|BB|--
0000|BB|--
1000|00|--
0001|00|--
--
0010|00|0-
0000|00|o-
0000|00|--
0000|00|--
0000|00|--
0000|00|--
0100|00|-o
0000|00|-0
0000|00|--
0000|00|--
0000|00|--
0000|00|--
0010|00|0-
0000|00|o-
0000|00|--
0000|00|--
0000|00|--
0000|00|--
0100|00|-o
0000|00|-0
0000|00|--
0000|00|--
0000|00|--
0000|00|--
0020|00|0-
0020|00|o-
0020|00|:-
0020|00|:-
0020|00|:-
0020|00|:-
0020|00|:-
0020|00|:-
--
filtertype=lpf1
0001|00|o-
0000|00|:-
0000|00|:-
0000|00|:-
0010|00|:-
0000|00|:-
0000|00|:-
0000|00|:-
0000|00|0-
0000|00|o-
filtertype=peak
0000|00|--
0000|00|--
0001|00|--
0010|00|--
0100|00|--
1000|00|--
0001|00|--
0000|00|--
0001|00|--
0000|00|--
0001|00|--
0000|00|--
0001|00|--
0000|00|--
0002|00|--
0002|00|--
0002|00|--
0002|00|--
0020|00|--
0020|00|--
0020|00|--
0020|00|--
--
0200|00|--
0200|00|--
0010|00|--
0100|00|--
1000|00|--
0100|00|--
0010|00|--
0001|00|--
0200|00|--
0200|00|--
2000|00|--
2000|00|--
0001|00|--
0010|00|--
0100|00|--
0010|00|--
--
0001|00|--
0001|00|--
0001|00|--
0001|00|--
0002|00|--
0002|00|--
0010|00|--
0100|00|--
1000|00|--
1000|00|--
1000|00|--
1000|00|--
1000|00|--
0100|00|--
0020|00|--
0020|00|--
--
0200|00|--
0200|00|--
0001|00|--
0010|00|--
0100|00|--
0020|00|--
0020|00|--
0100|00|--
0000|I0|--
0001|I0|--
0010|I0|--
0100|I0|--
1000|I0|--
0001|I0|--
0010|I0|--
0100|I0|--
--
2000|00|-o
2000|00|-0
2000|00|--
2000|00|--
0200|00|--
0200|00|--
0200|00|--
0200|00|--
0001|00|--
0000|00|--
0010|00|--
0000|00|--
0100|00|--
0000|00|--
1000|00|--
0000|00|--
0001|00|--
0000|00|--
0001|00|--
0000|00|--
0001|00|--
0000|00|--
0001|00|--
0000|00|--
0002|00|--
0002|00|--
0002|00|--
0002|00|--
0020|00|--
0020|00|--
0020|00|--
0020|00|--
--
0002|00|0-
0002|00|o-
0002|00|--
0002|00|--
0010|00|--
0000|00|--
0100|00|--
0000|00|--
1000|00|--
0000|00|--
0100|00|--
0000|00|--
0010|00|--
0000|00|--
0001|00|--
0000|00|--
0020|00|--
0020|00|--
0020|00|--
0020|00|--
0200|00|--
0200|00|--
0200|00|--
0200|00|--
0001|00|--
0000|00|--
0010|00|--
0000|00|--
0100|00|--
0000|00|--
1000|00|--
0000|00|--
--
0100|00|-o
0000|00|-0
1000|00|--
0000|00|--
0100|00|--
0000|00|--
1000|00|--
0000|00|--
0000|0U|--
0000|0U|--
0000|0U|--
0000|0U|--
0001|00|--
0000|00|--
0010|00|--
0000|00|--
0001|00|0-
0000|00|o-
0010|00|--
0000|00|--
0001|00|--
0000|00|--
0010|00|--
0000|00|--
0001|T0|--
0000|T0|--
0010|T0|--
0000|T0|--
0100|T0|--
0000|T0|--
1000|T0|--
0000|T0|--
--
0100|00|-o
0000|00|-0
0000|00|--
0000|00|--
0000|00|--
0000|00|--
0001|00|0-
0000|00|o-
0000|00|--
0000|00|--
0000|00|--
0000|00|--
0110|00|-o
0000|00|-0
0000|00|--
0000|00|--
0000|00|--
0000|00|--
0110|00|0-
0000|00|o-
0000|00|--
0000|00|--
0000|00|--
0000|00|--
1000|00|-o
0000|00|-0
0000|00|--
0000|00|--
0100|00|--
0000|00|--
0000|00|--
0000|00|--
--
0011|00|0-
0000|00|:-
0000|00|:-
0000|00|:-
0000|00|W-
0000|00|:-
0000|00|:-
0000|00|:-
0000|00|i-
0000|00|:-
0000|00|:-
0000|00|:-
0000|00|:-
0000|00|:-
0000|00|:-
0000|00|:-
0011|00|o-
0000|00|0-
0000|00|:-
0000|00|:-
0000|00|:o
0000|00|::
0000|00|::
0000|00|::
0000|00|:i
0000|00|::
0000|00|::
0000|00|::
0000|00|:W
0000|00|::
0000|00|::
0000|00|::
--
0000|00|00
0000|00|o:
0000|00|::
0000|00|::
0000|00|J:
0000|00|::
0000|00|::
0000|00|::
0000|00|6:
0000|00|::
0000|00|::
0000|00|::
0001|00|::
0000|00|::
0010|00|::
0000|00|::
0001|00|00
0000|00|o:
0000|00|::
0000|00|::
0000|00|J:
0000|00|::
0010|00|::
0000|00|::
0000|00|6:
0000|00|::
0000|00|::
0000|00|::
0100|00|::
0000|00|::
0000|00|::
0000|00|::
--
1000|00|00
0000|00|::
0000|00|::
0000|00|::
0000|00|:W
0000|00|::
0000|00|::
0000|00|::
0000|00|:i
0000|00|::
0000|00|::
0000|00|::
1100|00|::
0000|00|::
0000|00|::
0000|00|::
0000|00|0o
0000|00|:0
0000|00|::
0000|00|::
0000|00|:W
0000|00|::
0000|00|::
0000|00|::
0000|00|:i
0000|00|::
0000|00|::
0000|00|::
0000|00|::
0000|00|::
0000|00|::
0000|00|::
--
0000|00|0o
0000|00|::
0000|00|::
0000|00|::
0000|00|WJ
0000|00|::
0000|00|::
0000|00|::
0000|00|i6
0000|00|::
0000|00|::
0000|00|::
0000|00|o0
0000|00|0o
0000|00|::
0000|00|::
0000|00|0o
0000|00|o0
0000|00|::
0000|00|::
0000|00|::
0000|00|::
0000|00|::
0000|00|::
0000|00|i:
0000|00|::
0000|00|::
0000|00|::
0000|00|W:
0000|00|::
0000|00|::
0000|00|::
--
0000|00|00
0000|00|:o
0000|00|::
0000|00|::
0000|00|W:
0000|00|::
0000|00|::
0000|00|::
0000|00|:o
0000|00|::
0000|00|o:
0000|00|::
0000|00|:b
0000|00|::
0000|00|::
0000|00|::
1100|00|:0
0000|00|::
0000|00|::
0000|00|::
0000|00|:b
0000|00|::
0000|00|o:
0000|00|::
0000|00|:o
0000|00|::
0000|00|::
0000|00|::
0000|00|Y:
0000|00|::
0000|00|::
0000|00|::
--
0000|00|0o
0000|00|::
0000|00|::
0000|00|:J
0000|00|::
0000|00|::
0000|00|::
0000|00|::
0000|00|00
0000|00|::
0000|00|::
0000|00|::
0001|00|E:
0000|00|::
0010|00|::
0000|00|::
0001|00|o:
0000|00|::
0000|00|::
0000|00|::
0000|00|C:
0000|00|::
0010|00|::
0000|00|::
0000|00|00
0000|00|::
0000|00|::
0000|00|::
0100|00|::
0000|00|::
0000|00|::
0000|00|::
--
0000|00|00
0000|00|::
0000|00|bb
0000|00|::
0000|00|oo
0000|00|::
0000|00|b:
0000|00|::
0000|00|0o
0000|00|Cb
0000|00|JW
0000|00|::
0000|00|::
0000|00|::
0000|00|WJ
0000|00|bC
--
0000|00|o0
0000|00|0o
0000|00|::
0000|00|::
0000|00|WJ
0000|00|::
0000|00|::
0000|00|::
0000|00|i6
0000|00|::
0000|00|::
0000|00|::
0000|00|o0
0000|00|::
0000|00|::
0000|00|::
0000|UU|o0
0000|UU|--
0000|UU|--
0000|UU|--
0000|UU|--
0000|UU|--
0000|UU|--
0000|UU|--
0010|00|--
0000|00|--
0100|00|--
0000|00|--
0010|00|--
0000|00|--
0100|00|--
0000|00|--
--
0000|F2|--
0000|F0|--
0010|F0|--
0010|F0|--
0001|F0|--
0010|F0|--
0100|F0|--
0010|F0|--
0001|F0|--
0010|F0|--
0100|F0|--
0010|F0|--
1001|F0|--
0000|F0|--
0110|F0|--
0000|F0|--
--
0000|F2|--
0000|F0|--
0010|F0|--
0010|F0|--
0001|F0|--
0010|F0|--
0100|F0|--
0010|F0|--
0001|F0|--
0010|F0|--
0100|F0|--
0010|F0|--
1001|F0|--
0000|F0|--
0110|F0|--
0000|F0|--
--
1000|0I|--
0100|0I|--
0010|0I|--
0001|0I|--
0000|20|--
0000|00|--
0100|00|--
0010|00|--
0001|I0|--
0010|I0|--
0100|I0|--
1000|I0|--
0000|0U|--
0000|0U|--
0000|0U|--
0000|0U|--
--
0001|T0|--
0010|T0|--
0100|T0|--
1000|T0|--
0100|0S|--
0000|0S|--
0100|0S|--
0000|0S|--
0001|T0|--
0010|T0|--
0001|T0|--
0010|T0|--
1100|00|--
0000|00|--
0011|00|--
0000|00|--
--
0000|02|0-
0000|00|o-
0000|00|:-
0000|00|:-
0010|00|:-
0000|00|:-
0001|00|:-
0000|00|:-
0010|00|:-
0000|00|:-
0100|00|:-
0000|00|:-
0010|00|:-
0000|00|:-
0100|00|:-
0000|00|:-
0001|00|:-
0000|00|:-
0010|00|:-
0000|00|:-
0100|00|:-
0000|00|:-
1000|00|:-
0000|00|:-
0011|00|:-
0000|00|:-
0000|00|:-
0000|00|:-
0110|00|:-
0000|00|:-
0000|00|:-
0000|00|:-
--
0000|20|:o
0000|00|:0
0000|00|::
0000|00|::
0100|00|::
0000|00|::
1000|00|::
0000|00|::
0100|00|::
0000|00|::
0010|00|::
0000|00|::
0100|00|::
0000|00|::
0010|00|::
0000|00|::
1000|00|::
0000|00|::
0100|00|::
0000|00|::
0010|00|::
0000|00|::
0001|00|::
0000|00|::
1100|00|::
0000|00|::
0000|00|::
0000|00|::
0110|00|::
0000|00|::
0000|00|::
0000|00|::
--
0000|22|::
0000|00|::
0110|00|::
0000|00|::
0000|22|::
0000|00|::
0110|00|::
0000|00|::
0000|20|::
0000|02|::
0000|20|::
0000|02|::
1000|00|::
0100|00|::
0010|00|::
0001|00|::
--
0000|00|o:
0000|00|6:
0000|00|:0
0000|00|:i
0000|00|::
0000|00|::
0000|00|6:
0000|00|o:
0000|00|::
0000|00|::
0000|00|:i
0000|00|:0
0000|00|::
0000|00|::
0000|00|o:
0000|00|P:
0000|00|::
0000|00|::
0000|00|:0
0000|00|:P
0000|00|::
0000|00|::
0000|00|P:
0000|00|o:
0000|00|-P
0000|00|-0
0000|00|-:
0000|00|-:
0000|00|-:
0000|00|-:
0000|00|-:
0000|00|-:
--
0000|UU|-0
0000|UU|-:
0000|UU|-W
0000|UU|-:
0000|UU|-:
0000|UU|-k
0000|UU|-:
0000|UU|-:
0110|00|-o
0000|00|-P
0000|00|-:
0000|00|-:
1000|00|-:
0000|00|-:
0100|00|-:
0000|00|-:
0010|00|-:
0000|00|-:
0100|00|-:
0000|00|-:
0010|00|-:
0000|00|-:
0100|00|-:
0000|00|-:
0000|22|-:
0000|00|-:
0000|00|-:
0000|00|-:
0010|00|-:
0000|00|-:
0100|00|-:
0000|00|-:
--
1000|00|-:
0010|00|-:
0001|00|-:
0010|00|-:
0000|22|-:
0000|00|-:
0100|00|-:
0010|00|-:
0001|00|-:
0100|00|-:
1000|00|-:
0100|00|-:
0000|22|-:
0000|00|-:
0001|00|-:
0010|00|-:
--
filtertype=lpf1
filtertype=peak
0001|00|0P
0000|00|P-
0010|00|:-
0000|00|:-
0001|00|:-
0000|00|:-
0010|00|:-
0000|00|:-
0000|22|:-
0000|00|:-
0000|00|:-
0000|00|:-
0100|00|:-
0000|00|:-
0010|00|:-
0000|00|:-
0100|00|:-
0000|00|:-
0010|00|:-
0000|00|:-
0100|00|:-
0000|00|:-
0010|00|:-
0000|00|:-
0000|22|:-
0000|00|:-
0000|00|:-
0000|00|:-
1000|00|:-
0000|00|:-
0100|00|:-
0000|00|:-
--
filtertype=lpf1
filtertype=peak
1000|00|Po
0000|00|-6
0100|00|-:
0000|00|-:
1000|00|-:
0000|00|-:
0100|00|-:
0000|00|-:
0000|22|-:
0000|00|-:
0000|00|-:
0000|00|-:
0010|00|-:
0000|00|-:
0100|00|-:
0000|00|-:
1000|00|-:
0000|00|-:
0001|00|-:
0000|00|-:
0000|00|-:
0000|00|-:
0100|00|-:
0000|00|-:
0001|00|-:
0000|00|-:
0000|00|-:
0000|00|-:
0100|00|-:
0000|00|-:
0010|00|-:
0000|00|-:
-- fx-l_param1=10 fx-r_param1=10
0000|BB|-6
0000|BB|--
1000|00|--
0010|00|-- fx-l_param1=10 fx-r_param1=10
0000|BB|--
0000|BB|--
0100|00|--
0001|00|-- fx-l_param1=10 fx-r_param1=10
0000|BB|--
0000|BB|--
1000|00|--
0010|00|-- fx-l_param1=10 fx-r_param1=10
0000|BB|--
0000|BB|--
0100|00|--
0001|00|--
-- fx-l_param1=10 fx-r_param1=10
0000|BB|--
0000|BB|--
0010|00|--
1000|00|-- fx-l_param1=10 fx-r_param1=10
0000|BB|--
0000|BB|--
0001|00|--
0100|00|-- fx-l_param1=10 fx-r_param1=10
0000|BB|--
0000|BB|--
0010|00|--
1000|00|-- fx-l_param1=10 fx-r_param1=10
0000|BB|--
0000|BB|--
0001|00|--
0100|00|--
-- fx-l_param1=10 fx-r_param1=10
0000|BB|--
0000|BB|--
0100|00|--
0010|00|-- fx-l_param1=10 fx-r_param1=10
0000|BB|--
0000|BB|--
1000|00|--
0001|00|-- fx-l_param1=10 fx-r_param1=10
0000|BB|--
0000|BB|--
0100|00|--
0010|00|-- fx-l_param1=10 fx-r_param1=10
0000|BB|--
0000|BB|--
1000|00|--
0001|00|--
--
0000|02|0-
0000|00|o-
0000|00|--
0000|00|--
0000|00|--
0000|00|--
0000|20|-o
0000|00|-0
0000|00|--
0000|00|--
0000|00|--
0000|00|--
0110|00|0-
0000|00|o-
0000|00|--
0000|00|--
0000|00|--
0000|00|--
0110|00|-o
0000|00|-0
0000|00|--
0000|00|--
0000|00|--
0000|00|--
0020|00|0-
0020|00|o-
0020|00|:-
0020|00|:-
0020|00|:-
0020|00|:-
0020|00|:-
0020|00|:-
--
0001|00|o-
0000|00|:-
0000|00|:-
0000|00|:-
0010|00|:-
0000|00|:-
0000|00|:-
0000|00|:-
0000|00|0-
0000|00|o-
0000|00|--
0000|00|--
0001|00|--
0010|00|--
0100|00|--
1000|00|--
0001|00|--
0000|00|--
0001|00|--
0000|00|--
0001|00|--
0000|00|--
0001|00|--
0000|00|--
0002|00|--
0002|00|--
0002|00|--
0002|00|--
0020|00|--
0020|00|--
0020|00|--
0020|00|--
--
0200|00|--
0200|00|--
0010|00|--
0100|00|--
1000|00|--
0100|00|--
0010|00|--
0001|00|--
0200|00|--
0200|00|--
2000|00|--
2000|00|--
0001|00|--
0010|00|--
0100|00|--
0010|00|--
--
0001|00|--
0001|00|--
0001|00|--
0001|00|--
0002|00|--
0002|00|--
0010|00|--
0100|00|--
1000|00|--
1000|00|--
1000|00|--
1000|00|--
1000|00|--
0100|00|--
0020|00|--
0020|00|--
--
0100|00|0-
0000|00|:-
0000|00|:-
0000|00|:-
0000|00|:-
0000|00|:-
0000|00|:-
0000|00|:-
0000|00|:-
0000|00|:-
0000|00|:-
0000|00|:-
0000|02|:-
0000|00|:-
0000|00|:-
0000|00|:-
0000|00|:-
0000|00|:-
0000|20|:-
0000|00|:-
0000|00|:-
0000|00|:-
0000|00|:-
0000|00|:-
0000|00|:-
0000|00|:-
0000|00|:-
0000|00|:-
0000|00|:-
0000|00|:-
0000|02|:-
0000|00|:-
0000|00|:-
0000|00|:-
0000|00|:-
0000|00|:-
0000|20|:-
0000|00|:-
0000|00|:-
0000|00|:-
0000|00|:-
0000|00|:-
0000|00|:-
0000|00|:-
0000|00|:-
0000|00|:-
0000|00|:-
0000|00|:-
0000|00|o-
0000|00|:-
0000|00|:-
0000|00|P-
0000|00|:-
0000|00|:-
0000|00|:-
0000|00|:-
0000|22|:-
0000|00|:-
0000|00|:-
0000|00|:-
0000|00|:-
0000|00|:-
0000|00|:-
0000|00|:-
0000|22|:-
0000|00|:-
0000|00|:-
0000|00|:-
0000|00|:-
0000|00|:-
0000|00|:-
0000|00|:-
0000|22|:-
0000|00|:-
0000|00|:-
0000|00|:-
0000|00|:-
0000|00|:-
0000|00|:-
0000|00|:-
0000|22|:-
0000|00|:-
0000|00|:-
0000|00|:-
0000|00|:-
0000|00|:-
0000|00|:-
0000|00|:-
0000|22|:-
0000|00|:-
0000|00|:-
0000|00|:-
0000|00|:-
0000|00|:-
0000|00|:-
0000|00|:-
-- fx-r_param1=10
0000|0B|P-
0000|0B|W-
0000|0B|b-
0000|0B|W-
0001|00|0-
0010|00|:-
0001|00|:-
0010|00|:-
0000|0I|o-
0000|0I|P-
0000|0I|J-
0000|0I|P-
0001|00|o-
0010|00|:-
0100|00|:-
1000|00|:-
--
0000|T0|oo
0000|T0|:P
0000|T0|:J
0000|T0|:P
1000|00|:o
0100|00|::
1000|00|::
0100|00|::
0000|I0|:0
0000|I0|:P
0000|I0|:W
0000|I0|:P
1000|00|:0
0100|00|::
0010|00|::
0001|00|::
--
0000|0U|o0
0000|0U|0:
0000|0U|::
0000|0U|::
0100|00|::
0000|00|::
0010|00|::
0000|00|::
0100|00|::
0000|00|::
0010|00|::
0000|00|::
0100|00|::
0000|00|::
0010|00|::
0000|00|::
0000|0U|0:
0000|0U|o:
0000|0U|::
0000|0U|::
0011|00|::
0000|00|::
1100|00|::
0000|00|::
0011|00|::
0000|00|::
1100|00|::
0000|00|::
0011|00|::
0000|00|::
1100|00|::
0000|00|::
--
0000|20|:0
0000|00|:o
0000|00|::
0000|00|::
0000|00|::
0000|00|::
0000|02|o:
0000|00|0:
0000|00|::
0000|00|::
0000|00|::
0000|00|::
0000|20|:o
0000|00|:0
0000|00|::
0000|00|::
0000|00|::
0000|00|::
0000|02|0:
0000|00|o:
0000|00|::
0000|00|::
0000|00|::
0000|00|::
0000|00|o0
0000|00|6i
0000|00|::
0000|00|::
0000|00|6i
0000|00|o0
0000|00|::
0000|00|::
--
0000|00|o0
0000|00|0o
0000|00|--
0000|00|--
0000|00|--
0000|00|--
0000|00|--
0000|00|--
0000|00|--
0000|00|--
0000|00|--
0000|00|--
0000|00|--
0000|00|--
0000|00|--
0000|00|--
0000|00|--
0000|00|--
0000|00|--
0000|00|--
0000|00|--
0000|00|--
0000|00|--
0000|00|--
0000|00|--
0000|00|--
0000|00|--
0000|00|--
0000|00|--
0000|00|--
0000|00|--
0000|00|--
--
0000|00|--
0000|00|--
0000|00|--
0000|00|--
0000|00|--
0000|00|--
0000|00|--
0000|00|--
0000|00|--
0000|00|--
0000|00|--
0000|00|--
0000|00|--
0000|00|--
0000|00|--
0000|00|--
--
0000|00|--
0000|00|--
0000|00|--
0000|00|--
0000|00|--
0000|00|--
0000|00|--
0000|00|--
0000|00|--
0000|00|--
0000|00|--
0000|00|--
0000|00|--
0000|00|--
0000|00|--
0000|00|--
--
