title=暴走
artist=cosMo@暴走P
effect=MAD CHILD
jacket=n_ja.jpg
illustrator=cosMo@暴走P
difficulty=light
level=4
t=310
m=n.mp3;n.mp3
o=560
bg=grass
layer=arrow
po=0
plength=15000
pfiltergain=0
filtertype=peak
chokkakuvol=0
pfilterdelay=0
ver=140d
--
beat=4/4
t=310
0001|00|--
0001|00|--
--
0001|00|--
0001|00|--
--
2000|00|--
2000|00|--
--
2000|00|--
2000|00|--
0000|00|--
0000|00|--
--
0020|00|--
0020|00|--
--
0020|00|--
0020|00|--
0000|00|--
0000|00|--
--
0002|00|--
0002|00|--
--
0002|00|--
0002|00|--
0000|00|--
0000|00|--
--
0200|00|--
0200|00|--
--
0200|00|--
0200|00|--
0000|00|--
0000|00|--
--
0001|00|--
0001|00|--
--
0010|00|--
0010|00|--
--
1000|00|--
1000|00|--
--
0100|00|--
0100|00|--
--
0001|00|--
0001|00|--
--
0010|00|--
0010|00|--
--
1000|00|--
1000|00|--
--
0000|10|--
0000|10|--
0000|00|--
0000|00|--
--
0001|00|--
0010|00|--
--
0100|00|--
1000|00|--
--
0100|00|--
0010|00|--
--
0000|01|--
0000|01|--
0000|00|--
0000|00|--
--
0100|00|--
0010|00|--
--
0001|00|--
0010|00|--
--
0100|00|--
1000|00|--
--
0000|00|-m
0000|00|-:
0000|00|-2
0000|00|--
0000|00|--
0000|00|--
0000|00|--
0000|00|--
0000|00|--
0000|00|--
0000|00|--
0000|00|--
0000|00|--
0000|00|--
0000|00|--
0000|00|--
0000|00|--
0000|00|--
0000|00|--
0000|00|--
0000|00|--
0000|00|--
0000|00|--
0000|00|--
0000|00|--
0000|00|--
0000|00|--
0000|00|--
0000|00|--
0000|00|--
0000|00|--
0000|00|--
0000|00|--
0000|00|--
0000|00|--
0000|00|--
0000|00|--
0000|00|--
0000|00|--
0000|00|--
0000|00|--
0000|00|--
0000|00|--
0000|00|--
0000|00|--
0000|00|--
0000|00|--
0000|00|--
0000|00|--
0000|00|--
0000|00|--
0000|00|--
0000|00|--
0000|00|--
0000|00|--
0000|00|--
0000|00|--
0000|00|--
0000|00|--
0000|00|--
0000|00|--
0000|00|--
0000|00|--
0000|00|--
--
0000|00|2-
0000|00|:-
--
0000|00|l-
0000|00|:-
0000|00|2-
0000|00|--
--
0000|00|-m
0000|00|-:
--
0000|00|-2
0000|00|-:
0000|00|-m
0000|00|--
--
0000|00|2-
0000|00|:-
--
0000|00|m-
0000|00|:-
--
0000|00|m-
0000|00|:-
--
0000|00|2-
0000|00|--
--
0000|01|--
0000|01|--
0000|00|--
0000|00|--
--
0000|10|--
0000|10|--
0000|00|--
0000|00|--
--
0000|01|--
0000|01|--
0000|00|--
0000|00|--
--
0000|10|--
0000|10|--
0000|00|--
0000|00|--
--
0001|00|--
0010|00|--
--
0100|00|--
1000|00|--
--
0100|00|--
0010|00|--
--
0000|10|--
0000|10|--
0000|00|--
0000|00|--
--
0000|00|-m
0000|00|-:
--
0000|00|-2
0000|00|-:
0000|00|-m
0000|00|--
--
0000|00|2-
0000|00|:-
--
0000|00|l-
0000|00|:-
0000|00|2-
0000|00|--
--
0000|00|-m
0000|00|-:
0000|00|-V
0000|00|-:
0000|00|-:
0000|00|-:
0000|00|-:
0000|00|-:
--
0000|00|-:
--
0000|00|-V
0000|00|-:
--
0000|00|-2
0000|00|-:
0000|00|-m
0000|00|--
--
0000|10|--
0000|10|--
0000|00|--
0000|00|--
--
0000|01|--
0000|01|--
0000|00|--
0000|00|--
--
0000|10|--
0000|10|--
0000|00|--
0000|00|--
--
0000|01|--
0000|01|--
0000|00|--
0000|00|--
--
1000|00|--
0100|00|--
--
0010|00|--
0001|00|--
--
0010|00|--
0100|00|--
--
0000|01|--
0000|01|--
0000|00|--
0000|00|--
--
1000|00|--
1000|00|--
--
0100|00|--
0100|00|--
--
0010|00|--
0010|00|--
--
0000|11|--
0000|11|--
0000|00|--
0000|00|--
--
0001|00|--
0001|00|--
--
0010|00|--
0010|00|--
--
0100|00|--
0100|00|--
--
0000|02|--
0000|02|--
0000|02|--
0000|00|--
--
1000|00|--
1000|00|--
--
0100|00|--
0100|00|--
--
0010|00|--
0010|00|--
--
0001|00|--
0001|00|--
--
0010|00|--
0010|00|--
--
0100|00|--
0100|00|--
--
1000|00|--
1000|00|--
--
0000|02|--
0000|02|--
0000|02|--
0000|00|--
--
0000|00|2-
0000|00|:-
--
0000|00|:-
--
0000|00|l-
0000|00|:-
--
0000|00|:-
0000|00|:-
0000|00|2-
0000|00|--
--
0000|00|-m
0000|00|-:
--
0000|00|-:
--
0000|00|-:
0000|00|-:
0000|00|-2
0000|00|--
--
0000|20|--
0000|20|--
0000|20|--
0000|00|--
--
0001|00|--
1000|00|--
--
0010|00|--
0100|00|--
--
0001|00|--
1000|00|--
--
0010|00|--
0100|00|--
--
0001|00|--
0100|00|--
--
0010|00|--
1000|00|--
--
0000|11|--
0000|11|--
0000|00|--
0000|00|--
--
0000|20|--
0000|20|--
0000|20|--
0000|00|--
--
0000|00|-m
0000|00|-:
--
0000|00|-2
0000|00|-:
0000|00|-m
0000|00|--
--
0000|00|2-
0000|00|:-
--
0000|00|:-
0000|00|:-
0000|00|l-
0000|00|--
--
0001|00|--
0001|00|--
--
0000|01|--
0000|01|--
0000|00|--
0000|00|--
--
1000|00|--
1000|00|--
--
0000|10|--
0000|10|--
0000|00|--
0000|00|--
--
0000|00|-m
0000|00|-:
--
0000|00|-2
0000|00|-:
0000|00|-m
0000|00|--
--
0000|00|2-
0000|00|:-
--
0000|00|l-
0000|00|:-
0000|00|2-
0000|00|--
--
0001|00|--
0001|00|--
--
0000|10|--
0000|10|--
0000|00|--
0000|00|--
--
1000|00|--
1000|00|--
--
0000|01|--
0000|01|--
0000|00|--
0000|00|--
--
0000|00|2-
0000|00|:-
--
0000|00|l-
0000|00|:-
0000|00|2-
0000|00|--
--
0000|00|-m
0000|00|-:
--
0000|00|-2
0000|00|--
0100|00|--
0000|00|--
--
1000|00|--
1000|00|--
--
0100|00|--
0010|00|--
--
0001|00|--
0010|00|--
--
0100|00|--
1000|00|--
--
0000|00|--
0000|00|--
0000|01|--
0000|01|--
0000|01|--
0000|01|--
0000|01|--
0000|01|--
--
0000|11|--
0000|11|--
0000|00|--
0000|00|--
--
0000|00|-m
0000|00|-:
--
0000|00|-:
--
0000|00|-2
0000|00|-:
0000|00|-m
0000|00|--
0000|00|--
0000|00|--
0000|00|--
0000|00|--
0000|00|--
0000|00|--
0000|00|--
0000|00|--
0000|00|--
0000|00|--
0000|00|--
0000|00|--
0000|00|--
0000|00|--
0000|00|--
0000|00|--
0000|00|--
0000|00|--
0000|00|--
0000|00|--
0000|00|--
0000|00|--
0000|00|--
0000|00|--
0000|00|--
0000|00|--
0000|00|--
0000|00|--
0000|00|--
0000|00|--
0000|00|--
0000|00|--
0000|00|--
0000|00|--
0000|00|--
0000|00|--
0000|00|--
0000|00|--
0000|00|--
0000|00|--
0000|00|--
0000|00|--
0000|00|--
0000|00|--
0000|00|--
0000|00|--
0000|00|--
0000|00|--
0000|00|--
0000|00|--
0000|00|--
0000|00|--
0000|00|--
0000|00|--
0000|00|--
0000|00|--
0000|00|--
0000|00|--
0000|00|--
0000|00|--
--
0000|00|--
--
0220|00|--
0220|00|--
--
0220|00|--
--
0220|00|--
--
0220|00|--
0220|00|--
0000|00|--
0000|00|--
--
0000|01|--
0000|01|--
--
0000|01|--
--
0000|01|--
--
0000|01|--
0000|01|--
0000|00|--
0000|00|--
--
0000|00|2-
0000|00|:-
--
0000|00|l-
0000|00|--
--
