title=L4TS
artist=cittan* feat. kalon.&core*mc
effect=MAD CHILD
jacket=nov_jacket.png
illustrator=NACL
difficulty=light
level=3
t=190
m=nofx.ogg
mvol=70
o=0
bg=night
layer=smoke
po=42030
plength=15000
pfiltergain=50
filtertype=peak
chokkakuvol=50
icon=../sdvx02.png
ver=140d
--
beat=4/4
t=190
tilt=normal
0000|00|--
0000|00|--
0000|00|--
0000|00|--
0000|00|--
0000|00|--
0000|00|--
0000|00|--
0000|00|--
0000|00|--
0000|00|--
0000|00|--
0000|00|--
0000|00|--
0000|00|--
0000|00|--
0000|00|--
0000|00|--
0000|00|--
0000|00|--
0000|00|--
0000|00|--
0000|00|--
0000|00|--
0000|00|--
0000|00|--
0000|00|--
0000|00|--
0000|00|--
0000|00|--
0000|00|--
0000|00|--
0000|00|--
0000|00|--
0000|00|--
0000|00|--
0000|00|--
0000|00|--
0000|00|--
0000|00|--
0000|00|--
0000|00|--
0000|00|--
0000|00|--
0000|00|--
0000|00|--
0000|00|--
0000|00|--
0000|00|--
0000|00|--
0000|00|--
0000|00|--
0000|00|--
0000|00|--
0000|00|--
0000|00|--
0000|00|--
0000|00|--
0000|00|--
0000|00|--
0000|00|--
0000|00|--
0000|00|--
0000|00|--
--
0000|00|--
0000|00|--
0000|00|--
0000|00|--
0000|00|--
0000|00|--
0000|00|--
0000|00|--
0000|00|--
0000|00|--
0000|00|--
0000|00|--
0000|00|--
0000|00|--
0000|00|--
0000|00|--
0000|00|--
0000|00|--
0000|00|--
0000|00|--
0000|00|--
0000|00|--
0000|00|--
0000|00|--
0000|00|--
0000|00|--
0000|00|--
0000|00|--
0000|00|--
0000|00|--
0000|00|--
0000|00|--
0000|00|--
0000|00|--
0000|00|--
0000|00|--
0000|00|--
0000|00|--
0000|00|--
0000|00|--
0000|00|--
0000|00|--
0000|00|--
0000|00|--
0000|00|--
0000|00|--
0000|00|--
0000|00|--
0000|00|--
0000|00|--
0000|00|--
0000|00|--
0000|00|--
0000|00|--
0000|00|--
0000|00|--
0000|00|--
0000|00|--
0000|00|--
0000|00|--
0000|00|--
0000|00|--
0000|00|--
0000|00|--
--
0110|00|--
0000|00|--
0000|00|--
0000|00|--
0000|00|--
0000|00|--
0000|00|--
0000|00|--
0000|00|--
0000|00|--
0000|00|--
0000|00|--
0000|00|--
0000|00|--
0000|00|--
0000|00|--
0000|00|--
0000|00|--
0000|00|--
0000|00|--
0000|00|--
0000|00|--
0000|00|--
0000|00|--
0000|00|--
0000|00|--
0000|00|--
0000|00|--
0000|00|--
0000|00|--
0000|00|--
0000|00|--
0000|00|--
0000|00|--
0000|00|--
0000|00|--
0000|00|--
0000|00|--
0000|00|--
0000|00|--
0000|00|--
0000|00|--
0000|00|--
0000|00|--
0000|00|--
0000|00|--
0000|00|--
0000|00|--
0000|00|--
0000|00|--
0000|00|--
0000|00|--
0000|00|--
0000|00|--
0000|00|--
0000|00|--
0000|00|--
0000|00|--
0000|00|--
0000|00|--
0000|00|--
0000|00|--
0000|00|--
0000|00|--
--
0000|00|--
0000|00|--
0000|00|--
0000|00|--
0000|00|--
0000|00|--
0000|00|--
0000|00|--
0000|00|--
0000|00|--
0000|00|--
0000|00|--
0000|00|--
0000|00|--
0000|00|--
0000|00|--
0000|00|--
0000|00|--
0000|00|--
0000|00|--
0000|00|--
0000|00|--
0000|00|--
0000|00|--
0000|00|--
0000|00|--
0000|00|--
0000|00|--
0000|00|--
0000|00|--
0000|00|--
0000|00|--
0000|00|--
0000|00|--
0000|00|--
0000|00|--
0000|00|--
0000|00|--
0000|00|--
0000|00|--
0000|00|--
0000|00|--
0000|00|--
0000|00|--
0000|00|--
0000|00|--
0000|00|--
0000|00|--
0000|00|--
0000|00|--
0000|00|--
0000|00|--
0000|00|--
0000|00|--
0000|00|--
0000|00|--
0000|00|--
0000|00|--
0000|00|--
0000|00|--
0000|00|--
0000|00|--
0000|00|--
0000|00|--
--
1100|00|--
0000|00|--
0000|00|--
0000|00|--
0000|00|--
0000|00|--
0000|00|--
0000|00|--
0000|00|--
0000|00|--
0000|00|--
0000|00|--
0000|00|--
0000|00|--
0000|00|--
0000|00|--
0000|00|--
0000|00|--
0000|00|--
0000|00|--
0000|00|--
0000|00|--
0000|00|--
0000|00|--
0000|00|--
0000|00|--
0000|00|--
0000|00|--
0000|00|--
0000|00|--
0000|00|--
0000|00|--
0000|00|--
0000|00|--
0000|00|--
0000|00|--
0000|00|--
0000|00|--
0000|00|--
0000|00|--
0000|00|--
0000|00|--
0000|00|--
0000|00|--
0000|00|--
0000|00|--
0000|00|--
0000|00|--
0000|00|--
0000|00|--
0000|00|--
0000|00|--
0000|00|--
0000|00|--
0000|00|--
0000|00|--
0000|00|--
0000|00|--
0000|00|--
0000|00|--
0000|00|--
0000|00|--
0000|00|--
0000|00|--
--
0000|00|--
0000|00|--
0000|00|--
0000|00|--
0000|00|--
0000|00|--
0000|00|--
0000|00|--
0000|00|--
0000|00|--
0000|00|--
0000|00|--
0000|00|--
0000|00|--
0000|00|--
0000|00|--
0000|00|--
0000|00|--
0000|00|--
0000|00|--
0000|00|--
0000|00|--
0000|00|--
0000|00|--
0000|00|--
0000|00|--
0000|00|--
0000|00|--
0000|00|--
0000|00|--
0000|00|--
0000|00|--
0000|00|--
0000|00|--
0000|00|--
0000|00|--
0000|00|--
0000|00|--
0000|00|--
0000|00|--
0000|00|--
0000|00|--
0000|00|--
0000|00|--
0000|00|--
0000|00|--
0000|00|--
0000|00|--
0000|00|--
0000|00|--
0000|00|--
0000|00|--
0000|00|--
0000|00|--
0000|00|--
0000|00|--
0000|00|--
0000|00|--
0000|00|--
0000|00|--
0000|00|--
0000|00|--
0000|00|--
0000|00|--
--
0011|00|--
0000|00|--
0000|00|--
0000|00|--
0000|00|--
0000|00|--
0000|00|--
0000|00|--
0000|00|--
0000|00|--
0000|00|--
0000|00|--
0000|00|--
0000|00|--
0000|00|--
0000|00|--
0000|00|--
0000|00|--
0000|00|--
0000|00|--
0000|00|--
0000|00|--
0000|00|--
0000|00|--
0000|00|--
0000|00|--
0000|00|--
0000|00|--
0000|00|--
0000|00|--
0000|00|--
0000|00|--
0000|00|--
0000|00|--
0000|00|--
0000|00|--
0000|00|--
0000|00|--
0000|00|--
0000|00|--
0000|00|--
0000|00|--
0000|00|--
0000|00|--
0000|00|--
0000|00|--
0000|00|--
0000|00|--
0000|00|--
0000|00|--
0000|00|--
0000|00|--
0000|00|--
0000|00|--
0000|00|--
0000|00|--
0000|00|--
0000|00|--
0000|00|--
0000|00|--
0000|00|--
0000|00|--
0000|00|--
0000|00|--
--
0000|00|--
0000|00|--
0000|00|--
0000|00|--
0000|00|--
0000|00|--
0000|00|--
0000|00|--
0000|00|--
0000|00|--
0000|00|--
0000|00|--
0000|00|--
0000|00|--
0000|00|--
0000|00|--
0000|00|--
0000|00|--
0000|00|--
0000|00|--
0000|00|--
0000|00|--
0000|00|--
0000|00|--
0000|00|--
0000|00|--
0000|00|--
0000|00|--
0000|00|--
0000|00|--
0000|00|--
0000|00|--
0000|00|--
0000|00|--
0000|00|--
0000|00|--
0000|00|--
0000|00|--
0000|00|--
0000|00|--
0000|00|--
0000|00|--
0000|00|--
0000|00|--
0000|00|--
0000|00|--
0000|00|--
0000|00|--
0000|00|--
0000|00|--
0000|00|--
0000|00|--
0000|00|--
0000|00|--
0000|00|--
0000|00|--
0000|00|--
0000|00|--
0000|00|--
0000|00|--
0000|00|--
0000|00|--
0000|00|--
0000|00|--
--
0000|10|--
0000|10|--
0000|10|--
0000|10|--
0000|10|--
0000|10|--
0000|10|--
0000|10|--
0000|10|--
0000|10|--
0000|10|--
0000|10|--
0000|10|--
0000|10|--
0000|10|--
0000|10|--
0000|10|--
0000|10|--
0000|10|--
0000|10|--
0000|10|--
0000|10|--
0000|10|--
0000|10|--
0000|10|--
0000|10|--
0000|10|--
0000|10|--
0000|10|--
0000|10|--
0000|10|--
0000|10|--
0000|10|--
0000|10|--
0000|10|--
0000|10|--
0000|10|--
0000|10|--
0000|10|--
0000|10|--
0000|10|--
0000|10|--
0000|10|--
0000|10|--
0000|10|--
0000|10|--
0000|10|--
0000|10|--
0000|10|--
0000|10|--
0000|10|--
0000|10|--
0000|10|--
0000|10|--
0000|10|--
0000|10|--
0000|10|--
0000|10|--
0000|10|--
0000|10|--
0000|10|--
0000|10|--
0000|10|--
0000|10|--
--
0000|00|--
0000|00|--
0000|00|--
0000|00|--
0000|00|--
0000|00|--
0000|00|--
0000|00|--
0000|00|--
0000|00|--
0000|00|--
0000|00|--
0000|00|--
0000|00|--
0000|00|--
0000|00|--
0000|00|--
0000|00|--
0000|00|--
0000|00|--
0000|00|--
0000|00|--
0000|00|--
0000|00|--
0000|00|--
0000|00|--
0000|00|--
0000|00|--
0000|00|--
0000|00|--
0000|00|--
0000|00|--
0000|00|--
0000|00|--
0000|00|--
0000|00|--
0000|00|--
0000|00|--
0000|00|--
0000|00|--
0000|00|--
0000|00|--
0000|00|--
0000|00|--
0000|00|--
0000|00|--
0000|00|--
0000|00|--
0000|00|--
0000|00|--
0000|00|--
0000|00|--
0000|00|--
0000|00|--
0000|00|--
0000|00|--
0000|00|--
0000|00|--
0000|00|--
0000|00|--
0000|00|--
0000|00|--
0000|00|--
0000|00|--
--
0110|00|--
0000|00|--
0000|00|--
0000|00|--
0000|00|--
0000|00|--
0000|00|--
0000|00|--
0000|00|--
0000|00|--
0000|00|--
0000|00|--
0000|00|--
0000|00|--
0000|00|--
0000|00|--
0000|00|--
0000|00|--
0000|00|--
0000|00|--
0000|00|--
0000|00|--
0000|00|--
0000|00|--
0000|00|--
0000|00|--
0000|00|--
0000|00|--
0000|00|--
0000|00|--
0000|00|--
0000|00|--
0000|00|--
0000|00|--
0000|00|--
0000|00|--
0000|00|--
0000|00|--
0000|00|--
0000|00|--
0000|00|--
0000|00|--
0000|00|--
0000|00|--
0000|00|--
0000|00|--
0000|00|--
0000|00|--
0000|00|--
0000|00|--
0000|00|--
0000|00|--
0000|00|--
0000|00|--
0000|00|--
0000|00|--
0000|00|--
0000|00|--
0000|00|--
0000|00|--
0000|00|--
0000|00|--
0000|00|--
0000|00|--
--
0000|00|--
0000|00|--
0000|00|--
0000|00|--
0000|00|--
0000|00|--
0000|00|--
0000|00|--
0000|00|--
0000|00|--
0000|00|--
0000|00|--
0000|00|--
0000|00|--
0000|00|--
0000|00|--
0000|00|--
0000|00|--
0000|00|--
0000|00|--
0000|00|--
0000|00|--
0000|00|--
0000|00|--
0000|00|--
0000|00|--
0000|00|--
0000|00|--
0000|00|--
0000|00|--
0000|00|--
0000|00|--
0000|00|--
0000|00|--
0000|00|--
0000|00|--
0000|00|--
0000|00|--
0000|00|--
0000|00|--
0000|00|--
0000|00|--
0000|00|--
0000|00|--
0000|00|--
0000|00|--
0000|00|--
0000|00|--
0000|00|--
0000|00|--
0000|00|--
0000|00|--
0000|00|--
0000|00|--
0000|00|--
0000|00|--
0000|00|--
0000|00|--
0000|00|--
0000|00|--
0000|00|--
0000|00|--
0000|00|--
0000|00|--
--
0011|00|--
0000|00|--
0000|00|--
0000|00|--
0000|00|--
0000|00|--
0000|00|--
0000|00|--
0000|00|--
0000|00|--
0000|00|--
0000|00|--
0000|00|--
0000|00|--
0000|00|--
0000|00|--
0000|00|--
0000|00|--
0000|00|--
0000|00|--
0000|00|--
0000|00|--
0000|00|--
0000|00|--
0000|00|--
0000|00|--
0000|00|--
0000|00|--
0000|00|--
0000|00|--
0000|00|--
0000|00|--
0000|00|--
0000|00|--
0000|00|--
0000|00|--
0000|00|--
0000|00|--
0000|00|--
0000|00|--
0000|00|--
0000|00|--
0000|00|--
0000|00|--
0000|00|--
0000|00|--
0000|00|--
0000|00|--
0000|00|--
0000|00|--
0000|00|--
0000|00|--
0000|00|--
0000|00|--
0000|00|--
0000|00|--
0000|00|--
0000|00|--
0000|00|--
0000|00|--
0000|00|--
0000|00|--
0000|00|--
0000|00|--
--
0000|00|--
0000|00|--
0000|00|--
0000|00|--
0000|00|--
0000|00|--
0000|00|--
0000|00|--
0000|00|--
0000|00|--
0000|00|--
0000|00|--
0000|00|--
0000|00|--
0000|00|--
0000|00|--
0000|00|--
0000|00|--
0000|00|--
0000|00|--
0000|00|--
0000|00|--
0000|00|--
0000|00|--
0000|00|--
0000|00|--
0000|00|--
0000|00|--
0000|00|--
0000|00|--
0000|00|--
0000|00|--
0000|00|--
0000|00|--
0000|00|--
0000|00|--
0000|00|--
0000|00|--
0000|00|--
0000|00|--
0000|00|--
0000|00|--
0000|00|--
0000|00|--
0000|00|--
0000|00|--
0000|00|--
0000|00|--
0000|00|--
0000|00|--
0000|00|--
0000|00|--
0000|00|--
0000|00|--
0000|00|--
0000|00|--
0000|00|--
0000|00|--
0000|00|--
0000|00|--
0000|00|--
0000|00|--
0000|00|--
0000|00|--
--
1100|00|--
0000|00|--
0000|00|--
0000|00|--
0000|00|--
0000|00|--
0000|00|--
0000|00|--
0000|00|--
0000|00|--
0000|00|--
0000|00|--
0000|00|--
0000|00|--
0000|00|--
0000|00|--
0000|00|--
0000|00|--
0000|00|--
0000|00|--
0000|00|--
0000|00|--
0000|00|--
0000|00|--
0000|00|--
0000|00|--
0000|00|--
0000|00|--
0000|00|--
0000|00|--
0000|00|--
0000|00|--
0000|00|--
0000|00|--
0000|00|--
0000|00|--
0000|00|--
0000|00|--
0000|00|--
0000|00|--
0000|00|--
0000|00|--
0000|00|--
0000|00|--
0000|00|--
0000|00|--
0000|00|--
0000|00|--
0000|00|--
0000|00|--
0000|00|--
0000|00|--
0000|00|--
0000|00|--
0000|00|--
0000|00|--
0000|00|--
0000|00|--
0000|00|--
0000|00|--
0000|00|--
0000|00|--
0000|00|--
0000|00|--
--
0000|00|--
0000|00|--
0000|00|--
0000|00|--
0000|00|--
0000|00|--
0000|00|--
0000|00|--
0000|00|--
0000|00|--
0000|00|--
0000|00|--
0000|00|--
0000|00|--
0000|00|--
0000|00|--
0000|00|--
0000|00|--
0000|00|--
0000|00|--
0000|00|--
0000|00|--
0000|00|--
0000|00|--
0000|00|--
0000|00|--
0000|00|--
0000|00|--
0000|00|--
0000|00|--
0000|00|--
0000|00|--
0000|00|--
0000|00|--
0000|00|--
0000|00|--
0000|00|--
0000|00|--
0000|00|--
0000|00|--
0000|00|--
0000|00|--
0000|00|--
0000|00|--
0000|00|--
0000|00|--
0000|00|--
0000|00|--
0000|00|--
0000|00|--
0000|00|--
0000|00|--
0000|00|--
0000|00|--
0000|00|--
0000|00|--
0000|00|--
0000|00|--
0000|00|--
0000|00|--
0000|00|--
0000|00|--
0000|00|--
0000|00|--
--
0000|01|--
0000|01|--
0000|01|--
0000|01|--
0000|01|--
0000|01|--
0000|01|--
0000|01|--
0000|01|--
0000|01|--
0000|01|--
0000|01|--
0000|01|--
0000|01|--
0000|01|--
0000|01|--
0000|01|--
0000|01|--
0000|01|--
0000|01|--
0000|01|--
0000|01|--
0000|01|--
0000|01|--
0000|01|--
0000|01|--
0000|01|--
0000|01|--
0000|01|--
0000|01|--
0000|01|--
0000|01|--
0000|01|--
0000|01|--
0000|01|--
0000|01|--
0000|01|--
0000|01|--
0000|01|--
0000|01|--
0000|01|--
0000|01|--
0000|01|--
0000|01|--
0000|01|--
0000|01|--
0000|01|--
0000|01|--
0000|01|--
0000|01|--
0000|01|--
0000|01|--
0000|01|--
0000|01|--
0000|01|--
0000|01|--
0000|01|--
0000|01|--
0000|01|--
0000|01|--
0000|01|--
0000|01|--
0000|01|--
0000|01|--
--
0000|00|--
0000|00|--
0000|00|--
0000|00|--
0000|00|--
0000|00|--
0000|00|--
0000|00|--
0000|00|--
0000|00|--
0000|00|--
0000|00|--
0000|00|--
0000|00|--
0000|00|--
0000|00|--
0000|00|--
0000|00|--
0000|00|--
0000|00|--
0000|00|--
0000|00|--
0000|00|--
0000|00|--
0000|00|--
0000|00|--
0000|00|--
0000|00|--
0000|00|--
0000|00|--
0000|00|--
0000|00|--
0000|00|--
0000|00|--
0000|00|--
0000|00|--
0000|00|--
0000|00|--
0000|00|--
0000|00|--
0000|00|--
0000|00|--
0000|00|--
0000|00|--
0000|00|--
0000|00|--
0000|00|--
0000|00|--
0000|00|--
0000|00|--
0000|00|--
0000|00|--
0000|00|--
0000|00|--
0000|00|--
0000|00|--
0000|00|--
0000|00|--
0000|00|--
0000|00|--
0000|00|--
0000|00|--
0000|00|--
0000|00|--
--
0100|00|--
0000|00|--
0000|00|--
0000|00|--
0000|00|--
0000|00|--
0000|00|--
0000|00|--
0000|00|--
0000|00|--
0000|00|--
0000|00|--
0000|00|--
0000|00|--
0000|00|--
0000|00|--
0000|00|--
0000|00|--
0000|00|--
0000|00|--
0000|00|--
0000|00|--
0000|00|--
0000|00|--
0000|00|--
0000|00|--
0000|00|--
0000|00|--
0000|00|--
0000|00|--
0000|00|--
0000|00|--
0100|00|--
0000|00|--
0000|00|--
0000|00|--
0000|00|--
0000|00|--
0000|00|--
0000|00|--
0000|00|--
0000|00|--
0000|00|--
0000|00|--
0000|00|--
0000|00|--
0000|00|--
0000|00|--
0000|00|--
0000|00|--
0000|00|--
0000|00|--
0000|00|--
0000|00|--
0000|00|--
0000|00|--
0000|00|--
0000|00|--
0000|00|--
0000|00|--
0000|00|--
0000|00|--
0000|00|--
0000|00|--
--
0100|00|--
0000|00|--
0000|00|--
0000|00|--
0000|00|--
0000|00|--
0000|00|--
0000|00|--
0000|00|--
0000|00|--
0000|00|--
0000|00|--
0000|00|--
0000|00|--
0000|00|--
0000|00|--
0000|00|--
0000|00|--
0000|00|--
0000|00|--
0000|00|--
0000|00|--
0000|00|--
0000|00|--
0000|00|--
0000|00|--
0000|00|--
0000|00|--
0000|00|--
0000|00|--
0000|00|--
0000|00|--
0100|00|--
0000|00|--
0000|00|--
0000|00|--
0000|00|--
0000|00|--
0000|00|--
0000|00|--
0000|00|--
0000|00|--
0000|00|--
0000|00|--
0000|00|--
0000|00|--
0000|00|--
0000|00|--
0000|00|--
0000|00|--
0000|00|--
0000|00|--
0000|00|--
0000|00|--
0000|00|--
0000|00|--
0000|00|--
0000|00|--
0000|00|--
0000|00|--
0000|00|--
0000|00|--
0000|00|--
0000|00|--
--
0010|00|--
0000|00|--
0000|00|--
0000|00|--
0000|00|--
0000|00|--
0000|00|--
0000|00|--
0000|00|--
0000|00|--
0000|00|--
0000|00|--
0000|00|--
0000|00|--
0000|00|--
0000|00|--
0000|00|--
0000|00|--
0000|00|--
0000|00|--
0000|00|--
0000|00|--
0000|00|--
0000|00|--
0000|00|--
0000|00|--
0000|00|--
0000|00|--
0000|00|--
0000|00|--
0000|00|--
0000|00|--
0010|00|--
0000|00|--
0000|00|--
0000|00|--
0000|00|--
0000|00|--
0000|00|--
0000|00|--
0000|00|--
0000|00|--
0000|00|--
0000|00|--
0000|00|--
0000|00|--
0000|00|--
0000|00|--
0000|00|--
0000|00|--
0000|00|--
0000|00|--
0000|00|--
0000|00|--
0000|00|--
0000|00|--
0000|00|--
0000|00|--
0000|00|--
0000|00|--
0000|00|--
0000|00|--
0000|00|--
0000|00|--
--
0010|00|--
0000|00|--
0000|00|--
0000|00|--
0000|00|--
0000|00|--
0000|00|--
0000|00|--
0000|00|--
0000|00|--
0000|00|--
0000|00|--
0000|00|--
0000|00|--
0000|00|--
0000|00|--
0000|00|--
0000|00|--
0000|00|--
0000|00|--
0000|00|--
0000|00|--
0000|00|--
0000|00|--
0000|00|--
0000|00|--
0000|00|--
0000|00|--
0000|00|--
0000|00|--
0000|00|--
0000|00|--
0010|00|--
0000|00|--
0000|00|--
0000|00|--
0000|00|--
0000|00|--
0000|00|--
0000|00|--
0000|00|--
0000|00|--
0000|00|--
0000|00|--
0000|00|--
0000|00|--
0000|00|--
0000|00|--
0000|00|--
0000|00|--
0000|00|--
0000|00|--
0000|00|--
0000|00|--
0000|00|--
0000|00|--
0000|00|--
0000|00|--
0000|00|--
0000|00|--
0000|00|--
0000|00|--
0000|00|--
0000|00|--
--
0000|10|--
0000|10|--
0000|10|--
0000|10|--
0000|10|--
0000|10|--
0000|10|--
0000|10|--
0000|10|--
0000|10|--
0000|10|--
0000|10|--
0000|10|--
0000|10|--
0000|10|--
0000|10|--
0000|10|--
0000|10|--
0000|10|--
0000|10|--
0000|10|--
0000|10|--
0000|10|--
0000|10|--
0000|10|--
0000|10|--
0000|10|--
0000|10|--
0000|10|--
0000|10|--
0000|10|--
0000|10|--
0000|00|--
0000|00|--
0000|00|--
0000|00|--
0000|00|--
0000|00|--
0000|00|--
0000|00|--
0000|00|--
0000|00|--
0000|00|--
0000|00|--
0000|00|--
0000|00|--
0000|00|--
0000|00|--
0000|00|--
0000|00|--
0000|00|--
0000|00|--
0000|00|--
0000|00|--
0000|00|--
0000|00|--
0000|00|--
0000|00|--
0000|00|--
0000|00|--
0000|00|--
0000|00|--
0000|00|--
0000|00|--
--
0000|01|--
0000|01|--
0000|01|--
0000|01|--
0000|01|--
0000|01|--
0000|01|--
0000|01|--
0000|01|--
0000|01|--
0000|01|--
0000|01|--
0000|01|--
0000|01|--
0000|01|--
0000|01|--
0000|01|--
0000|01|--
0000|01|--
0000|01|--
0000|01|--
0000|01|--
0000|01|--
0000|01|--
0000|01|--
0000|01|--
0000|01|--
0000|01|--
0000|01|--
0000|01|--
0000|01|--
0000|01|--
0000|00|--
0000|00|--
0000|00|--
0000|00|--
0000|00|--
0000|00|--
0000|00|--
0000|00|--
0000|00|--
0000|00|--
0000|00|--
0000|00|--
0000|00|--
0000|00|--
0000|00|--
0000|00|--
0000|00|--
0000|00|--
0000|00|--
0000|00|--
0000|00|--
0000|00|--
0000|00|--
0000|00|--
0000|00|--
0000|00|--
0000|00|--
0000|00|--
0000|00|--
0000|00|--
0000|00|--
0000|00|--
--
0000|10|--
0000|10|--
0000|10|--
0000|10|--
0000|10|--
0000|10|--
0000|10|--
0000|10|--
0000|10|--
0000|10|--
0000|10|--
0000|10|--
0000|10|--
0000|10|--
0000|10|--
0000|10|--
0000|10|--
0000|10|--
0000|10|--
0000|10|--
0000|10|--
0000|10|--
0000|10|--
0000|10|--
0000|10|--
0000|10|--
0000|10|--
0000|10|--
0000|10|--
0000|10|--
0000|10|--
0000|10|--
0000|00|--
0000|00|--
0000|00|--
0000|00|--
0000|00|--
0000|00|--
0000|00|--
0000|00|--
0000|00|--
0000|00|--
0000|00|--
0000|00|--
0000|00|--
0000|00|--
0000|00|--
0000|00|--
0000|00|--
0000|00|--
0000|00|--
0000|00|--
0000|00|--
0000|00|--
0000|00|--
0000|00|--
0000|00|--
0000|00|--
0000|00|--
0000|00|--
0000|00|--
0000|00|--
0000|00|--
0000|00|--
--
0000|01|--
0000|01|--
0000|01|--
0000|01|--
0000|01|--
0000|01|--
0000|01|--
0000|01|--
0000|01|--
0000|01|--
0000|01|--
0000|01|--
0000|01|--
0000|01|--
0000|01|--
0000|01|--
0000|01|--
0000|01|--
0000|01|--
0000|01|--
0000|01|--
0000|01|--
0000|01|--
0000|01|--
0000|01|--
0000|01|--
0000|01|--
0000|01|--
0000|01|--
0000|01|--
0000|01|--
0000|01|--
0000|00|--
0000|00|--
0000|00|--
0000|00|--
0000|00|--
0000|00|--
0000|00|--
0000|00|--
0000|00|--
0000|00|--
0000|00|--
0000|00|--
0000|00|--
0000|00|--
0000|00|--
0000|00|--
0000|00|--
0000|00|--
0000|00|--
0000|00|--
0000|00|--
0000|00|--
0000|00|--
0000|00|--
0000|00|--
0000|00|--
0000|00|--
0000|00|--
0000|00|--
0000|00|--
0000|00|--
0000|00|--
--
0000|00|0-
0000|00|:-
0000|00|:-
0000|00|:-
0000|00|:-
0000|00|:-
0000|00|:-
0000|00|:-
0000|00|:-
0000|00|:-
0000|00|:-
0000|00|:-
0000|00|:-
0000|00|:-
0000|00|:-
0000|00|:-
0000|00|:-
0000|00|:-
0000|00|:-
0000|00|:-
0000|00|:-
0000|00|:-
0000|00|:-
0000|00|:-
0000|00|:-
0000|00|:-
0000|00|:-
0000|00|:-
0000|00|:-
0000|00|:-
0000|00|:-
0000|00|:-
0000|00|o-
0000|00|:-
0000|00|:-
0000|00|:-
0000|00|:-
0000|00|:-
0000|00|:-
0000|00|:-
0000|00|:-
0000|00|:-
0000|00|:-
0000|00|:-
0000|00|:-
0000|00|:-
0000|00|:-
0000|00|:-
0000|00|:-
0000|00|:-
0000|00|:-
0000|00|:-
0000|00|:-
0000|00|:-
0000|00|:-
0000|00|:-
0000|00|:-
0000|00|:-
0000|00|:-
0000|00|:-
0000|00|:-
0000|00|:-
0000|00|:-
0000|00|:-
--
0000|00|o-
0000|00|:-
0000|00|:-
0000|00|:-
0000|00|:-
0000|00|:-
0000|00|:-
0000|00|:-
0000|00|:-
0000|00|:-
0000|00|:-
0000|00|:-
0000|00|:-
0000|00|:-
0000|00|:-
0000|00|:-
0000|00|:-
0000|00|:-
0000|00|:-
0000|00|:-
0000|00|:-
0000|00|:-
0000|00|:-
0000|00|:-
0000|00|:-
0000|00|:-
0000|00|:-
0000|00|:-
0000|00|:-
0000|00|:-
0000|00|:-
0000|00|:-
0000|00|0-
0000|00|--
0000|00|--
0000|00|--
0000|00|--
0000|00|--
0000|00|--
0000|00|--
0000|00|--
0000|00|--
0000|00|--
0000|00|--
0000|00|--
0000|00|--
0000|00|--
0000|00|--
0000|00|--
0000|00|--
0000|00|--
0000|00|--
0000|00|--
0000|00|--
0000|00|--
0000|00|--
0000|00|--
0000|00|--
0000|00|--
0000|00|--
0000|00|--
0000|00|--
0000|00|--
0000|00|--
--
0000|00|-o
0000|00|-:
0000|00|-:
0000|00|-:
0000|00|-:
0000|00|-:
0000|00|-:
0000|00|-:
0000|00|-:
0000|00|-:
0000|00|-:
0000|00|-:
0000|00|-:
0000|00|-:
0000|00|-:
0000|00|-:
0000|00|-:
0000|00|-:
0000|00|-:
0000|00|-:
0000|00|-:
0000|00|-:
0000|00|-:
0000|00|-:
0000|00|-:
0000|00|-:
0000|00|-:
0000|00|-:
0000|00|-:
0000|00|-:
0000|00|-:
0000|00|-:
0000|00|-0
0000|00|-:
0000|00|-:
0000|00|-:
0000|00|-:
0000|00|-:
0000|00|-:
0000|00|-:
0000|00|-:
0000|00|-:
0000|00|-:
0000|00|-:
0000|00|-:
0000|00|-:
0000|00|-:
0000|00|-:
0000|00|-:
0000|00|-:
0000|00|-:
0000|00|-:
0000|00|-:
0000|00|-:
0000|00|-:
0000|00|-:
0000|00|-:
0000|00|-:
0000|00|-:
0000|00|-:
0000|00|-:
0000|00|-:
0000|00|-:
0000|00|-:
--
0000|00|-0
0000|00|-:
0000|00|-:
0000|00|-:
0000|00|-:
0000|00|-:
0000|00|-:
0000|00|-:
0000|00|-:
0000|00|-:
0000|00|-:
0000|00|-:
0000|00|-:
0000|00|-:
0000|00|-:
0000|00|-:
0000|00|-:
0000|00|-:
0000|00|-:
0000|00|-:
0000|00|-:
0000|00|-:
0000|00|-:
0000|00|-:
0000|00|-:
0000|00|-:
0000|00|-:
0000|00|-:
0000|00|-:
0000|00|-:
0000|00|-:
0000|00|-:
0000|00|-o
0000|00|--
0000|00|--
0000|00|--
0000|00|--
0000|00|--
0000|00|--
0000|00|--
0000|00|--
0000|00|--
0000|00|--
0000|00|--
0000|00|--
0000|00|--
0000|00|--
0000|00|--
0000|00|--
0000|00|--
0000|00|--
0000|00|--
0000|00|--
0000|00|--
0000|00|--
0000|00|--
0000|00|--
0000|00|--
0000|00|--
0000|00|--
0000|00|--
0000|00|--
0000|00|--
0000|00|--
--
0000|00|0-
0000|00|:-
0000|00|:-
0000|00|:-
0000|00|:-
0000|00|:-
0000|00|:-
0000|00|:-
0000|00|:-
0000|00|:-
0000|00|:-
0000|00|:-
0000|00|:-
0000|00|:-
0000|00|:-
0000|00|:-
0000|00|:-
0000|00|:-
0000|00|:-
0000|00|:-
0000|00|:-
0000|00|:-
0000|00|:-
0000|00|:-
0000|00|:-
0000|00|:-
0000|00|:-
0000|00|:-
0000|00|:-
0000|00|:-
0000|00|:-
0000|00|:-
0000|00|o-
0000|00|:-
0000|00|:-
0000|00|:-
0000|00|:-
0000|00|:-
0000|00|:-
0000|00|:-
0000|00|:-
0000|00|:-
0000|00|:-
0000|00|:-
0000|00|:-
0000|00|:-
0000|00|:-
0000|00|:-
0000|00|:-
0000|00|:-
0000|00|:-
0000|00|:-
0000|00|:-
0000|00|:-
0000|00|:-
0000|00|:-
0000|00|:-
0000|00|:-
0000|00|:-
0000|00|:-
0000|00|:-
0000|00|:-
0000|00|:-
0000|00|:-
--
0000|00|o-
0000|00|:-
0000|00|:-
0000|00|:-
0000|00|:-
0000|00|:-
0000|00|:-
0000|00|:-
0000|00|:-
0000|00|:-
0000|00|:-
0000|00|:-
0000|00|:-
0000|00|:-
0000|00|:-
0000|00|:-
0000|00|:-
0000|00|:-
0000|00|:-
0000|00|:-
0000|00|:-
0000|00|:-
0000|00|:-
0000|00|:-
0000|00|:-
0000|00|:-
0000|00|:-
0000|00|:-
0000|00|:-
0000|00|:-
0000|00|:-
0000|00|:-
0000|00|0-
0000|00|--
0000|00|--
0000|00|--
0000|00|--
0000|00|--
0000|00|--
0000|00|--
0000|00|--
0000|00|--
0000|00|--
0000|00|--
0000|00|--
0000|00|--
0000|00|--
0000|00|--
0000|00|--
0000|00|--
0000|00|--
0000|00|--
0000|00|--
0000|00|--
0000|00|--
0000|00|--
0000|00|--
0000|00|--
0000|00|--
0000|00|--
0000|00|--
0000|00|--
0000|00|--
0000|00|--
--
0000|00|-o
0000|00|-:
0000|00|-:
0000|00|-:
0000|00|-:
0000|00|-:
0000|00|-:
0000|00|-:
0000|00|-:
0000|00|-:
0000|00|-:
0000|00|-:
0000|00|-:
0000|00|-:
0000|00|-:
0000|00|-:
0000|00|-:
0000|00|-:
0000|00|-:
0000|00|-:
0000|00|-:
0000|00|-:
0000|00|-:
0000|00|-:
0000|00|-:
0000|00|-:
0000|00|-:
0000|00|-:
0000|00|-:
0000|00|-:
0000|00|-:
0000|00|-:
0000|00|-:
0000|00|-:
0000|00|-:
0000|00|-:
0000|00|-:
0000|00|-:
0000|00|-:
0000|00|-:
0000|00|-:
0000|00|-:
0000|00|-:
0000|00|-:
0000|00|-:
0000|00|-:
0000|00|-:
0000|00|-:
0000|00|-:
0000|00|-:
0000|00|-:
0000|00|-:
0000|00|-:
0000|00|-:
0000|00|-:
0000|00|-:
0000|00|-:
0000|00|-:
0000|00|-:
0000|00|-:
0000|00|-:
0000|00|-:
0000|00|-:
0000|00|-:
--
0000|00|-0
0000|00|--
0000|00|--
0000|00|--
0000|00|--
0000|00|--
0000|00|--
0000|00|--
0000|00|--
0000|00|--
0000|00|--
0000|00|--
0000|00|--
0000|00|--
0000|00|--
0000|00|--
0000|00|--
0000|00|--
0000|00|--
0000|00|--
0000|00|--
0000|00|--
0000|00|--
0000|00|--
0000|00|--
0000|00|--
0000|00|--
0000|00|--
0000|00|--
0000|00|--
0000|00|--
0000|00|--
0000|00|--
0000|00|--
0000|00|--
0000|00|--
0000|00|--
0000|00|--
0000|00|--
0000|00|--
0000|00|--
0000|00|--
0000|00|--
0000|00|--
0000|00|--
0000|00|--
0000|00|--
0000|00|--
0000|00|--
0000|00|--
0000|00|--
0000|00|--
0000|00|--
0000|00|--
0000|00|--
0000|00|--
0000|00|--
0000|00|--
0000|00|--
0000|00|--
0000|00|--
0000|00|--
0000|00|--
0000|00|--
--
0000|00|0-@)168
0000|00|:-
0000|00|o-
0000|00|--
0000|00|--
0000|00|--
0000|00|--
0000|00|--
0000|00|--
0000|00|--
0000|00|--
0000|00|--
0000|00|--
0000|00|--
0000|00|--
0000|00|--
0000|00|--
0000|00|--
0000|00|--
0000|00|--
0000|00|--
0000|00|--
0000|00|--
0000|00|--
0000|00|--
0000|00|--
0000|00|--
0000|00|--
0000|00|--
0000|00|--
0000|00|--
0000|00|--
0000|00|--
0000|00|--
0000|00|--
0000|00|--
0000|00|--
0000|00|--
0000|00|--
0000|00|--
0000|00|--
0000|00|--
0000|00|--
0000|00|--
0000|00|--
0000|00|--
0000|00|--
0000|00|--
0000|00|--
0000|00|--
0000|00|--
0000|00|--
0000|00|--
0000|00|--
0000|00|--
0000|00|--
0000|00|--
0000|00|--
0000|00|--
0000|00|--
0000|00|--
0000|00|--
0000|00|--
0000|00|--
--
0000|00|--
0000|00|--
0000|00|--
0000|00|--
0000|00|--
0000|00|--
0000|00|--
0000|00|--
0000|00|--
0000|00|--
0000|00|--
0000|00|--
0000|00|--
0000|00|--
0000|00|--
0000|00|--
0000|00|--
0000|00|--
0000|00|--
0000|00|--
0000|00|--
0000|00|--
0000|00|--
0000|00|--
0000|00|--
0000|00|--
0000|00|--
0000|00|--
0000|00|--
0000|00|--
0000|00|--
0000|00|--
0000|00|--
0000|00|--
0000|00|--
0000|00|--
0000|00|--
0000|00|--
0000|00|--
0000|00|--
0000|00|--
0000|00|--
0000|00|--
0000|00|--
0000|00|--
0000|00|--
0000|00|--
0000|00|--
0000|00|--
0000|00|--
0000|00|--
0000|00|--
0000|00|--
0000|00|--
0000|00|--
0000|00|--
0000|00|--
0000|00|--
0000|00|--
0000|00|--
0000|00|--
0000|00|--
0000|00|--
0000|00|--
--
0001|00|--
0000|00|--
0000|00|--
0000|00|--
0000|00|--
0000|00|--
0000|00|--
0000|00|--
0000|00|--
0000|00|--
0000|00|--
0000|00|--
0000|00|--
0000|00|--
0000|00|--
0000|00|--
0000|00|--
0000|00|--
0000|00|--
0000|00|--
0000|00|--
0000|00|--
0000|00|--
0000|00|--
0000|00|--
0000|00|--
0000|00|--
0000|00|--
0000|00|--
0000|00|--
0000|00|--
0000|00|--
0001|00|--
0000|00|--
0000|00|--
0000|00|--
0000|00|--
0000|00|--
0000|00|--
0000|00|--
0000|00|--
0000|00|--
0000|00|--
0000|00|--
0000|00|--
0000|00|--
0000|00|--
0000|00|--
0000|00|--
0000|00|--
0000|00|--
0000|00|--
0000|00|--
0000|00|--
0000|00|--
0000|00|--
0000|00|--
0000|00|--
0000|00|--
0000|00|--
0000|00|--
0000|00|--
0000|00|--
0000|00|--
--
0100|00|--
0000|00|--
0000|00|--
0000|00|--
0000|00|--
0000|00|--
0000|00|--
0000|00|--
0000|00|--
0000|00|--
0000|00|--
0000|00|--
0000|00|--
0000|00|--
0000|00|--
0000|00|--
0000|00|--
0000|00|--
0000|00|--
0000|00|--
0000|00|--
0000|00|--
0000|00|--
0000|00|--
0000|00|--
0000|00|--
0000|00|--
0000|00|--
0000|00|--
0000|00|--
0000|00|--
0000|00|--
0100|00|--
0000|00|--
0000|00|--
0000|00|--
0000|00|--
0000|00|--
0000|00|--
0000|00|--
0000|00|--
0000|00|--
0000|00|--
0000|00|--
0000|00|--
0000|00|--
0000|00|--
0000|00|--
0000|00|--
0000|00|--
0000|00|--
0000|00|--
0000|00|--
0000|00|--
0000|00|--
0000|00|--
0000|00|--
0000|00|--
0000|00|--
0000|00|--
0000|00|--
0000|00|--
0000|00|--
0000|00|--
--
1000|00|--
0000|00|--
0000|00|--
0000|00|--
0000|00|--
0000|00|--
0000|00|--
0000|00|--
0000|00|--
0000|00|--
0000|00|--
0000|00|--
0000|00|--
0000|00|--
0000|00|--
0000|00|--
0000|00|--
0000|00|--
0000|00|--
0000|00|--
0000|00|--
0000|00|--
0000|00|--
0000|00|--
0000|00|--
0000|00|--
0000|00|--
0000|00|--
0000|00|--
0000|00|--
0000|00|--
0000|00|--
1000|00|--
0000|00|--
0000|00|--
0000|00|--
0000|00|--
0000|00|--
0000|00|--
0000|00|--
0000|00|--
0000|00|--
0000|00|--
0000|00|--
0000|00|--
0000|00|--
0000|00|--
0000|00|--
0000|00|--
0000|00|--
0000|00|--
0000|00|--
0000|00|--
0000|00|--
0000|00|--
0000|00|--
0000|00|--
0000|00|--
0000|00|--
0000|00|--
0000|00|--
0000|00|--
0000|00|--
0000|00|--
--
0010|00|--
0000|00|--
0000|00|--
0000|00|--
0000|00|--
0000|00|--
0000|00|--
0000|00|--
0000|00|--
0000|00|--
0000|00|--
0000|00|--
0000|00|--
0000|00|--
0000|00|--
0000|00|--
0000|00|--
0000|00|--
0000|00|--
0000|00|--
0000|00|--
0000|00|--
0000|00|--
0000|00|--
0000|00|--
0000|00|--
0000|00|--
0000|00|--
0000|00|--
0000|00|--
0000|00|--
0000|00|--
0010|00|--
0000|00|--
0000|00|--
0000|00|--
0000|00|--
0000|00|--
0000|00|--
0000|00|--
0000|00|--
0000|00|--
0000|00|--
0000|00|--
0000|00|--
0000|00|--
0000|00|--
0000|00|--
0000|00|--
0000|00|--
0000|00|--
0000|00|--
0000|00|--
0000|00|--
0000|00|--
0000|00|--
0000|00|--
0000|00|--
0000|00|--
0000|00|--
0000|00|--
0000|00|--
0000|00|--
0000|00|--
--
0000|10|--
0000|10|--
0000|10|--
0000|10|--
0000|10|--
0000|10|--
0000|10|--
0000|10|--
0000|10|--
0000|10|--
0000|10|--
0000|10|--
0000|10|--
0000|10|--
0000|10|--
0000|10|--
0000|10|--
0000|10|--
0000|10|--
0000|10|--
0000|10|--
0000|10|--
0000|10|--
0000|10|--
0000|10|--
0000|10|--
0000|10|--
0000|10|--
0000|10|--
0000|10|--
0000|10|--
0000|10|--
0000|10|--
0000|10|--
0000|10|--
0000|10|--
0000|10|--
0000|10|--
0000|10|--
0000|10|--
0000|10|--
0000|10|--
0000|10|--
0000|10|--
0000|10|--
0000|10|--
0000|10|--
0000|10|--
0000|10|--
0000|10|--
0000|10|--
0000|10|--
0000|10|--
0000|10|--
0000|10|--
0000|10|--
0000|10|--
0000|10|--
0000|10|--
0000|10|--
0000|10|--
0000|10|--
0000|10|--
0000|10|--
--
0000|00|--
0000|00|--
0000|00|--
0000|00|--
0000|00|--
0000|00|--
0000|00|--
0000|00|--
0000|00|--
0000|00|--
0000|00|--
0000|00|--
0000|00|--
0000|00|--
0000|00|--
0000|00|--
0000|00|--
0000|00|--
0000|00|--
0000|00|--
0000|00|--
0000|00|--
0000|00|--
0000|00|--
0000|00|--
0000|00|--
0000|00|--
0000|00|--
0000|00|--
0000|00|--
0000|00|--
0000|00|--
0000|00|--
0000|00|--
0000|00|--
0000|00|--
0000|00|--
0000|00|--
0000|00|--
0000|00|--
0000|00|--
0000|00|--
0000|00|--
0000|00|--
0000|00|--
0000|00|--
0000|00|--
0000|00|--
0000|00|--
0000|00|--
0000|00|--
0000|00|--
0000|00|--
0000|00|--
0000|00|--
0000|00|--
0000|00|--
0000|00|--
0000|00|--
0000|00|--
0000|00|--
0000|00|--
0000|00|--
0000|00|--
--
0000|00|-o@(168
0000|00|-:
0000|00|-0
0000|00|--
0000|00|--
0000|00|--
0000|00|--
0000|00|--
0000|00|--
0000|00|--
0000|00|--
0000|00|--
0000|00|--
0000|00|--
0000|00|--
0000|00|--
0000|00|--
0000|00|--
0000|00|--
0000|00|--
0000|00|--
0000|00|--
0000|00|--
0000|00|--
0000|00|--
0000|00|--
0000|00|--
0000|00|--
0000|00|--
0000|00|--
0000|00|--
0000|00|--
0000|00|--
0000|00|--
0000|00|--
0000|00|--
0000|00|--
0000|00|--
0000|00|--
0000|00|--
0000|00|--
0000|00|--
0000|00|--
0000|00|--
0000|00|--
0000|00|--
0000|00|--
0000|00|--
0000|00|--
0000|00|--
0000|00|--
0000|00|--
0000|00|--
0000|00|--
0000|00|--
0000|00|--
0000|00|--
0000|00|--
0000|00|--
0000|00|--
0000|00|--
0000|00|--
0000|00|--
0000|00|--
--
0000|00|--
0000|00|--
0000|00|--
0000|00|--
0000|00|--
0000|00|--
0000|00|--
0000|00|--
0000|00|--
0000|00|--
0000|00|--
0000|00|--
0000|00|--
0000|00|--
0000|00|--
0000|00|--
0000|00|--
0000|00|--
0000|00|--
0000|00|--
0000|00|--
0000|00|--
0000|00|--
0000|00|--
0000|00|--
0000|00|--
0000|00|--
0000|00|--
0000|00|--
0000|00|--
0000|00|--
0000|00|--
0000|00|--
0000|00|--
0000|00|--
0000|00|--
0000|00|--
0000|00|--
0000|00|--
0000|00|--
0000|00|--
0000|00|--
0000|00|--
0000|00|--
0000|00|--
0000|00|--
0000|00|--
0000|00|--
0000|00|--
0000|00|--
0000|00|--
0000|00|--
0000|00|--
0000|00|--
0000|00|--
0000|00|--
0000|00|--
0000|00|--
0000|00|--
0000|00|--
0000|00|--
0000|00|--
0000|00|--
0000|00|--
--
1000|00|--
0000|00|--
0000|00|--
0000|00|--
0000|00|--
0000|00|--
0000|00|--
0000|00|--
0000|00|--
0000|00|--
0000|00|--
0000|00|--
0000|00|--
0000|00|--
0000|00|--
0000|00|--
0000|00|--
0000|00|--
0000|00|--
0000|00|--
0000|00|--
0000|00|--
0000|00|--
0000|00|--
0000|00|--
0000|00|--
0000|00|--
0000|00|--
0000|00|--
0000|00|--
0000|00|--
0000|00|--
1000|00|--
0000|00|--
0000|00|--
0000|00|--
0000|00|--
0000|00|--
0000|00|--
0000|00|--
0000|00|--
0000|00|--
0000|00|--
0000|00|--
0000|00|--
0000|00|--
0000|00|--
0000|00|--
0000|00|--
0000|00|--
0000|00|--
0000|00|--
0000|00|--
0000|00|--
0000|00|--
0000|00|--
0000|00|--
0000|00|--
0000|00|--
0000|00|--
0000|00|--
0000|00|--
0000|00|--
0000|00|--
--
0010|00|--
0000|00|--
0000|00|--
0000|00|--
0000|00|--
0000|00|--
0000|00|--
0000|00|--
0000|00|--
0000|00|--
0000|00|--
0000|00|--
0000|00|--
0000|00|--
0000|00|--
0000|00|--
0000|00|--
0000|00|--
0000|00|--
0000|00|--
0000|00|--
0000|00|--
0000|00|--
0000|00|--
0000|00|--
0000|00|--
0000|00|--
0000|00|--
0000|00|--
0000|00|--
0000|00|--
0000|00|--
0010|00|--
0000|00|--
0000|00|--
0000|00|--
0000|00|--
0000|00|--
0000|00|--
0000|00|--
0000|00|--
0000|00|--
0000|00|--
0000|00|--
0000|00|--
0000|00|--
0000|00|--
0000|00|--
0000|00|--
0000|00|--
0000|00|--
0000|00|--
0000|00|--
0000|00|--
0000|00|--
0000|00|--
0000|00|--
0000|00|--
0000|00|--
0000|00|--
0000|00|--
0000|00|--
0000|00|--
0000|00|--
--
0001|00|--
0000|00|--
0000|00|--
0000|00|--
0000|00|--
0000|00|--
0000|00|--
0000|00|--
0000|00|--
0000|00|--
0000|00|--
0000|00|--
0000|00|--
0000|00|--
0000|00|--
0000|00|--
0000|00|--
0000|00|--
0000|00|--
0000|00|--
0000|00|--
0000|00|--
0000|00|--
0000|00|--
0000|00|--
0000|00|--
0000|00|--
0000|00|--
0000|00|--
0000|00|--
0000|00|--
0000|00|--
0001|00|--
0000|00|--
0000|00|--
0000|00|--
0000|00|--
0000|00|--
0000|00|--
0000|00|--
0000|00|--
0000|00|--
0000|00|--
0000|00|--
0000|00|--
0000|00|--
0000|00|--
0000|00|--
0000|00|--
0000|00|--
0000|00|--
0000|00|--
0000|00|--
0000|00|--
0000|00|--
0000|00|--
0000|00|--
0000|00|--
0000|00|--
0000|00|--
0000|00|--
0000|00|--
0000|00|--
0000|00|--
--
0100|00|--
0000|00|--
0000|00|--
0000|00|--
0000|00|--
0000|00|--
0000|00|--
0000|00|--
0000|00|--
0000|00|--
0000|00|--
0000|00|--
0000|00|--
0000|00|--
0000|00|--
0000|00|--
0000|00|--
0000|00|--
0000|00|--
0000|00|--
0000|00|--
0000|00|--
0000|00|--
0000|00|--
0000|00|--
0000|00|--
0000|00|--
0000|00|--
0000|00|--
0000|00|--
0000|00|--
0000|00|--
0100|00|--
0000|00|--
0000|00|--
0000|00|--
0000|00|--
0000|00|--
0000|00|--
0000|00|--
0000|00|--
0000|00|--
0000|00|--
0000|00|--
0000|00|--
0000|00|--
0000|00|--
0000|00|--
0000|00|--
0000|00|--
0000|00|--
0000|00|--
0000|00|--
0000|00|--
0000|00|--
0000|00|--
0000|00|--
0000|00|--
0000|00|--
0000|00|--
0000|00|--
0000|00|--
0000|00|--
0000|00|--
--
0000|01|--
0000|01|--
0000|01|--
0000|01|--
0000|01|--
0000|01|--
0000|01|--
0000|01|--
0000|01|--
0000|01|--
0000|01|--
0000|01|--
0000|01|--
0000|01|--
0000|01|--
0000|01|--
0000|01|--
0000|01|--
0000|01|--
0000|01|--
0000|01|--
0000|01|--
0000|01|--
0000|01|--
0000|01|--
0000|01|--
0000|01|--
0000|01|--
0000|01|--
0000|01|--
0000|01|--
0000|01|--
0000|00|--
0000|00|--
0000|00|--
0000|00|--
0000|00|--
0000|00|--
0000|00|--
0000|00|--
0000|00|--
0000|00|--
0000|00|--
0000|00|--
0000|00|--
0000|00|--
0000|00|--
0000|00|--
0000|00|--
0000|00|--
0000|00|--
0000|00|--
0000|00|--
0000|00|--
0000|00|--
0000|00|--
0000|00|--
0000|00|--
0000|00|--
0000|00|--
0000|00|--
0000|00|--
0000|00|--
0000|00|--
--
0000|10|--
0000|10|--
0000|10|--
0000|10|--
0000|10|--
0000|10|--
0000|10|--
0000|10|--
0000|10|--
0000|10|--
0000|10|--
0000|10|--
0000|10|--
0000|10|--
0000|10|--
0000|10|--
0000|10|--
0000|10|--
0000|10|--
0000|10|--
0000|10|--
0000|10|--
0000|10|--
0000|10|--
0000|10|--
0000|10|--
0000|10|--
0000|10|--
0000|10|--
0000|10|--
0000|10|--
0000|10|--
0000|00|--
0000|00|--
0000|00|--
0000|00|--
0000|00|--
0000|00|--
0000|00|--
0000|00|--
0000|00|--
0000|00|--
0000|00|--
0000|00|--
0000|00|--
0000|00|--
0000|00|--
0000|00|--
0000|00|--
0000|00|--
0000|00|--
0000|00|--
0000|00|--
0000|00|--
0000|00|--
0000|00|--
0000|00|--
0000|00|--
0000|00|--
0000|00|--
0000|00|--
0000|00|--
0000|00|--
0000|00|--
--
0001|00|--
0000|00|--
0000|00|--
0000|00|--
0000|00|--
0000|00|--
0000|00|--
0000|00|--
0000|00|--
0000|00|--
0000|00|--
0000|00|--
0000|00|--
0000|00|--
0000|00|--
0000|00|--
0000|00|--
0000|00|--
0000|00|--
0000|00|--
0000|00|--
0000|00|--
0000|00|--
0000|00|--
0000|00|--
0000|00|--
0000|00|--
0000|00|--
0000|00|--
0000|00|--
0000|00|--
0000|00|--
1000|00|--
0000|00|--
0000|00|--
0000|00|--
0000|00|--
0000|00|--
0000|00|--
0000|00|--
0000|00|--
0000|00|--
0000|00|--
0000|00|--
0000|00|--
0000|00|--
0000|00|--
0000|00|--
0000|00|--
0000|00|--
0000|00|--
0000|00|--
0000|00|--
0000|00|--
0000|00|--
0000|00|--
0000|00|--
0000|00|--
0000|00|--
0000|00|--
0000|00|--
0000|00|--
0000|00|--
0000|00|--
--
0001|00|--
0000|00|--
0000|00|--
0000|00|--
0000|00|--
0000|00|--
0000|00|--
0000|00|--
0000|00|--
0000|00|--
0000|00|--
0000|00|--
0000|00|--
0000|00|--
0000|00|--
0000|00|--
0000|00|--
0000|00|--
0000|00|--
0000|00|--
0000|00|--
0000|00|--
0000|00|--
0000|00|--
0000|00|--
0000|00|--
0000|00|--
0000|00|--
0000|00|--
0000|00|--
0000|00|--
0000|00|--
1000|00|--
0000|00|--
0000|00|--
0000|00|--
0000|00|--
0000|00|--
0000|00|--
0000|00|--
0000|00|--
0000|00|--
0000|00|--
0000|00|--
0000|00|--
0000|00|--
0000|00|--
0000|00|--
0000|00|--
0000|00|--
0000|00|--
0000|00|--
0000|00|--
0000|00|--
0000|00|--
0000|00|--
0000|00|--
0000|00|--
0000|00|--
0000|00|--
0000|00|--
0000|00|--
0000|00|--
0000|00|--
--
0001|00|--
0000|00|--
0000|00|--
0000|00|--
0000|00|--
0000|00|--
0000|00|--
0000|00|--
0000|00|--
0000|00|--
0000|00|--
0000|00|--
0000|00|--
0000|00|--
0000|00|--
0000|00|--
0000|00|--
0000|00|--
0000|00|--
0000|00|--
0000|00|--
0000|00|--
0000|00|--
0000|00|--
0000|00|--
0000|00|--
0000|00|--
0000|00|--
0000|00|--
0000|00|--
0000|00|--
0000|00|--
1000|00|--
0000|00|--
0000|00|--
0000|00|--
0000|00|--
0000|00|--
0000|00|--
0000|00|--
0000|00|--
0000|00|--
0000|00|--
0000|00|--
0000|00|--
0000|00|--
0000|00|--
0000|00|--
0000|00|--
0000|00|--
0000|00|--
0000|00|--
0000|00|--
0000|00|--
0000|00|--
0000|00|--
0000|00|--
0000|00|--
0000|00|--
0000|00|--
0000|00|--
0000|00|--
0000|00|--
0000|00|--
--
0001|00|--
0000|00|--
0000|00|--
0000|00|--
0000|00|--
0000|00|--
0000|00|--
0000|00|--
0000|00|--
0000|00|--
0000|00|--
0000|00|--
0000|00|--
0000|00|--
0000|00|--
0000|00|--
0000|00|--
0000|00|--
0000|00|--
0000|00|--
0000|00|--
0000|00|--
0000|00|--
0000|00|--
0000|00|--
0000|00|--
0000|00|--
0000|00|--
0000|00|--
0000|00|--
0000|00|--
0000|00|--
1000|00|--
0000|00|--
0000|00|--
0000|00|--
0000|00|--
0000|00|--
0000|00|--
0000|00|--
0000|00|--
0000|00|--
0000|00|--
0000|00|--
0000|00|--
0000|00|--
0000|00|--
0000|00|--
0000|00|--
0000|00|--
0000|00|--
0000|00|--
0000|00|--
0000|00|--
0000|00|--
0000|00|--
0000|00|--
0000|00|--
0000|00|--
0000|00|--
0000|00|--
0000|00|--
0000|00|--
0000|00|--
--
0000|01|--
0000|01|--
0000|01|--
0000|01|--
0000|01|--
0000|01|--
0000|01|--
0000|01|--
0000|01|--
0000|01|--
0000|01|--
0000|01|--
0000|01|--
0000|01|--
0000|01|--
0000|01|--
0000|01|--
0000|01|--
0000|01|--
0000|01|--
0000|01|--
0000|01|--
0000|01|--
0000|01|--
0000|01|--
0000|01|--
0000|01|--
0000|01|--
0000|01|--
0000|01|--
0000|01|--
0000|01|--
0000|00|--
0000|00|--
0000|00|--
0000|00|--
0000|00|--
0000|00|--
0000|00|--
0000|00|--
0000|00|--
0000|00|--
0000|00|--
0000|00|--
0000|00|--
0000|00|--
0000|00|--
0000|00|--
0000|00|--
0000|00|--
0000|00|--
0000|00|--
0000|00|--
0000|00|--
0000|00|--
0000|00|--
0000|00|--
0000|00|--
0000|00|--
0000|00|--
0000|00|--
0000|00|--
0000|00|--
0000|00|--
--
0000|10|--
0000|10|--
0000|10|--
0000|10|--
0000|10|--
0000|10|--
0000|10|--
0000|10|--
0000|10|--
0000|10|--
0000|10|--
0000|10|--
0000|10|--
0000|10|--
0000|10|--
0000|10|--
0000|10|--
0000|10|--
0000|10|--
0000|10|--
0000|10|--
0000|10|--
0000|10|--
0000|10|--
0000|10|--
0000|10|--
0000|10|--
0000|10|--
0000|10|--
0000|10|--
0000|10|--
0000|10|--
0000|00|--
0000|00|--
0000|00|--
0000|00|--
0000|00|--
0000|00|--
0000|00|--
0000|00|--
0000|00|--
0000|00|--
0000|00|--
0000|00|--
0000|00|--
0000|00|--
0000|00|--
0000|00|--
0000|00|--
0000|00|--
0000|00|--
0000|00|--
0000|00|--
0000|00|--
0000|00|--
0000|00|--
0000|00|--
0000|00|--
0000|00|--
0000|00|--
0000|00|--
0000|00|--
0000|00|--
0000|00|--
--
0000|01|--
0000|01|--
0000|01|--
0000|01|--
0000|01|--
0000|01|--
0000|01|--
0000|01|--
0000|01|--
0000|01|--
0000|01|--
0000|01|--
0000|01|--
0000|01|--
0000|01|--
0000|01|--
0000|01|--
0000|01|--
0000|01|--
0000|01|--
0000|01|--
0000|01|--
0000|01|--
0000|01|--
0000|01|--
0000|01|--
0000|01|--
0000|01|--
0000|01|--
0000|01|--
0000|01|--
0000|01|--
0000|00|--
0000|00|--
0000|00|--
0000|00|--
0000|00|--
0000|00|--
0000|00|--
0000|00|--
0000|00|--
0000|00|--
0000|00|--
0000|00|--
0000|00|--
0000|00|--
0000|00|--
0000|00|--
0000|00|--
0000|00|--
0000|00|--
0000|00|--
0000|00|--
0000|00|--
0000|00|--
0000|00|--
0000|00|--
0000|00|--
0000|00|--
0000|00|--
0000|00|--
0000|00|--
0000|00|--
0000|00|--
--
0000|00|0-
0000|00|:-
0000|00|:-
0000|00|:-
0000|00|:-
0000|00|:-
0000|00|:-
0000|00|:-
0000|00|:-
0000|00|:-
0000|00|:-
0000|00|:-
0000|00|:-
0000|00|:-
0000|00|:-
0000|00|:-
0000|00|:-
0000|00|:-
0000|00|:-
0000|00|:-
0000|00|:-
0000|00|:-
0000|00|:-
0000|00|:-
0000|00|:-
0000|00|:-
0000|00|:-
0000|00|:-
0000|00|:-
0000|00|:-
0000|00|:-
0000|00|:-
0000|00|:-
0000|00|:-
0000|00|:-
0000|00|:-
0000|00|:-
0000|00|:-
0000|00|:-
0000|00|:-
0000|00|:-
0000|00|:-
0000|00|:-
0000|00|:-
0000|00|:-
0000|00|:-
0000|00|:-
0000|00|:-
0000|00|o-
0000|00|--
0000|00|--
0000|00|--
0000|00|--
0000|00|--
0000|00|--
0000|00|--
0000|00|--
0000|00|--
0000|00|--
0000|00|--
0000|00|--
0000|00|--
0000|00|--
0000|00|--
--
0001|00|--
0000|00|--
0000|00|--
0000|00|--
0000|00|--
0000|00|--
0000|00|--
0000|00|--
0000|00|--
0000|00|--
0000|00|--
0000|00|--
0000|00|--
0000|00|--
0000|00|--
0000|00|--
0000|00|--
0000|00|--
0000|00|--
0000|00|--
0000|00|--
0000|00|--
0000|00|--
0000|00|--
0000|00|--
0000|00|--
0000|00|--
0000|00|--
0000|00|--
0000|00|--
0000|00|--
0000|00|--
1000|00|--
0000|00|--
0000|00|--
0000|00|--
0000|00|--
0000|00|--
0000|00|--
0000|00|--
0000|00|--
0000|00|--
0000|00|--
0000|00|--
0000|00|--
0000|00|--
0000|00|--
0000|00|--
0000|00|--
0000|00|--
0000|00|--
0000|00|--
0000|00|--
0000|00|--
0000|00|--
0000|00|--
0000|00|--
0000|00|--
0000|00|--
0000|00|--
0000|00|--
0000|00|--
0000|00|--
0000|00|--
--
0001|00|--
0000|00|--
0000|00|--
0000|00|--
0000|00|--
0000|00|--
0000|00|--
0000|00|--
0000|00|--
0000|00|--
0000|00|--
0000|00|--
0000|00|--
0000|00|--
0000|00|--
0000|00|--
0000|00|--
0000|00|--
0000|00|--
0000|00|--
0000|00|--
0000|00|--
0000|00|--
0000|00|--
0000|00|--
0000|00|--
0000|00|--
0000|00|--
0000|00|--
0000|00|--
0000|00|--
0000|00|--
1000|00|--
0000|00|--
0000|00|--
0000|00|--
0000|00|--
0000|00|--
0000|00|--
0000|00|--
0000|00|--
0000|00|--
0000|00|--
0000|00|--
0000|00|--
0000|00|--
0000|00|--
0000|00|--
0000|00|--
0000|00|--
0000|00|--
0000|00|--
0000|00|--
0000|00|--
0000|00|--
0000|00|--
0000|00|--
0000|00|--
0000|00|--
0000|00|--
0000|00|--
0000|00|--
0000|00|--
0000|00|--
--
0001|00|--
0000|00|--
0000|00|--
0000|00|--
0000|00|--
0000|00|--
0000|00|--
0000|00|--
0000|00|--
0000|00|--
0000|00|--
0000|00|--
0000|00|--
0000|00|--
0000|00|--
0000|00|--
0000|00|--
0000|00|--
0000|00|--
0000|00|--
0000|00|--
0000|00|--
0000|00|--
0000|00|--
0000|00|--
0000|00|--
0000|00|--
0000|00|--
0000|00|--
0000|00|--
0000|00|--
0000|00|--
1000|00|--
0000|00|--
0000|00|--
0000|00|--
0000|00|--
0000|00|--
0000|00|--
0000|00|--
0000|00|--
0000|00|--
0000|00|--
0000|00|--
0000|00|--
0000|00|--
0000|00|--
0000|00|--
0000|00|--
0000|00|--
0000|00|--
0000|00|--
0000|00|--
0000|00|--
0000|00|--
0000|00|--
0000|00|--
0000|00|--
0000|00|--
0000|00|--
0000|00|--
0000|00|--
0000|00|--
0000|00|--
--
0001|00|--
0000|00|--
0000|00|--
0000|00|--
0000|00|--
0000|00|--
0000|00|--
0000|00|--
0000|00|--
0000|00|--
0000|00|--
0000|00|--
0000|00|--
0000|00|--
0000|00|--
0000|00|--
0000|00|--
0000|00|--
0000|00|--
0000|00|--
0000|00|--
0000|00|--
0000|00|--
0000|00|--
0000|00|--
0000|00|--
0000|00|--
0000|00|--
0000|00|--
0000|00|--
0000|00|--
0000|00|--
1000|00|--
0000|00|--
0000|00|--
0000|00|--
0000|00|--
0000|00|--
0000|00|--
0000|00|--
0000|00|--
0000|00|--
0000|00|--
0000|00|--
0000|00|--
0000|00|--
0000|00|--
0000|00|--
0000|00|--
0000|00|--
0000|00|--
0000|00|--
0000|00|--
0000|00|--
0000|00|--
0000|00|--
0000|00|--
0000|00|--
0000|00|--
0000|00|--
0000|00|--
0000|00|--
0000|00|--
0000|00|--
--
0000|01|--
0000|01|--
0000|01|--
0000|01|--
0000|01|--
0000|01|--
0000|01|--
0000|01|--
0000|01|--
0000|01|--
0000|01|--
0000|01|--
0000|01|--
0000|01|--
0000|01|--
0000|01|--
0000|01|--
0000|01|--
0000|01|--
0000|01|--
0000|01|--
0000|01|--
0000|01|--
0000|01|--
0000|01|--
0000|01|--
0000|01|--
0000|01|--
0000|01|--
0000|01|--
0000|01|--
0000|01|--
0000|00|--
0000|00|--
0000|00|--
0000|00|--
0000|00|--
0000|00|--
0000|00|--
0000|00|--
0000|00|--
0000|00|--
0000|00|--
0000|00|--
0000|00|--
0000|00|--
0000|00|--
0000|00|--
0000|00|--
0000|00|--
0000|00|--
0000|00|--
0000|00|--
0000|00|--
0000|00|--
0000|00|--
0000|00|--
0000|00|--
0000|00|--
0000|00|--
0000|00|--
0000|00|--
0000|00|--
0000|00|--
--
0000|10|--
0000|10|--
0000|10|--
0000|10|--
0000|10|--
0000|10|--
0000|10|--
0000|10|--
0000|10|--
0000|10|--
0000|10|--
0000|10|--
0000|10|--
0000|10|--
0000|10|--
0000|10|--
0000|10|--
0000|10|--
0000|10|--
0000|10|--
0000|10|--
0000|10|--
0000|10|--
0000|10|--
0000|10|--
0000|10|--
0000|10|--
0000|10|--
0000|10|--
0000|10|--
0000|10|--
0000|10|--
0000|00|--
0000|00|--
0000|00|--
0000|00|--
0000|00|--
0000|00|--
0000|00|--
0000|00|--
0000|00|--
0000|00|--
0000|00|--
0000|00|--
0000|00|--
0000|00|--
0000|00|--
0000|00|--
0000|00|--
0000|00|--
0000|00|--
0000|00|--
0000|00|--
0000|00|--
0000|00|--
0000|00|--
0000|00|--
0000|00|--
0000|00|--
0000|00|--
0000|00|--
0000|00|--
0000|00|--
0000|00|--
--
0110|00|--
0000|00|--
0000|00|--
0000|00|--
0000|00|--
0000|00|--
0000|00|--
0000|00|--
0000|00|--
0000|00|--
0000|00|--
0000|00|--
0000|00|--
0000|00|--
0000|00|--
0000|00|--
0000|00|--
0000|00|--
0000|00|--
0000|00|--
0000|00|--
0000|00|--
0000|00|--
0000|00|--
0000|00|--
0000|00|--
0000|00|--
0000|00|--
0000|00|--
0000|00|--
0000|00|--
0000|00|--
0110|00|--
0000|00|--
0000|00|--
0000|00|--
0000|00|--
0000|00|--
0000|00|--
0000|00|--
0000|00|--
0000|00|--
0000|00|--
0000|00|--
0000|00|--
0000|00|--
0000|00|--
0000|00|--
0000|00|--
0000|00|--
0000|00|--
0000|00|--
0000|00|--
0000|00|--
0000|00|--
0000|00|--
0000|00|--
0000|00|--
0000|00|--
0000|00|--
0000|00|--
0000|00|--
0000|00|--
0000|00|--
--
0110|00|--
0000|00|--
0000|00|--
0000|00|--
0000|00|--
0000|00|--
0000|00|--
0000|00|--
0000|00|--
0000|00|--
0000|00|--
0000|00|--
0000|00|--
0000|00|--
0000|00|--
0000|00|--
0000|00|--
0000|00|--
0000|00|--
0000|00|--
0000|00|--
0000|00|--
0000|00|--
0000|00|--
0000|00|--
0000|00|--
0000|00|--
0000|00|--
0000|00|--
0000|00|--
0000|00|--
0000|00|--
0000|00|--
0000|00|--
0000|00|--
0000|00|--
0000|00|--
0000|00|--
0000|00|--
0000|00|--
0000|00|--
0000|00|--
0000|00|--
0000|00|--
0000|00|--
0000|00|--
0000|00|--
0000|00|--
0000|00|--
0000|00|--
0000|00|--
0000|00|--
0000|00|--
0000|00|--
0000|00|--
0000|00|--
0000|00|--
0000|00|--
0000|00|--
0000|00|--
0000|00|--
0000|00|--
0000|00|--
0000|00|--
--
0000|00|0-
0000|00|:-
0000|00|:-
0000|00|:-
0000|00|:-
0000|00|:-
0000|00|:-
0000|00|:-
0000|00|:-
0000|00|:-
0000|00|:-
0000|00|:-
0000|00|:-
0000|00|:-
0000|00|:-
0000|00|:-
0000|00|:-
0000|00|:-
0000|00|:-
0000|00|:-
0000|00|:-
0000|00|:-
0000|00|:-
0000|00|:-
0000|00|:-
0000|00|:-
0000|00|:-
0000|00|:-
0000|00|:-
0000|00|:-
0000|00|:-
0000|00|:-
0000|00|:-
0000|00|:-
0000|00|:-
0000|00|:-
0000|00|:-
0000|00|:-
0000|00|:-
0000|00|:-
0000|00|:-
0000|00|:-
0000|00|:-
0000|00|:-
0000|00|:-
0000|00|:-
0000|00|:-
0000|00|:-
0000|00|:-
0000|00|:-
0000|00|:-
0000|00|:-
0000|00|:-
0000|00|:-
0000|00|:-
0000|00|:-
0000|00|:-
0000|00|:-
0000|00|:-
0000|00|:-
0000|00|:-
0000|00|:-
0000|00|:-
0000|00|:-
--
0000|00|:-
0000|00|:-
0000|00|:-
0000|00|:-
0000|00|:-
0000|00|:-
0000|00|:-
0000|00|:-
0000|00|:-
0000|00|:-
0000|00|:-
0000|00|:-
0000|00|:-
0000|00|:-
0000|00|:-
0000|00|:-
0000|00|:-
0000|00|:-
0000|00|:-
0000|00|:-
0000|00|:-
0000|00|:-
0000|00|:-
0000|00|:-
0000|00|:-
0000|00|:-
0000|00|:-
0000|00|:-
0000|00|:-
0000|00|:-
0000|00|:-
0000|00|:-
0000|00|:-
0000|00|:-
0000|00|:-
0000|00|:-
0000|00|:-
0000|00|:-
0000|00|:-
0000|00|:-
0000|00|:-
0000|00|:-
0000|00|:-
0000|00|:-
0000|00|:-
0000|00|:-
0000|00|:-
0000|00|:-
0000|00|:-
0000|00|:-
0000|00|:-
0000|00|:-
0000|00|:-
0000|00|:-
0000|00|:-
0000|00|:-
0000|00|:-
0000|00|:-
0000|00|:-
0000|00|:-
0000|00|:-
0000|00|:-
0000|00|:-
0000|00|:-
--
0000|00|o-
0000|00|:-
0000|00|:-
0000|00|:-
0000|00|:-
0000|00|:-
0000|00|:-
0000|00|:-
0000|00|:-
0000|00|:-
0000|00|:-
0000|00|:-
0000|00|:-
0000|00|:-
0000|00|:-
0000|00|:-
0000|00|:-
0000|00|:-
0000|00|:-
0000|00|:-
0000|00|:-
0000|00|:-
0000|00|:-
0000|00|:-
0000|00|:-
0000|00|:-
0000|00|:-
0000|00|:-
0000|00|:-
0000|00|:-
0000|00|:-
0000|00|:-
0000|00|:-
0000|00|:-
0000|00|:-
0000|00|:-
0000|00|:-
0000|00|:-
0000|00|:-
0000|00|:-
0000|00|:-
0000|00|:-
0000|00|:-
0000|00|:-
0000|00|:-
0000|00|:-
0000|00|:-
0000|00|:-
0000|00|:-
0000|00|:-
0000|00|:-
0000|00|:-
0000|00|:-
0000|00|:-
0000|00|:-
0000|00|:-
0000|00|:-
0000|00|:-
0000|00|:-
0000|00|:-
0000|00|:-
0000|00|:-
0000|00|:-
0000|00|:-
--
0000|00|:-
0000|00|:-
0000|00|:-
0000|00|:-
0000|00|:-
0000|00|:-
0000|00|:-
0000|00|:-
0000|00|:-
0000|00|:-
0000|00|:-
0000|00|:-
0000|00|:-
0000|00|:-
0000|00|:-
0000|00|:-
0000|00|:-
0000|00|:-
0000|00|:-
0000|00|:-
0000|00|:-
0000|00|:-
0000|00|:-
0000|00|:-
0000|00|:-
0000|00|:-
0000|00|:-
0000|00|:-
0000|00|:-
0000|00|:-
0000|00|:-
0000|00|:-
0000|00|0-
0000|00|--
0000|00|--
0000|00|--
0000|00|--
0000|00|--
0000|00|--
0000|00|--
0000|00|--
0000|00|--
0000|00|--
0000|00|--
0000|00|--
0000|00|--
0000|00|--
0000|00|--
0000|00|--
0000|00|--
0000|00|--
0000|00|--
0000|00|--
0000|00|--
0000|00|--
0000|00|--
0000|00|--
0000|00|--
0000|00|--
0000|00|--
0000|00|--
0000|00|--
0000|00|--
0000|00|--
--
0000|00|-o
0000|00|-:
0000|00|-:
0000|00|-:
0000|00|-:
0000|00|-:
0000|00|-:
0000|00|-:
0000|00|-:
0000|00|-:
0000|00|-:
0000|00|-:
0000|00|-:
0000|00|-:
0000|00|-:
0000|00|-:
0000|00|-:
0000|00|-:
0000|00|-:
0000|00|-:
0000|00|-:
0000|00|-:
0000|00|-:
0000|00|-:
0000|00|-:
0000|00|-:
0000|00|-:
0000|00|-:
0000|00|-:
0000|00|-:
0000|00|-:
0000|00|-:
0000|00|-:
0000|00|-:
0000|00|-:
0000|00|-:
0000|00|-:
0000|00|-:
0000|00|-:
0000|00|-:
0000|00|-:
0000|00|-:
0000|00|-:
0000|00|-:
0000|00|-:
0000|00|-:
0000|00|-:
0000|00|-:
0000|00|-:
0000|00|-:
0000|00|-:
0000|00|-:
0000|00|-:
0000|00|-:
0000|00|-:
0000|00|-:
0000|00|-:
0000|00|-:
0000|00|-:
0000|00|-:
0000|00|-:
0000|00|-:
0000|00|-:
0000|00|-:
--
0000|00|-:
0000|00|-:
0000|00|-:
0000|00|-:
0000|00|-:
0000|00|-:
0000|00|-:
0000|00|-:
0000|00|-:
0000|00|-:
0000|00|-:
0000|00|-:
0000|00|-:
0000|00|-:
0000|00|-:
0000|00|-:
0000|00|-:
0000|00|-:
0000|00|-:
0000|00|-:
0000|00|-:
0000|00|-:
0000|00|-:
0000|00|-:
0000|00|-:
0000|00|-:
0000|00|-:
0000|00|-:
0000|00|-:
0000|00|-:
0000|00|-:
0000|00|-:
0000|00|-:
0000|00|-:
0000|00|-:
0000|00|-:
0000|00|-:
0000|00|-:
0000|00|-:
0000|00|-:
0000|00|-:
0000|00|-:
0000|00|-:
0000|00|-:
0000|00|-:
0000|00|-:
0000|00|-:
0000|00|-:
0000|00|-:
0000|00|-:
0000|00|-:
0000|00|-:
0000|00|-:
0000|00|-:
0000|00|-:
0000|00|-:
0000|00|-:
0000|00|-:
0000|00|-:
0000|00|-:
0000|00|-:
0000|00|-:
0000|00|-:
0000|00|-:
--
0000|00|-0
0000|00|-:
0000|00|-:
0000|00|-:
0000|00|-:
0000|00|-:
0000|00|-:
0000|00|-:
0000|00|-:
0000|00|-:
0000|00|-:
0000|00|-:
0000|00|-:
0000|00|-:
0000|00|-:
0000|00|-:
0000|00|-:
0000|00|-:
0000|00|-:
0000|00|-:
0000|00|-:
0000|00|-:
0000|00|-:
0000|00|-:
0000|00|-:
0000|00|-:
0000|00|-:
0000|00|-:
0000|00|-:
0000|00|-:
0000|00|-:
0000|00|-:
0000|00|-:
0000|00|-:
0000|00|-:
0000|00|-:
0000|00|-:
0000|00|-:
0000|00|-:
0000|00|-:
0000|00|-:
0000|00|-:
0000|00|-:
0000|00|-:
0000|00|-:
0000|00|-:
0000|00|-:
0000|00|-:
0000|00|-:
0000|00|-:
0000|00|-:
0000|00|-:
0000|00|-:
0000|00|-:
0000|00|-:
0000|00|-:
0000|00|-:
0000|00|-:
0000|00|-:
0000|00|-:
0000|00|-:
0000|00|-:
0000|00|-:
0000|00|-:
--
0000|00|-:
0000|00|-:
0000|00|-:
0000|00|-:
0000|00|-:
0000|00|-:
0000|00|-:
0000|00|-:
0000|00|-:
0000|00|-:
0000|00|-:
0000|00|-:
0000|00|-:
0000|00|-:
0000|00|-:
0000|00|-:
0000|00|-:
0000|00|-:
0000|00|-:
0000|00|-:
0000|00|-:
0000|00|-:
0000|00|-:
0000|00|-:
0000|00|-:
0000|00|-:
0000|00|-:
0000|00|-:
0000|00|-:
0000|00|-:
0000|00|-:
0000|00|-:
0000|00|-o
0000|00|--
0000|00|--
0000|00|--
0000|00|--
0000|00|--
0000|00|--
0000|00|--
0000|00|--
0000|00|--
0000|00|--
0000|00|--
0000|00|--
0000|00|--
0000|00|--
0000|00|--
0000|00|--
0000|00|--
0000|00|--
0000|00|--
0000|00|--
0000|00|--
0000|00|--
0000|00|--
0000|00|--
0000|00|--
0000|00|--
0000|00|--
0000|00|--
0000|00|--
0000|00|--
0000|00|--
--
0000|10|--
0000|10|--
0000|10|--
0000|10|--
0000|10|--
0000|10|--
0000|10|--
0000|10|--
0000|10|--
0000|10|--
0000|10|--
0000|10|--
0000|10|--
0000|10|--
0000|10|--
0000|10|--
0000|10|--
0000|10|--
0000|10|--
0000|10|--
0000|10|--
0000|10|--
0000|10|--
0000|10|--
0000|10|--
0000|10|--
0000|10|--
0000|10|--
0000|10|--
0000|10|--
0000|10|--
0000|10|--
0000|00|--
0000|00|--
0000|00|--
0000|00|--
0000|00|--
0000|00|--
0000|00|--
0000|00|--
0000|00|--
0000|00|--
0000|00|--
0000|00|--
0000|00|--
0000|00|--
0000|00|--
0000|00|--
0000|00|--
0000|00|--
0000|00|--
0000|00|--
0000|00|--
0000|00|--
0000|00|--
0000|00|--
0000|00|--
0000|00|--
0000|00|--
0000|00|--
0000|00|--
0000|00|--
0000|00|--
0000|00|--
--
0000|01|--
0000|01|--
0000|01|--
0000|01|--
0000|01|--
0000|01|--
0000|01|--
0000|01|--
0000|01|--
0000|01|--
0000|01|--
0000|01|--
0000|01|--
0000|01|--
0000|01|--
0000|01|--
0000|01|--
0000|01|--
0000|01|--
0000|01|--
0000|01|--
0000|01|--
0000|01|--
0000|01|--
0000|01|--
0000|01|--
0000|01|--
0000|01|--
0000|01|--
0000|01|--
0000|01|--
0000|01|--
0000|00|--
0000|00|--
0000|00|--
0000|00|--
0000|00|--
0000|00|--
0000|00|--
0000|00|--
0000|00|--
0000|00|--
0000|00|--
0000|00|--
0000|00|--
0000|00|--
0000|00|--
0000|00|--
0000|00|--
0000|00|--
0000|00|--
0000|00|--
0000|00|--
0000|00|--
0000|00|--
0000|00|--
0000|00|--
0000|00|--
0000|00|--
0000|00|--
0000|00|--
0000|00|--
0000|00|--
0000|00|--
--
0000|10|--
0000|10|--
0000|10|--
0000|10|--
0000|10|--
0000|10|--
0000|10|--
0000|10|--
0000|10|--
0000|10|--
0000|10|--
0000|10|--
0000|10|--
0000|10|--
0000|10|--
0000|10|--
0000|10|--
0000|10|--
0000|10|--
0000|10|--
0000|10|--
0000|10|--
0000|10|--
0000|10|--
0000|10|--
0000|10|--
0000|10|--
0000|10|--
0000|10|--
0000|10|--
0000|10|--
0000|10|--
0000|00|--
0000|00|--
0000|00|--
0000|00|--
0000|00|--
0000|00|--
0000|00|--
0000|00|--
0000|00|--
0000|00|--
0000|00|--
0000|00|--
0000|00|--
0000|00|--
0000|00|--
0000|00|--
0000|00|--
0000|00|--
0000|00|--
0000|00|--
0000|00|--
0000|00|--
0000|00|--
0000|00|--
0000|00|--
0000|00|--
0000|00|--
0000|00|--
0000|00|--
0000|00|--
0000|00|--
0000|00|--
--
0000|01|--
0000|01|--
0000|01|--
0000|01|--
0000|01|--
0000|01|--
0000|01|--
0000|01|--
0000|01|--
0000|01|--
0000|01|--
0000|01|--
0000|01|--
0000|01|--
0000|01|--
0000|01|--
0000|01|--
0000|01|--
0000|01|--
0000|01|--
0000|01|--
0000|01|--
0000|01|--
0000|01|--
0000|01|--
0000|01|--
0000|01|--
0000|01|--
0000|01|--
0000|01|--
0000|01|--
0000|01|--
0000|00|--
0000|00|--
0000|00|--
0000|00|--
0000|00|--
0000|00|--
0000|00|--
0000|00|--
0000|00|--
0000|00|--
0000|00|--
0000|00|--
0000|00|--
0000|00|--
0000|00|--
0000|00|--
0000|00|--
0000|00|--
0000|00|--
0000|00|--
0000|00|--
0000|00|--
0000|00|--
0000|00|--
0000|00|--
0000|00|--
0000|00|--
0000|00|--
0000|00|--
0000|00|--
0000|00|--
0000|00|--
--
0000|00|0-
0000|00|:-
0000|00|:-
0000|00|:-
0000|00|:-
0000|00|:-
0000|00|:-
0000|00|:-
0000|00|:-
0000|00|:-
0000|00|:-
0000|00|:-
0000|00|:-
0000|00|:-
0000|00|:-
0000|00|:-
0000|00|:-
0000|00|:-
0000|00|:-
0000|00|:-
0000|00|:-
0000|00|:-
0000|00|:-
0000|00|:-
0000|00|:-
0000|00|:-
0000|00|:-
0000|00|:-
0000|00|:-
0000|00|:-
0000|00|:-
0000|00|:-
0000|00|:-
0000|00|:-
0000|00|:-
0000|00|:-
0000|00|:-
0000|00|:-
0000|00|:-
0000|00|:-
0000|00|:-
0000|00|:-
0000|00|:-
0000|00|:-
0000|00|:-
0000|00|:-
0000|00|:-
0000|00|:-
0000|00|:-
0000|00|:-
0000|00|:-
0000|00|:-
0000|00|:-
0000|00|:-
0000|00|:-
0000|00|:-
0000|00|:-
0000|00|:-
0000|00|:-
0000|00|:-
0000|00|:-
0000|00|:-
0000|00|:-
0000|00|:-
--
0000|00|o-
0000|00|:-
0000|00|:-
0000|00|:-
0000|00|:-
0000|00|:-
0000|00|:-
0000|00|:-
0000|00|:-
0000|00|:-
0000|00|:-
0000|00|:-
0000|00|:-
0000|00|:-
0000|00|:-
0000|00|:-
0000|00|:-
0000|00|:-
0000|00|:-
0000|00|:-
0000|00|:-
0000|00|:-
0000|00|:-
0000|00|:-
0000|00|:-
0000|00|:-
0000|00|:-
0000|00|:-
0000|00|:-
0000|00|:-
0000|00|:-
0000|00|:-
0000|00|0-
0000|00|--
0000|00|--
0000|00|--
0000|00|--
0000|00|--
0000|00|--
0000|00|--
0000|00|--
0000|00|--
0000|00|--
0000|00|--
0000|00|--
0000|00|--
0000|00|--
0000|00|--
0000|00|--
0000|00|--
0000|00|--
0000|00|--
0000|00|--
0000|00|--
0000|00|--
0000|00|--
0000|00|--
0000|00|--
0000|00|--
0000|00|--
0000|00|--
0000|00|--
0000|00|--
0000|00|--
--
0000|00|-o
0000|00|-:
0000|00|-:
0000|00|-:
0000|00|-:
0000|00|-:
0000|00|-:
0000|00|-:
0000|00|-:
0000|00|-:
0000|00|-:
0000|00|-:
0000|00|-:
0000|00|-:
0000|00|-:
0000|00|-:
0000|00|-:
0000|00|-:
0000|00|-:
0000|00|-:
0000|00|-:
0000|00|-:
0000|00|-:
0000|00|-:
0000|00|-:
0000|00|-:
0000|00|-:
0000|00|-:
0000|00|-:
0000|00|-:
0000|00|-:
0000|00|-:
0000|00|-:
0000|00|-:
0000|00|-:
0000|00|-:
0000|00|-:
0000|00|-:
0000|00|-:
0000|00|-:
0000|00|-:
0000|00|-:
0000|00|-:
0000|00|-:
0000|00|-:
0000|00|-:
0000|00|-:
0000|00|-:
0000|00|-:
0000|00|-:
0000|00|-:
0000|00|-:
0000|00|-:
0000|00|-:
0000|00|-:
0000|00|-:
0000|00|-:
0000|00|-:
0000|00|-:
0000|00|-:
0000|00|-:
0000|00|-:
0000|00|-:
0000|00|-:
--
0000|00|-0
0000|00|-:
0000|00|-:
0000|00|-:
0000|00|-:
0000|00|-:
0000|00|-:
0000|00|-:
0000|00|-:
0000|00|-:
0000|00|-:
0000|00|-:
0000|00|-:
0000|00|-:
0000|00|-:
0000|00|-:
0000|00|-:
0000|00|-:
0000|00|-:
0000|00|-:
0000|00|-:
0000|00|-:
0000|00|-:
0000|00|-:
0000|00|-:
0000|00|-:
0000|00|-:
0000|00|-:
0000|00|-:
0000|00|-:
0000|00|-:
0000|00|-:
0000|00|-o
0000|00|--
0000|00|--
0000|00|--
0000|00|--
0000|00|--
0000|00|--
0000|00|--
0000|00|--
0000|00|--
0000|00|--
0000|00|--
0000|00|--
0000|00|--
0000|00|--
0000|00|--
0000|00|--
0000|00|--
0000|00|--
0000|00|--
0000|00|--
0000|00|--
0000|00|--
0000|00|--
0000|00|--
0000|00|--
0000|00|--
0000|00|--
0000|00|--
0000|00|--
0000|00|--
0000|00|--
--
0000|00|0-@)168
0000|00|:-
0000|00|o-
0000|00|--
0000|00|--
0000|00|--
0000|00|--
0000|00|--
0000|00|--
0000|00|--
0000|00|--
0000|00|--
0000|00|--
0000|00|--
0000|00|--
0000|00|--
0000|00|--
0000|00|--
0000|00|--
0000|00|--
0000|00|--
0000|00|--
0000|00|--
0000|00|--
0000|00|--
0000|00|--
0000|00|--
0000|00|--
0000|00|--
0000|00|--
0000|00|--
0000|00|--
0000|00|--
0000|00|--
0000|00|--
0000|00|--
0000|00|--
0000|00|--
0000|00|--
0000|00|--
0000|00|--
0000|00|--
0000|00|--
0000|00|--
0000|00|--
0000|00|--
0000|00|--
0000|00|--
0000|00|--
0000|00|--
0000|00|--
0000|00|--
0000|00|--
0000|00|--
0000|00|--
0000|00|--
0000|00|--
0000|00|--
0000|00|--
0000|00|--
0000|00|--
0000|00|--
0000|00|--
0000|00|--
--
0000|00|--
0000|00|--
0000|00|--
0000|00|--
0000|00|--
0000|00|--
0000|00|--
0000|00|--
0000|00|--
0000|00|--
0000|00|--
0000|00|--
0000|00|--
0000|00|--
0000|00|--
0000|00|--
0000|00|--
0000|00|--
0000|00|--
0000|00|--
0000|00|--
0000|00|--
0000|00|--
0000|00|--
0000|00|--
0000|00|--
0000|00|--
0000|00|--
0000|00|--
0000|00|--
0000|00|--
0000|00|--
0000|00|--
0000|00|--
0000|00|--
0000|00|--
0000|00|--
0000|00|--
0000|00|--
0000|00|--
0000|00|--
0000|00|--
0000|00|--
0000|00|--
0000|00|--
0000|00|--
0000|00|--
0000|00|--
0000|00|--
0000|00|--
0000|00|--
0000|00|--
0000|00|--
0000|00|--
0000|00|--
0000|00|--
0000|00|--
0000|00|--
0000|00|--
0000|00|--
0000|00|--
0000|00|--
0000|00|--
0000|00|--
--
0000|00|-o
0000|00|-:
0000|00|-:
0000|00|-:
0000|00|-:
0000|00|-:
0000|00|-:
0000|00|-:
0000|00|-:
0000|00|-:
0000|00|-:
0000|00|-:
0000|00|-:
0000|00|-:
0000|00|-:
0000|00|-:
0000|00|-:
0000|00|-:
0000|00|-:
0000|00|-:
0000|00|-:
0000|00|-:
0000|00|-:
0000|00|-:
0000|00|-:
0000|00|-:
0000|00|-:
0000|00|-:
0000|00|-:
0000|00|-:
0000|00|-:
0000|00|-:
0000|00|-:
0000|00|-:
0000|00|-:
0000|00|-:
0000|00|-:
0000|00|-:
0000|00|-:
0000|00|-:
0000|00|-:
0000|00|-:
0000|00|-:
0000|00|-:
0000|00|-:
0000|00|-:
0000|00|-:
0000|00|-:
0000|00|-:
0000|00|-:
0000|00|-:
0000|00|-:
0000|00|-:
0000|00|-:
0000|00|-:
0000|00|-:
0000|00|-:
0000|00|-:
0000|00|-:
0000|00|-:
0000|00|-:
0000|00|-:
0000|00|-:
0000|00|-:
--
0000|00|-:
0000|00|-:
0000|00|-:
0000|00|-:
0000|00|-:
0000|00|-:
0000|00|-:
0000|00|-:
0000|00|-:
0000|00|-:
0000|00|-:
0000|00|-:
0000|00|-:
0000|00|-:
0000|00|-:
0000|00|-:
0000|00|-:
0000|00|-:
0000|00|-:
0000|00|-:
0000|00|-:
0000|00|-:
0000|00|-:
0000|00|-:
0000|00|-:
0000|00|-:
0000|00|-:
0000|00|-:
0000|00|-:
0000|00|-:
0000|00|-:
0000|00|-:
0000|00|-:
0000|00|-:
0000|00|-:
0000|00|-:
0000|00|-:
0000|00|-:
0000|00|-:
0000|00|-:
0000|00|-:
0000|00|-:
0000|00|-:
0000|00|-:
0000|00|-:
0000|00|-:
0000|00|-:
0000|00|-:
0000|00|-:
0000|00|-:
0000|00|-:
0000|00|-:
0000|00|-:
0000|00|-:
0000|00|-:
0000|00|-:
0000|00|-:
0000|00|-:
0000|00|-:
0000|00|-:
0000|00|-:
0000|00|-:
0000|00|-:
0000|00|-:
--
0000|00|-:
0000|00|-:
0000|00|-:
0000|00|-:
0000|00|-:
0000|00|-:
0000|00|-:
0000|00|-:
0000|00|-:
0000|00|-:
0000|00|-:
0000|00|-:
0000|00|-:
0000|00|-:
0000|00|-:
0000|00|-:
0000|00|-:
0000|00|-:
0000|00|-:
0000|00|-:
0000|00|-:
0000|00|-:
0000|00|-:
0000|00|-:
0000|00|-:
0000|00|-:
0000|00|-:
0000|00|-:
0000|00|-:
0000|00|-:
0000|00|-:
0000|00|-:
0000|00|-:
0000|00|-:
0000|00|-:
0000|00|-:
0000|00|-:
0000|00|-:
0000|00|-:
0000|00|-:
0000|00|-:
0000|00|-:
0000|00|-:
0000|00|-:
0000|00|-:
0000|00|-:
0000|00|-:
0000|00|-:
0000|00|-:
0000|00|-:
0000|00|-:
0000|00|-:
0000|00|-:
0000|00|-:
0000|00|-:
0000|00|-:
0000|00|-:
0000|00|-:
0000|00|-:
0000|00|-:
0000|00|-:
0000|00|-:
0000|00|-:
0000|00|-:
--
0000|00|-:
0000|00|-:
0000|00|-:
0000|00|-:
0000|00|-:
0000|00|-:
0000|00|-:
0000|00|-:
0000|00|-:
0000|00|-:
0000|00|-:
0000|00|-:
0000|00|-:
0000|00|-:
0000|00|-:
0000|00|-:
0000|00|-:
0000|00|-:
0000|00|-:
0000|00|-:
0000|00|-:
0000|00|-:
0000|00|-:
0000|00|-:
0000|00|-:
0000|00|-:
0000|00|-:
0000|00|-:
0000|00|-:
0000|00|-:
0000|00|-:
0000|00|-:
0000|00|-:
0000|00|-:
0000|00|-:
0000|00|-:
0000|00|-:
0000|00|-:
0000|00|-:
0000|00|-:
0000|00|-:
0000|00|-:
0000|00|-:
0000|00|-:
0000|00|-:
0000|00|-:
0000|00|-:
0000|00|-:
0000|00|-:
0000|00|-:
0000|00|-:
0000|00|-:
0000|00|-:
0000|00|-:
0000|00|-:
0000|00|-:
0000|00|-:
0000|00|-:
0000|00|-:
0000|00|-:
0000|00|-:
0000|00|-:
0000|00|-:
0000|00|-:
--
0000|00|-0
0000|00|--
0000|00|--
0000|00|--
0000|00|--
0000|00|--
0000|00|--
0000|00|--
0000|00|--
0000|00|--
0000|00|--
0000|00|--
0000|00|--
0000|00|--
0000|00|--
0000|00|--
0000|00|--
0000|00|--
0000|00|--
0000|00|--
0000|00|--
0000|00|--
0000|00|--
0000|00|--
0000|00|--
0000|00|--
0000|00|--
0000|00|--
0000|00|--
0000|00|--
0000|00|--
0000|00|--
0000|00|--
0000|00|--
0000|00|--
0000|00|--
0000|00|--
0000|00|--
0000|00|--
0000|00|--
0000|00|--
0000|00|--
0000|00|--
0000|00|--
0000|00|--
0000|00|--
0000|00|--
0000|00|--
0000|00|--
0000|00|--
0000|00|--
0000|00|--
0000|00|--
0000|00|--
0000|00|--
0000|00|--
0000|00|--
0000|00|--
0000|00|--
0000|00|--
0000|00|--
0000|00|--
0000|00|--
0000|00|--
--
0000|00|--
0000|00|--
0000|00|--
0000|00|--
0000|00|--
0000|00|--
0000|00|--
0000|00|--
0000|00|--
0000|00|--
0000|00|--
0000|00|--
0000|00|--
0000|00|--
0000|00|--
0000|00|--
0000|00|--
0000|00|--
0000|00|--
0000|00|--
0000|00|--
0000|00|--
0000|00|--
0000|00|--
0000|00|--
0000|00|--
0000|00|--
0000|00|--
0000|00|--
0000|00|--
0000|00|--
0000|00|--
0000|00|--
0000|00|--
0000|00|--
0000|00|--
0000|00|--
0000|00|--
0000|00|--
0000|00|--
0000|00|--
0000|00|--
0000|00|--
0000|00|--
0000|00|--
0000|00|--
0000|00|--
0000|00|--
0000|00|--
0000|00|--
0000|00|--
0000|00|--
0000|00|--
0000|00|--
0000|00|--
0000|00|--
0000|00|--
0000|00|--
0000|00|--
0000|00|--
0000|00|--
0000|00|--
0000|00|--
0000|00|--
--
0000|00|--
0000|00|--
0000|00|--
0000|00|--
0000|00|--
0000|00|--
0000|00|--
0000|00|--
0000|00|--
0000|00|--
0000|00|--
0000|00|--
0000|00|--
0000|00|--
0000|00|--
0000|00|--
0000|00|--
0000|00|--
0000|00|--
0000|00|--
0000|00|--
0000|00|--
0000|00|--
0000|00|--
0000|00|--
0000|00|--
0000|00|--
0000|00|--
0000|00|--
0000|00|--
0000|00|--
0000|00|--
0000|00|--
0000|00|--
0000|00|--
0000|00|--
0000|00|--
0000|00|--
0000|00|--
0000|00|--
0000|00|--
0000|00|--
0000|00|--
0000|00|--
0000|00|--
0000|00|--
0000|00|--
0000|00|--
0000|00|--
0000|00|--
0000|00|--
0000|00|--
0000|00|--
0000|00|--
0000|00|--
0000|00|--
0000|00|--
0000|00|--
0000|00|--
0000|00|--
0000|00|--
0000|00|--
0000|00|--
0000|00|--
--
