title=further the future
artist=上村香月
effect=SCバイオメトリクス
jacket=nov_jacket.png
illustrator=KING
difficulty=extended
level=14
t=142
m=nofx.ogg;exh.ogg
mvol=100
o=0
bg=night
layer=arrow
po=46917
plength=15000
pfiltergain=0
filtertype=fx;bitc
chokkakuvol=0
icon=../sdvx02.png
ver=140d
--
beat=4/4
t=142
tilt=normal
0000|00|--
0000|00|--
0000|00|--
0000|00|--
0000|00|--
0000|00|--
0000|00|--
0000|00|--
0000|00|--
0000|00|--
0000|00|--
0000|00|--
0000|00|--
0000|00|--
0000|00|--
0000|00|--
0000|00|--
0000|00|--
0000|00|--
0000|00|--
0000|00|--
0000|00|--
0000|00|--
0000|00|--
0000|00|--
0000|00|--
0000|00|--
0000|00|--
0000|00|--
0000|00|--
0000|00|--
0000|00|--
0000|00|--
0000|00|--
0000|00|--
0000|00|--
0000|00|--
0000|00|--
0000|00|--
0000|00|--
0000|00|--
0000|00|--
0000|00|--
0000|00|--
0000|00|--
0000|00|--
0000|00|--
0000|00|--
0000|00|--
0000|00|--
0000|00|--
0000|00|--
0000|00|--
0000|00|--
0000|00|--
0000|00|--
0000|00|--
0000|00|--
0000|00|--
0000|00|--
0000|00|--
0000|00|--
0000|00|--
0000|00|--
--
0000|00|--
0000|00|--
0000|00|--
0000|00|--
0000|00|--
0000|00|--
0000|00|--
0000|00|--
0000|00|--
0000|00|--
0000|00|--
0000|00|--
0000|00|--
0000|00|--
0000|00|--
0000|00|--
0000|00|--
0000|00|--
0000|00|--
0000|00|--
0000|00|--
0000|00|--
0000|00|--
0000|00|--
0000|00|--
0000|00|--
0000|00|--
0000|00|--
0000|00|--
0000|00|--
0000|00|--
0000|00|--
0000|00|--
0000|00|--
0000|00|--
0000|00|--
0000|00|--
0000|00|--
0000|00|--
0000|00|--
0000|00|--
0000|00|--
0000|00|--
0000|00|--
0000|00|--
0000|00|--
0000|00|--
0000|00|--
0000|22|--
0000|00|--
0000|00|--
0000|00|--
0000|00|--
0000|00|--
0000|00|--
0000|00|--
0000|00|--
0000|00|--
0000|00|--
0000|00|--
0000|00|--
0000|00|--
0000|00|--
0000|00|--
--
0000|00|0o
0000|00|::
0000|00|o:
0000|00|-:
0000|00|-:
0000|00|-:
0000|00|-:
0000|00|-:
0000|00|-:
0000|00|-:
0000|00|-:
0000|00|-:
0100|00|-:
0000|00|-:
0000|00|-:
0000|00|-:
0000|00|-:
0000|00|-:
0000|00|-:
0000|00|-:
0000|00|-:
0000|00|-:
0000|00|-:
0000|00|-:
1000|00|-:
0000|00|-:
0000|00|-:
0000|00|-:
0000|00|-:
0000|00|-:
0000|00|-:
0000|00|-:
0000|10|-:
0000|10|-:
0000|10|-:
0000|10|-:
0000|10|-:
0000|10|-:
0000|10|-:
0000|10|-:
0000|10|-:
0000|10|-:
0000|10|-:
0000|10|-:
0000|10|-:
0000|10|-:
0000|10|-:
0000|10|-:
0000|10|-:
0000|10|-:
0000|10|-:
0000|10|-:
0000|10|-:
0000|10|-:
0000|10|-:
0000|10|-:
0000|00|-0
0000|00|-:
0000|00|-o
0000|00|-:
0000|00|-:
0000|00|-:
0000|00|-:
0000|00|-:
--
0000|00|0o
0000|00|::
0000|00|:0
0000|00|:-
0000|00|:-
0000|00|:-
0000|00|:-
0000|00|:-
0000|00|:-
0000|00|:-
0000|00|:-
0000|00|:-
0010|00|:-
0000|00|:-
0000|00|:-
0000|00|:-
0000|00|:-
0000|00|:-
0000|00|:-
0000|00|:-
0000|00|:-
0000|00|:-
0000|00|:-
0000|00|:-
0001|00|:-
0000|00|:-
0000|00|:-
0000|00|:-
0000|00|:-
0000|00|:-
0000|00|:-
0000|00|:-
0000|01|:-
0000|01|:-
0000|01|:-
0000|01|:-
0000|01|:-
0000|01|:-
0000|01|:-
0000|01|:-
0000|01|:-
0000|01|:-
0000|01|:-
0000|01|:-
0000|01|:-
0000|01|:-
0000|01|:-
0000|01|:-
0000|01|:-
0000|01|:-
0000|01|:-
0000|01|:-
0000|01|:-
0000|01|:-
0000|01|:-
0000|01|:-
0000|00|o-
0000|00|:-
0000|00|0-
0000|00|:-
0000|00|:-
0000|00|:-
0000|00|:-
0000|00|:-
--
0000|00|0o
0000|00|::
0000|00|o:
0000|00|-:
0000|00|-:
0000|00|-:
0000|00|-:
0000|00|-:
0000|00|-:
0000|00|-:
0000|00|-:
0000|00|-:
1000|00|-:
0000|00|-:
0000|00|-:
0000|00|-:
0000|00|-:
0000|00|-:
0000|00|-:
0000|00|-:
0000|00|-:
0000|00|-:
0000|00|-:
0000|00|-:
0000|20|-0
0000|00|-:
0000|00|-o
0000|00|-:
0000|00|-:
0000|00|-:
0000|00|-:
0000|00|-:
0000|00|0o
0000|00|::
0000|00|:0
0000|00|:-
0000|00|:-
0000|00|:-
0000|00|:-
0000|00|:-
0000|00|:-
0000|00|:-
0000|00|:-
0000|00|:-
0001|00|:-
0000|00|:-
0000|00|:-
0000|00|:-
0000|00|:-
0000|00|:-
0000|00|:-
0000|00|:-
0000|00|:-
0000|00|:-
0000|00|:-
0000|00|:-
0000|02|o-
0000|00|:-
0000|00|0-
0000|00|:-
0000|00|:-
0000|00|:-
0000|00|:-
0000|00|:-
--
0001|00|0-
0000|00|:-
0000|00|o-
0000|00|--
0000|00|--
0000|00|--
0000|00|--
0000|00|--
0000|00|--
0000|00|--
0000|00|--
0000|00|--
0010|00|--
0000|00|--
0000|00|--
0000|00|--
0000|00|--
0000|00|--
0000|00|--
0000|00|--
0000|00|--
0000|00|--
0000|00|--
0000|00|--
0100|00|--
0000|00|--
0000|00|--
0000|00|--
0000|00|--
0000|00|--
0000|00|--
0000|00|--
0000|10|-o
0000|10|-:
0000|10|-:
0000|10|-:
0000|10|-:
0000|10|-:
0000|10|-:
0000|10|-:
0000|10|-:
0000|10|-:
0000|10|-:
0000|10|-:
0000|10|-:
0000|10|-:
0000|10|-:
0000|10|-:
0000|00|-0
0000|00|-:
0000|00|-o
0000|00|--
0000|00|--
0000|00|--
0000|00|--
0000|00|--
0100|00|--
0000|00|--
0000|00|--
0000|00|--
0000|00|--
0000|00|--
0000|00|--
0000|00|--
--
1002|00|--
0002|00|--
0002|00|--
0002|00|--
0002|00|--
0002|00|--
0002|00|--
0002|00|--
0002|00|--
0002|00|--
0002|00|--
0002|00|--
0002|00|--
0002|00|--
0002|00|--
0002|00|--
1000|00|--
0000|00|--
0000|00|--
0000|00|--
0000|00|--
0000|00|--
0000|00|--
0000|00|--
0100|00|--
0000|00|--
0000|00|--
0000|00|--
0010|00|--
0000|00|--
0000|00|--
0000|00|--
1001|00|--
0000|00|--
0000|00|--
0000|00|--
0000|00|--
0000|00|--
0000|00|--
0000|00|--
0010|00|--
0000|00|--
0000|00|--
0000|00|--
0100|00|--
0000|00|--
0000|00|--
0000|00|--
1000|00|--
0000|00|--
0000|00|--
0000|00|--
0010|00|--
0000|00|--
0000|00|--
0000|00|--
0000|00|--
0000|00|--
0000|00|--
0000|00|--
0100|00|--
0000|00|--
0000|00|--
0000|00|--
--
1002|00|--
0002|00|--
0002|00|--
0002|00|--
0002|00|--
0002|00|--
0002|00|--
0002|00|--
0002|00|--
0002|00|--
0002|00|--
0002|00|--
0002|00|--
0002|00|--
0002|00|--
0002|00|--
1000|00|--
0000|00|--
0000|00|--
0000|00|--
0000|00|--
0000|00|--
0000|00|--
0000|00|--
0100|00|--
0000|00|--
0000|00|--
0000|00|--
0010|00|--
0000|00|--
0000|00|--
0000|00|--
1001|00|--
0000|00|--
0000|00|--
0000|00|--
0000|00|--
0000|00|--
0000|00|--
0000|00|--
0010|00|--
0000|00|--
0000|00|--
0000|00|--
0100|00|--
0000|00|--
0000|00|--
0000|00|--
1000|00|--
0000|00|--
0000|00|--
0000|00|--
0010|00|--
0000|00|--
0000|00|--
0000|00|--
0001|00|--
0000|00|--
0000|00|--
0000|00|--
0000|00|--
0000|00|--
0000|00|--
0000|00|--
--
0000|01|--
0000|01|--
0000|01|--
0000|01|--
0000|01|--
0000|01|--
0000|01|--
0000|01|--
0000|10|--
0000|10|--
0000|10|--
0000|10|--
0000|10|--
0000|10|--
0000|10|--
0000|10|--
0000|01|--
0000|01|--
0000|01|--
0000|01|--
0000|01|--
0000|01|--
0000|01|--
0000|01|--
0000|10|--
0000|10|--
0000|10|--
0000|10|--
0000|10|--
0000|10|--
0000|10|--
0000|10|--
1000|00|--
0000|00|--
0000|00|--
0000|00|--
0100|00|--
0000|00|--
0000|00|--
0000|00|--
0010|00|--
0000|00|--
0000|00|--
0000|00|--
0001|00|--
0000|00|--
0000|00|--
0000|00|--
1000|00|--
0000|00|--
0000|00|--
0000|00|--
0100|00|--
0000|00|--
0000|00|--
0000|00|--
0010|00|--
0000|00|--
0000|00|--
0000|00|--
0001|00|--
0000|00|--
0000|00|--
0000|00|--
--
0000|02|0-
0000|00|:-
0000|00|o-
0000|00|--
0000|00|--
0000|00|--
0000|00|--
0000|00|--
0000|00|--
0000|00|--
0000|00|--
0000|00|--
0000|20|-o
0000|00|-:
0000|00|-0
0000|00|--
0000|00|--
0000|00|--
0000|00|--
0000|00|--
0000|00|--
0000|00|--
0000|00|--
0000|00|--
1111|00|--
0000|00|--
0000|00|--
0000|00|--
0000|00|--
0000|00|--
0000|00|--
0000|00|--
0000|00|0o
0000|00|::
0000|00|::
0000|00|::
0000|00|::
0000|00|::
0000|00|::
0000|00|::
0000|00|::
0000|00|::
0000|00|::
0000|00|::
0000|00|::
0000|00|::
0000|00|::
0000|00|::
0000|00|o0
0000|00|::
0000|00|PP
0000|00|::
0000|00|PP
0000|00|::
0000|00|o0
0000|00|--
0000|00|--
0000|00|--
0000|00|--
0000|00|--
0000|00|--
0000|00|--
0000|00|--
0000|00|--
--
1100|00|-o
0000|00|-:
0000|00|-0
0000|00|--
0000|00|--
0000|00|--
0000|00|--
0000|00|--
0000|00|--
0000|00|--
0000|00|--
0000|00|--
0011|00|0-
0000|00|:-
0000|00|o-
0000|00|--
0000|00|--
0000|00|--
0000|00|--
0000|00|--
0000|00|--
0000|00|--
0000|00|--
0000|00|--
0000|22|--
0000|00|--
0000|00|--
0000|00|--
0000|00|--
0000|00|--
0000|00|--
0000|00|--
0000|00|0o
0000|00|::
0000|00|::
0000|00|::
0000|00|::
0000|00|::
0000|00|::
0000|00|::
0000|00|::
0000|00|::
0000|00|::
0000|00|::
0000|00|::
0000|00|::
0000|00|::
0000|00|::
0000|00|PP
0000|00|::
0000|00|0o
0000|00|::
0000|00|0o
0000|00|::
0000|00|PP
0000|00|--
0000|00|--
0000|00|--
0000|00|--
0000|00|--
0000|00|--
0000|00|--
0000|00|--
0000|00|--
--
0020|20|--
0020|00|--
0020|00|--
0020|00|--
0020|00|--
0020|00|--
0020|00|--
0020|00|--
0020|00|--
0020|00|--
0020|00|--
0020|00|--
0020|00|--
0020|00|--
0020|00|--
0020|00|--
0001|20|--
0000|00|--
0000|00|--
0000|00|--
0000|00|--
0000|00|--
0000|00|--
0000|00|--
0020|00|--
0020|00|--
0020|00|--
0020|00|--
0020|00|--
0020|00|--
0020|00|--
0020|00|--
0020|20|--
0020|00|--
0020|00|--
0020|00|--
0020|00|--
0020|00|--
0020|00|--
0020|00|--
0001|00|--
0000|00|--
0000|00|--
0000|00|--
0000|00|--
0000|00|--
0000|00|--
0000|00|--
0010|20|--
0000|00|--
0000|00|--
0000|00|--
0000|00|--
0000|00|--
0000|00|--
0000|00|--
0000|01|--
0000|01|--
0000|01|--
0000|01|--
0000|01|--
0000|01|--
0000|01|--
0000|01|--
--
1000|01|--
0000|01|--
0000|01|--
0000|01|--
0100|01|--
0000|01|--
0000|01|--
0000|01|--
0010|01|--
0000|01|--
0000|01|--
0000|01|--
0000|01|--
0000|01|--
0000|01|--
0000|01|--
1000|01|--
0000|01|--
0000|01|--
0000|01|--
0100|01|--
0000|01|--
0000|01|--
0000|01|--
0010|01|--
0000|01|--
0000|01|--
0000|01|--
0000|01|--
0000|01|--
0000|01|--
0000|01|--
0100|01|--
0000|01|--
0000|01|--
0000|01|--
0010|01|--
0000|01|--
0000|01|--
0000|01|--
0001|01|--
0000|01|--
0000|01|--
0000|01|--
0000|01|--
0000|01|--
0000|01|--
0000|01|--
0100|00|--
0000|00|--
0000|00|--
0000|00|--
0010|00|--
0000|00|--
0000|00|--
0000|00|--
0001|00|--
0000|00|--
0000|00|--
0000|00|--
0000|00|--
0000|00|--
0000|00|--
0000|00|--
--
0200|02|--
0200|00|--
0200|00|--
0200|00|--
0200|00|--
0200|00|--
0200|00|--
0200|00|--
0200|00|--
0200|00|--
0200|00|--
0200|00|--
0200|00|--
0200|00|--
0200|00|--
0200|00|--
1000|02|--
0000|00|--
0000|00|--
0000|00|--
0000|00|--
0000|00|--
0000|00|--
0000|00|--
0200|00|--
0200|00|--
0200|00|--
0200|00|--
0200|00|--
0200|00|--
0200|00|--
0200|00|--
0200|02|--
0200|00|--
0200|00|--
0200|00|--
0200|00|--
0200|00|--
0200|00|--
0200|00|--
1000|00|--
0000|00|--
0000|00|--
0000|00|--
0000|00|--
0000|00|--
0000|00|--
0000|00|--
0100|02|--
0000|00|--
0000|00|--
0000|00|--
0000|00|--
0000|00|--
0000|00|--
0000|00|--
0000|10|--
0000|10|--
0000|10|--
0000|10|--
0000|10|--
0000|10|--
0000|10|--
0000|10|--
--
0001|10|--
0000|10|--
0000|10|--
0000|10|--
0010|10|--
0000|10|--
0000|10|--
0000|10|--
0100|10|--
0000|10|--
0000|10|--
0000|10|--
0000|10|--
0000|10|--
0000|10|--
0000|10|--
0001|10|--
0000|10|--
0000|10|--
0000|10|--
0010|10|--
0000|10|--
0000|10|--
0000|10|--
0100|10|--
0000|10|--
0000|10|--
0000|10|--
0000|10|--
0000|10|--
0000|10|--
0000|10|--
0010|10|--
0000|10|--
0000|10|--
0000|10|--
0100|10|--
0000|10|--
0000|10|--
0000|10|--
1000|10|--
0000|10|--
0000|10|--
0000|10|--
0000|10|--
0000|10|--
0000|10|--
0000|10|--
0010|00|--
0000|00|--
0000|00|--
0000|00|--
0100|00|--
0000|00|--
0000|00|--
0000|00|--
1000|00|--
0000|00|--
0000|00|--
0000|00|--
0000|00|--
0000|00|--
0000|00|--
0000|00|--
--
0020|20|--
0020|00|--
0020|00|--
0020|00|--
0020|00|--
0020|00|--
0020|00|--
0020|00|--
0020|00|--
0020|00|--
0020|00|--
0020|00|--
0020|00|--
0020|00|--
0020|00|--
0020|00|--
0000|20|--
0000|00|--
0000|00|--
0000|00|--
0000|00|--
0000|00|--
0000|00|--
0000|00|--
0001|00|--
0000|00|--
0000|00|--
0000|00|--
0000|00|--
0000|00|--
0000|00|--
0000|00|--
0010|20|--
0000|00|--
0000|00|--
0000|00|--
0000|00|--
0000|00|--
0000|00|--
0000|00|--
0100|00|--
0000|00|--
0000|00|--
0000|00|--
0000|00|--
0000|00|--
0000|00|--
0000|00|--
0010|20|--
0000|00|--
0000|00|--
0000|00|--
0000|00|--
0000|00|--
0000|00|--
0000|00|--
0001|00|--
0000|00|--
0000|00|--
0000|00|--
0000|00|--
0000|00|--
0000|00|--
0000|00|--
--
0020|10|--
0020|10|--
0020|10|--
0020|10|--
0020|10|--
0020|10|--
0020|10|--
0020|10|--
0020|10|--
0020|10|--
0020|10|--
0020|10|--
0020|10|--
0020|10|--
0020|10|--
0020|10|--
1000|01|--
0000|01|--
0000|01|--
0000|01|--
0100|01|--
0000|01|--
0000|01|--
0000|01|--
0002|10|--
0002|10|--
0002|10|--
0002|10|--
0002|10|--
0002|10|--
0002|10|--
0002|10|--
0002|10|--
0002|10|--
0002|10|--
0002|10|--
0002|10|--
0002|10|--
0002|10|--
0002|10|--
0002|10|--
0002|10|--
0002|10|--
0002|10|--
0002|10|--
0002|10|--
0002|10|--
0002|10|--
1000|01|--
0000|01|--
0000|01|--
0000|01|--
0100|01|--
0000|01|--
0000|01|--
0000|01|--
0020|10|--
0020|10|--
0020|10|--
0020|10|--
0020|10|--
0020|10|--
0020|10|--
0020|10|--
--
0020|10|--
0020|10|--
0020|10|--
0020|10|--
0020|10|--
0020|10|--
0020|10|--
0020|10|--
0020|10|--
0020|10|--
0020|10|--
0020|10|--
0020|10|--
0020|10|--
0020|10|--
0020|10|--
0001|00|--
0000|00|--
0000|00|--
0000|00|--
0000|00|--
0000|00|--
0000|00|--
0000|00|--
0100|00|--
0000|00|--
0000|00|--
0000|00|--
0000|00|--
0000|00|--
0000|00|--
0000|00|--
2002|00|--
2002|00|--
2002|00|--
2002|00|--
2002|00|--
2002|00|--
2002|00|--
2002|00|--
2002|00|--
2002|00|--
2002|00|--
2002|00|--
2002|00|--
2002|00|--
2002|00|--
2002|00|--
0010|00|--
0000|00|--
0000|00|--
0000|00|--
0000|00|--
0000|00|--
0000|00|--
0000|00|--
0100|00|--
0000|00|--
0000|00|--
0000|00|--
0000|00|--
0000|00|--
0000|00|--
0000|00|--
--
1000|10|-o
0000|10|-:
0000|10|-:
0000|10|-:
0000|10|-:
0000|10|-:
0000|10|-:
0000|10|-:
0100|10|-:
0000|10|-:
0000|10|-:
0000|10|-:
0000|10|-:
0000|10|-:
0000|10|-:
0000|10|-:
1000|10|-:
0000|10|-:
0000|10|-:
0000|10|-:
0000|10|-:
0000|10|-:
0000|10|-:
0000|10|-:
0100|10|-:
0000|10|-:
0000|10|-:
0000|10|-:
0000|10|-:
0000|10|-:
0000|10|-:
0000|10|-:
1000|10|-:
0000|10|-:
0000|10|-:
0000|10|-:
0000|10|-:
0000|10|-:
0000|10|-:
0000|10|-:
0100|10|-:
0000|10|-:
0000|10|-:
0000|10|-:
0000|10|-:
0000|10|-:
0000|10|-:
0000|10|-:
1000|00|-0
0000|00|-:
0000|00|-o
0000|00|--
0000|00|--
0000|00|--
0000|00|--
0000|00|--
0100|00|--
0000|00|--
0000|00|--
0000|00|--
0000|00|--
0000|00|--
0000|00|--
0000|00|--
--
0011|00|0-
0000|00|:-
0000|00|:-
0000|00|:-
0000|00|:-
0000|00|:-
0000|00|:-
0000|00|:-
0000|00|:-
0000|00|:-
0000|00|:-
0000|00|:-
0000|01|:-
0000|01|:-
0000|01|:-
0000|01|:-
0000|01|:-
0000|01|:-
0000|01|:-
0000|01|:-
0000|01|:-
0000|01|:-
0000|01|:-
0000|01|:-
0022|00|:-
0022|00|:-
0022|00|:-
0022|00|:-
0022|00|:-
0022|00|:-
0022|00|:-
0022|00|:-
0022|00|:-
0022|00|:-
0022|00|:-
0022|00|:-
0022|00|:-
0022|00|:-
0022|00|:-
0022|00|:-
0000|00|o-
0000|00|:-
0000|00|0-
0000|00|:-
0000|00|:-
0000|00|:-
0000|00|:-
0000|00|:-
0011|00|0-
0000|00|:-
0000|00|o-
0000|00|--
0000|00|--
0000|00|--
0000|00|--
0000|00|--
0000|00|--
0000|00|--
0000|00|--
0000|00|--
0000|00|--
0000|00|--
0000|00|--
0000|00|--
--
1100|00|-o
0000|00|-:
0000|00|-:
0000|00|-:
0000|00|-:
0000|00|-:
0000|00|-:
0000|00|-:
0000|00|-:
0000|00|-:
0000|00|-:
0000|00|-:
0000|10|-:
0000|10|-:
0000|10|-:
0000|10|-:
0000|10|-:
0000|10|-:
0000|10|-:
0000|10|-:
0000|10|-:
0000|10|-:
0000|10|-:
0000|10|-:
2200|00|-:
2200|00|-:
2200|00|-:
2200|00|-:
2200|00|-:
2200|00|-:
2200|00|-:
2200|00|-:
2200|00|-:
2200|00|-:
2200|00|-:
2200|00|-:
2200|00|-:
2200|00|-:
2200|00|-:
2200|00|-:
0000|00|-0
0000|00|-:
0000|00|-o
0000|00|-:
0000|00|-:
0000|00|-:
0000|00|-:
0000|00|-:
1100|00|-o
0000|00|-:
0000|00|-0
0000|00|--
0000|00|--
0000|00|--
0000|00|--
0000|00|--
0000|00|--
0000|00|--
0000|00|--
0000|00|--
0000|00|--
0000|00|--
0000|00|--
0000|00|--
--
0011|00|0-
0000|00|:-
0000|00|:-
0000|00|:-
0000|00|:-
0000|00|:-
0000|00|:-
0000|00|:-
0000|00|:-
0000|00|:-
0000|00|:-
0000|00|:-
0000|01|:-
0000|01|:-
0000|01|:-
0000|01|:-
0000|01|:-
0000|01|:-
0000|01|:-
0000|01|:-
0000|01|:-
0000|01|:-
0000|01|:-
0000|01|:-
0022|00|:-
0022|00|:-
0022|00|:-
0022|00|:-
0022|00|:-
0022|00|:-
0022|00|:-
0022|00|:-
0022|00|:-
0022|00|:-
0022|00|:-
0022|00|:-
0022|00|:-
0022|00|:-
0022|00|:-
0022|00|:-
0000|00|o-
0000|00|:-
0000|00|0-
0000|00|:-
0000|00|:-
0000|00|:-
0000|00|:-
0000|00|:-
0011|00|0-
0000|00|:-
0000|00|o-
0000|00|--
0000|00|--
0000|00|--
0000|00|--
0000|00|--
0000|00|--
0000|00|--
0000|00|--
0000|00|--
0000|00|--
0000|00|--
0000|00|--
0000|00|--
--
1100|00|-o
0000|00|-:
0000|00|-:
0000|00|-:
0000|00|-:
0000|00|-:
0000|00|-:
0000|00|-:
0000|00|-:
0000|00|-:
0000|00|-:
0000|00|-:
0000|10|-:
0000|10|-:
0000|10|-:
0000|10|-:
0000|10|-:
0000|10|-:
0000|10|-:
0000|10|-:
0000|10|-:
0000|10|-:
0000|10|-:
0000|10|-:
1100|00|-:
0000|00|-:
0000|00|-:
0000|00|-:
0000|00|-:
0000|00|-:
0000|00|-:
0000|00|-:
1000|00|-0
0000|00|--
0000|00|--
0000|00|--
0100|00|--
0000|00|--
0000|00|--
0000|00|--
0010|00|--
0000|00|--
0000|00|--
0000|00|--
0001|00|--
0000|00|--
0000|00|--
0000|00|--
1000|01|--
0000|01|--
0000|01|--
0000|01|--
0100|01|--
0000|01|--
0000|01|--
0000|01|--
0010|10|--
0000|10|--
0000|10|--
0000|10|--
0001|10|--
0000|10|--
0000|10|--
0000|10|--
--
0000|01|--
0000|01|--
0000|01|--
0000|01|--
0000|01|--
0000|01|--
0000|01|--
0000|01|--
0100|01|--
0000|01|--
0000|01|--
0000|01|--
0010|01|--
0000|01|--
0000|01|--
0000|01|--
0001|01|--
0000|01|--
0000|01|--
0000|01|--
0000|01|--
0000|01|--
0000|01|--
0000|01|--
1000|01|--
0000|01|--
0000|01|--
0000|01|--
0100|01|--
0000|01|--
0000|01|--
0000|01|--
0010|01|--
0000|01|--
0000|01|--
0000|01|--
0000|01|--
0000|01|--
0000|01|--
0000|01|--
0100|01|--
0000|01|--
0000|01|--
0000|01|--
0010|01|--
0000|01|--
0000|01|--
0000|01|--
0001|01|--
0000|01|--
0000|01|--
0000|01|--
0000|01|--
0000|01|--
0000|01|--
0000|01|--
1000|01|--
0000|01|--
0000|01|--
0000|01|--
0100|01|--
0000|01|--
0000|01|--
0000|01|--
--
0010|10|--
0000|10|--
0000|10|--
0000|10|--
0000|10|--
0000|10|--
0000|10|--
0000|10|--
0100|10|--
0000|10|--
0000|10|--
0000|10|--
0010|10|--
0000|10|--
0000|10|--
0000|10|--
0100|10|--
0000|10|--
0000|10|--
0000|10|--
0000|10|--
0000|10|--
0000|10|--
0000|10|--
0010|10|--
0000|10|--
0000|10|--
0000|10|--
0100|10|--
0000|10|--
0000|10|--
0000|10|--
0010|10|--
0000|10|--
0000|10|--
0000|10|--
0000|10|--
0000|10|--
0000|10|--
0000|10|--
0100|10|--
0000|10|--
0000|10|--
0000|10|--
0010|10|--
0000|10|--
0000|10|--
0000|10|--
0100|10|--
0000|10|--
0000|10|--
0000|10|--
0000|10|--
0000|10|--
0000|10|--
0000|10|--
0010|10|--
0000|10|--
0000|10|--
0000|10|--
0100|10|--
0000|10|--
0000|10|--
0000|10|--
--
0010|01|--
0000|01|--
0000|01|--
0000|01|--
0000|01|--
0000|01|--
0000|01|--
0000|01|--
0001|01|--
0000|01|--
0000|01|--
0000|01|--
0010|01|--
0000|01|--
0000|01|--
0000|01|--
0100|01|--
0000|01|--
0000|01|--
0000|01|--
0000|01|--
0000|01|--
0000|01|--
0000|01|--
0010|01|--
0000|01|--
0000|01|--
0000|01|--
0100|01|--
0000|01|--
0000|01|--
0000|01|--
1000|01|--
0000|01|--
0000|01|--
0000|01|--
0000|01|--
0000|01|--
0000|01|--
0000|01|--
0001|01|--
0000|01|--
0000|01|--
0000|01|--
0010|01|--
0000|01|--
0000|01|--
0000|01|--
0100|01|--
0000|01|--
0000|01|--
0000|01|--
0000|01|--
0000|01|--
0000|01|--
0000|01|--
0010|01|--
0000|01|--
0000|01|--
0000|01|--
0100|01|--
0000|01|--
0000|01|--
0000|01|--
--
1000|10|--
0000|10|--
0000|10|--
0000|10|--
0000|10|--
0000|10|--
0000|10|--
0000|10|--
0011|10|--
0000|10|--
0000|10|--
0000|10|--
0000|10|--
0000|10|--
0000|10|--
0000|10|--
1100|10|--
0000|10|--
0000|10|--
0000|10|--
0000|10|--
0000|10|--
0000|10|--
0000|10|--
0011|10|--
0000|10|--
0000|10|--
0000|10|--
0000|10|--
0000|10|--
0000|10|--
0000|10|--
1000|11|--
0000|11|--
0000|11|--
0000|11|--
0100|11|--
0000|11|--
0000|11|--
0000|11|--
0010|11|--
0000|11|--
0000|11|--
0000|11|--
0001|11|--
0000|11|--
0000|11|--
0000|11|--
1000|11|--
0000|11|--
0000|11|--
0000|11|--
0100|11|--
0000|11|--
0000|11|--
0000|11|--
0010|00|--
0000|00|--
0000|00|--
0000|00|--
0000|00|--
0000|00|--
0000|00|--
0000|00|--
--
0000|00|0o
0000|00|::
0000|00|::
0000|00|::
0000|00|::
0000|00|::
0000|00|::
0000|00|::
0000|00|::
0000|00|::
0000|00|::
0000|00|::
0000|00|::
0000|00|::
0000|00|::
0000|00|::
0000|00|::
0000|00|::
0000|00|::
0000|00|::
0000|00|::
0000|00|::
0000|00|::
0000|00|::
0000|00|::
0000|00|::
0000|00|::
0000|00|::
0000|00|::
0000|00|::
0000|00|::
0000|00|::
0000|00|::
0000|00|::
0000|00|::
0000|00|::
0000|00|::
0000|00|::
0000|00|::
0000|00|::
0000|00|::
0000|00|::
0000|00|::
0000|00|::
0000|00|::
0000|00|::
0000|00|::
0000|00|::
0000|00|o0
0000|00|::
0000|00|0o
0000|00|--
0000|00|--
0000|00|--
0000|00|--
0000|00|--
0000|00|--
0000|00|--
0000|00|--
0000|00|--
0000|00|--
0000|00|--
0000|00|--
0000|00|--
--
1000|00|-o
0000|00|-:
0000|00|-:
0000|00|-:
0000|00|-P
0000|00|-:
0000|00|-:
0000|00|-:
0000|00|-J
0000|00|-:
0000|00|-:
0000|00|-:
0100|00|-P
0000|00|-:
0000|00|-:
0000|00|-:
0000|00|-o
0000|00|-:
0000|00|-:
0000|00|-:
0000|00|-P
0000|00|-:
0000|00|-:
0000|00|-:
1000|00|-J
0000|00|-:
0000|00|-:
0000|00|-:
0000|00|-P
0000|00|-:
0000|00|-:
0000|00|-:
0000|10|-o
0000|10|-:
0000|10|-:
0000|10|-:
0000|10|-:
0000|10|-:
0000|10|-:
0000|10|-:
0000|10|-:
0000|10|-:
0000|10|-:
0000|10|-:
0000|10|-:
0000|10|-:
0000|10|-:
0000|10|-:
0000|00|-0
0000|00|-:
0000|00|-o
0000|00|--
0000|00|--
0000|00|--
0000|00|--
0000|00|--
0100|00|--
0000|00|--
0000|00|--
0000|00|--
0010|00|--
0000|00|--
0000|00|--
0000|00|--
--
0001|00|0-
0000|00|:-
0000|00|:-
0000|00|:-
0000|00|P-
0000|00|:-
0000|00|:-
0000|00|:-
0000|00|V-
0000|00|:-
0000|00|:-
0000|00|:-
0010|00|P-
0000|00|:-
0000|00|:-
0000|00|:-
0000|00|0-
0000|00|:-
0000|00|:-
0000|00|:-
0000|00|P-
0000|00|:-
0000|00|:-
0000|00|:-
0001|00|V-
0000|00|:-
0000|00|:-
0000|00|:-
0000|00|P-
0000|00|:-
0000|00|:-
0000|00|:-
0000|01|0-
0000|01|:-
0000|01|:-
0000|01|:-
0000|01|:-
0000|01|:-
0000|01|:-
0000|01|:-
0000|01|:-
0000|01|:-
0000|01|:-
0000|01|:-
0000|01|:-
0000|01|:-
0000|01|:-
0000|01|:-
0000|00|o-
0000|00|:-
0000|00|0-
0000|00|--
0000|00|--
0000|00|--
0000|00|--
0000|00|--
0010|00|--
0000|00|--
0000|00|--
0000|00|--
0000|00|--
0000|00|--
0000|00|--
0000|00|--
--
1000|00|-o
0000|00|-:
0000|00|-:
0000|00|-:
0000|00|-:
0000|00|-:
0000|00|-:
0000|00|-:
0000|00|-:
0000|00|-:
0000|00|-:
0000|00|-:
0100|00|-:
0000|00|-:
0000|00|-:
0000|00|-:
0000|00|-0
0000|00|-:
0000|00|-o
0000|00|--
0000|00|--
0000|00|--
0000|00|--
0000|00|--
1000|00|--
0000|00|--
0000|00|--
0000|00|--
0000|00|--
0000|00|--
0000|00|--
0000|00|--
0001|00|0-
0000|00|:-
0000|00|:-
0000|00|:-
0000|00|:-
0000|00|:-
0000|00|:-
0000|00|:-
0000|00|:-
0000|00|:-
0000|00|:-
0000|00|:-
0010|00|:-
0000|00|:-
0000|00|:-
0000|00|:-
0000|00|o-
0000|00|:-
0000|00|0-
0000|00|--
0000|00|--
0000|00|--
0000|00|--
0000|00|--
0001|00|--
0000|00|--
0000|00|--
0000|00|--
0000|00|--
0000|00|--
0000|00|--
0000|00|--
--
1100|00|-o
0000|00|-:
0000|00|-:
0000|00|-:
0000|00|-:
0000|00|-:
0000|00|-:
0000|00|-:
0000|00|-:
0000|00|-:
0000|00|-:
0000|00|-:
0110|00|-:
0000|00|-:
0000|00|-:
0000|00|-:
0000|00|-:
0000|00|-:
0000|00|-:
0000|00|-:
0000|00|-:
0000|00|-:
0000|00|-:
0000|00|-:
1100|00|-:
0000|00|-:
0000|00|-:
0000|00|-:
0000|00|-:
0000|00|-:
0000|00|-:
0000|00|-:
0000|20|-:
0000|00|-:
0000|00|-:
0000|00|-:
0000|00|-:
0000|00|-:
0000|00|-:
0000|00|-:
0000|00|-0
0000|00|-:
0000|00|-o
0000|00|--
0000|00|--
0000|00|--
0000|00|--
0000|00|--
0000|00|0-
0000|00|:-
0000|00|o-
0000|00|--
0000|00|--
0000|00|--
0000|00|--
0000|00|--
0011|00|--
0000|00|--
0000|00|--
0000|00|--
0000|00|--
0000|00|--
0000|00|--
0000|00|--
--
0000|01|--
0000|01|--
0000|01|--
0000|01|--
0000|01|--
0000|01|--
0000|01|--
0000|01|--
0100|00|--
0000|00|--
0000|00|--
0000|00|--
0010|00|--
0000|00|--
0000|00|--
0000|00|--
0000|10|--
0000|10|--
0000|10|--
0000|10|--
0000|10|--
0000|10|--
0000|10|--
0000|10|--
0010|00|--
0000|00|--
0000|00|--
0000|00|--
0100|00|--
0000|00|--
0000|00|--
0000|00|--
0000|01|--
0000|01|--
0000|01|--
0000|01|--
0000|01|--
0000|01|--
0000|01|--
0000|01|--
0100|00|--
0000|00|--
0000|00|--
0000|00|--
0010|00|--
0000|00|--
0000|00|--
0000|00|--
0000|10|--
0000|10|--
0000|10|--
0000|10|--
0000|10|--
0000|10|--
0000|10|--
0000|10|--
0010|00|--
0000|00|--
0000|00|--
0000|00|--
0100|00|--
0000|00|--
0000|00|--
0000|00|--
--
1000|01|--
0000|01|--
0000|01|--
0000|01|--
0000|01|--
0000|01|--
0000|01|--
0000|01|--
0001|10|--
0000|10|--
0000|10|--
0000|10|--
0000|10|--
0000|10|--
0000|10|--
0000|10|--
1000|01|--
0000|01|--
0000|01|--
0000|01|--
0000|01|--
0000|01|--
0000|01|--
0000|01|--
0001|00|--
0000|00|--
0000|00|--
0000|00|--
0010|00|--
0000|00|--
0000|00|--
0000|00|--
1000|10|--
0000|10|--
0000|10|--
0000|10|--
0100|10|--
0000|10|--
0000|10|--
0000|10|--
0010|10|--
0000|10|--
0000|10|--
0000|10|--
0001|10|--
0000|10|--
0000|10|--
0000|10|--
0000|11|--
0000|11|--
0000|11|--
0000|11|--
0000|11|--
0000|11|--
0000|11|--
0000|11|--
0001|00|--
0000|00|--
0000|00|--
0000|00|--
0000|00|--
0000|00|--
0000|00|--
0000|00|--
--
0000|00|0-
0000|00|:-
0000|00|:-
0000|00|:-
0000|00|V-
0000|00|:-
0000|00|:-
0000|00|:-
0000|00|i-
0000|00|:-
0000|00|:-
0000|00|:-
0000|00|:-
0000|00|:-
0000|00|:-
0000|00|:-
1100|00|o-
0000|00|:-
0000|00|:-
0000|00|:-
0000|00|:-
0000|00|:-
0000|00|:-
0000|00|:-
0000|00|i-
0000|00|:-
0000|00|:-
0000|00|:-
0000|00|V-
0000|00|:-
0000|00|:-
0000|00|:-
0000|00|0o
0000|00|-:
0000|00|-:
0000|00|-:
0000|00|-J
0000|00|-:
0000|00|-:
0000|00|-:
0000|00|-6
0000|00|-:
0000|00|-:
0000|00|-:
0000|00|-:
0000|00|-:
0000|00|-:
0000|00|-:
0011|00|-0
0000|00|-:
0000|00|-:
0000|00|-:
0000|00|-:
0000|00|-:
0000|00|-:
0000|00|-:
0000|00|-6
0000|00|-:
0000|00|-:
0000|00|-:
0000|00|-J
0000|00|-:
0000|00|-:
0000|00|-:
--
0000|00|0o
0000|00|::
0000|00|i:
0000|00|::
0000|00|::
0000|00|::
0000|00|::
0000|00|::
0000|00|::
0000|00|::
0000|00|::
0000|00|::
0000|00|:o
0000|00|::
0000|00|:6
0000|00|::
0000|00|::
0000|00|::
0000|00|::
0000|00|::
0000|00|::
0000|00|::
0000|00|::
0000|00|::
0000|00|::
0000|00|::
0000|00|::
0000|00|::
0000|00|::
0000|00|::
0000|00|::
0000|00|::
0000|00|i6
0000|00|::
0000|00|::
0000|00|::
0000|00|JV
0000|00|::
0000|00|::
0000|00|::
0000|00|6i
0000|00|::
0000|00|::
0000|00|::
0000|00|::
0000|00|::
0000|00|::
0000|00|::
0000|00|0o
0000|00|::
0000|00|o0
0000|00|-:
0000|00|-:
0000|00|-:
0000|00|-:
0000|00|-:
0000|00|-:
0000|00|-:
0000|00|-:
0000|00|-:
0000|00|-:
0000|00|-:
0000|00|-:
0000|00|-:
--
1000|00|-0
0000|00|-:
0000|00|-:
0000|00|-:
0000|00|-P
0000|00|-:
0000|00|-:
0000|00|-:
0000|00|-V
0000|00|-:
0000|00|-:
0000|00|-:
0100|00|-P
0000|00|-:
0000|00|-:
0000|00|-:
0000|00|-0
0000|00|-:
0000|00|-:
0000|00|-:
0000|00|-P
0000|00|-:
0000|00|-:
0000|00|-:
1000|00|-V
0000|00|-:
0000|00|-:
0000|00|-:
0000|00|-P
0000|00|-:
0000|00|-:
0000|00|-:
0000|20|-0
0000|00|-:
0000|00|-:
0000|00|-:
0000|00|-:
0000|00|-:
0000|00|-:
0000|00|-:
0000|00|-0
0000|00|-:
0000|00|-o
0000|00|--
0000|00|--
0000|00|--
0000|00|--
0000|00|--
0000|00|0-
0000|00|:-
0000|00|o-
0000|00|:-
0000|00|:-
0000|00|:-
0000|00|:-
0000|00|:-
0001|00|:-
0000|00|:-
0000|00|:-
0000|00|:-
0010|00|:-
0000|00|:-
0000|00|:-
0000|00|:-
--
0001|00|o-
0000|00|:-
0000|00|:-
0000|00|:-
0000|00|P-
0000|00|:-
0000|00|:-
0000|00|:-
0000|00|J-
0000|00|:-
0000|00|:-
0000|00|:-
0010|00|P-
0000|00|:-
0000|00|:-
0000|00|:-
0000|00|o-
0000|00|:-
0000|00|:-
0000|00|:-
0000|00|P-
0000|00|:-
0000|00|:-
0000|00|:-
0001|00|J-
0000|00|:-
0000|00|:-
0000|00|:-
0000|00|P-
0000|00|:-
0000|00|:-
0000|00|:-
0000|02|o-
0000|00|:-
0000|00|:-
0000|00|:-
0000|00|:-
0000|00|:-
0000|00|:-
0000|00|:-
0000|00|o-
0000|00|:-
0000|00|0-
0000|00|--
0000|00|--
0000|00|--
0000|00|--
0000|00|--
0000|00|-o
0000|00|-:
0000|00|-0
0000|00|-:
0000|00|-:
0000|00|-:
0000|00|-:
0000|00|-:
1100|00|-:
0000|00|-:
0000|00|-:
0000|00|-:
0000|00|-:
0000|00|-:
0000|00|-:
0000|00|-:
--
0000|20|-0
0000|00|-:
0000|00|-o
0000|00|-:
0000|00|-:
0000|00|-:
0000|00|-:
0000|00|-:
0000|00|-:
0000|00|-:
0000|00|-:
0000|00|-:
1100|00|-o
0000|00|-:
0000|00|-0
0000|00|--
0000|00|--
0000|00|--
0000|00|--
0000|00|--
0000|00|--
0000|00|--
0000|00|--
0000|00|--
0011|00|--
0000|00|--
0000|00|--
0000|00|--
0000|00|--
0000|00|--
0000|00|--
0000|00|--
0000|02|0-
0000|00|:-
0000|00|o-
0000|00|:-
0000|00|:-
0000|00|:-
0000|00|:-
0000|00|:-
0000|00|:-
0000|00|:-
0000|00|:-
0000|00|:-
0011|00|o-
0000|00|:-
0000|00|0-
0000|00|--
0000|00|--
0000|00|--
0000|00|--
0000|00|--
0000|00|--
0000|00|--
0000|00|--
0000|00|--
1100|00|--
0000|00|--
0000|00|--
0000|00|--
0000|00|--
0000|00|--
0000|00|--
0000|00|--
--
0000|20|-o
0000|00|-:
0000|00|-:
0000|00|-:
0000|00|-:
0000|00|-:
0000|00|-:
0000|00|-:
0000|00|-:
0000|00|-:
0000|00|-:
0000|00|-:
1100|00|-:
0000|00|-:
0000|00|-:
0000|00|-:
0000|00|-:
0000|00|-:
0000|00|-:
0000|00|-:
0000|00|-:
0000|00|-:
0000|00|-:
0000|00|-:
0110|00|-:
0000|00|-:
0000|00|-:
0000|00|-:
0000|00|-:
0000|00|-:
0000|00|-:
0000|00|-:
0011|00|-:
0000|00|-:
0000|00|-:
0000|00|-:
0000|00|-:
0000|00|-:
0000|00|-:
0000|00|-:
0000|00|-0
0000|00|-:
0000|00|-o
0000|00|--
0000|00|--
0000|00|--
0000|00|--
0000|00|--
0000|00|0-
0000|00|:-
0000|00|o-
0000|00|--
0000|00|--
0000|00|--
0000|00|--
0000|00|--
0011|00|--
0000|00|--
0000|00|--
0000|00|--
0000|00|--
0000|00|--
0000|00|--
0000|00|--
--
0000|01|--
0000|01|--
0000|01|--
0000|01|--
0000|01|--
0000|01|--
0000|01|--
0000|01|--
0100|00|--
0000|00|--
0000|00|--
0000|00|--
0010|00|--
0000|00|--
0000|00|--
0000|00|--
0000|10|--
0000|10|--
0000|10|--
0000|10|--
0000|10|--
0000|10|--
0000|10|--
0000|10|--
0010|00|--
0000|00|--
0000|00|--
0000|00|--
0100|00|--
0000|00|--
0000|00|--
0000|00|--
0000|01|--
0000|01|--
0000|01|--
0000|01|--
0000|01|--
0000|01|--
0000|01|--
0000|01|--
0100|00|--
0000|00|--
0000|00|--
0000|00|--
0010|00|--
0000|00|--
0000|00|--
0000|00|--
0000|10|--
0000|10|--
0000|10|--
0000|10|--
0000|10|--
0000|10|--
0000|10|--
0000|10|--
0010|00|--
0000|00|--
0000|00|--
0000|00|--
0100|00|--
0000|00|--
0000|00|--
0000|00|--
--
1000|01|--
0000|01|--
0000|01|--
0000|01|--
0000|01|--
0000|01|--
0000|01|--
0000|01|--
0001|10|--
0000|10|--
0000|10|--
0000|10|--
0000|10|--
0000|10|--
0000|10|--
0000|10|--
1000|01|--
0000|01|--
0000|01|--
0000|01|--
0000|01|--
0000|01|--
0000|01|--
0000|01|--
0001|10|--
0000|10|--
0000|10|--
0000|10|--
0000|10|--
0000|10|--
0000|10|--
0000|10|--
1000|01|--
0000|01|--
0000|01|--
0000|01|--
0100|01|--
0000|01|--
0000|01|--
0000|01|--
1000|01|--
0000|01|--
0000|01|--
0000|01|--
0100|01|--
0000|01|--
0000|01|--
0000|01|--
0000|10|--
0000|10|--
0000|10|--
0000|10|--
0000|10|--
0000|10|--
0000|10|--
0000|10|--
0001|00|--
0000|00|--
0000|00|--
0000|00|--
0000|00|--
0000|00|--
0000|00|--
0000|00|--
--
0020|00|0-
0020|00|:-
0020|00|:-
0020|00|:-
0020|00|:-
0020|00|:-
0020|00|:-
0020|00|:-
0020|00|:-
0020|00|:-
0020|00|:-
0020|00|:-
0020|00|:-
0020|00|:-
0020|00|:-
0020|00|:-
0000|00|o-
0000|00|:-
0000|00|:-
0000|00|:-
0000|00|:-
0000|00|:-
0000|00|:-
0000|00|:-
1001|00|:-
0000|00|:-
0000|00|:-
0000|00|:-
0000|00|:-
0000|00|:-
0000|00|:-
0000|00|:-
0200|00|oo
0200|00|::
0200|00|::
0200|00|::
0200|00|::
0200|00|::
0200|00|::
0200|00|::
0200|00|::
0200|00|::
0200|00|::
0200|00|::
0200|00|::
0200|00|::
0200|00|::
0200|00|::
1000|00|:0
0000|00|::
0000|00|::
0000|00|::
0000|00|::
0000|00|::
0000|00|::
0000|00|::
0110|00|::
0000|00|::
0000|00|::
0000|00|::
0000|00|::
0000|00|::
0000|00|::
0000|00|::
--
0011|00|::
0000|00|::
0000|00|::
0000|00|::
0000|00|::
0000|00|::
0000|00|::
0000|00|::
1100|00|::
0000|00|::
0000|00|::
0000|00|::
0022|00|::
0022|00|::
0022|00|::
0022|00|::
0022|00|::
0022|00|::
0022|00|::
0022|00|::
0022|00|::
0022|00|::
0022|00|::
0022|00|::
0000|00|::
0000|00|::
0000|00|::
0000|00|::
0000|00|::
0000|00|::
0000|00|::
0000|00|::
0000|00|o0
0000|00|::
0000|00|::
0000|00|::
0000|00|::
0000|00|::
0000|00|::
0000|00|::
0000|00|::
0000|00|::
0000|00|::
0000|00|::
0000|00|::
0000|00|::
0000|00|::
0000|00|::
0000|00|0o
0000|00|--
0000|00|--
0000|00|--
0000|00|--
0000|00|--
0000|00|--
0000|00|--
0000|10|--
0000|10|--
0000|10|--
0000|10|--
0000|10|--
0000|10|--
0000|10|--
0000|10|--
--
0100|11|--
0000|11|--
0000|11|--
0000|11|--
1000|11|--
0000|11|--
0000|11|--
0000|11|--
0100|11|--
0000|11|--
0000|11|--
0000|11|--
1000|11|--
0000|11|--
0000|11|--
0000|11|--
0010|11|--
0000|11|--
0000|11|--
0000|11|--
0100|11|--
0000|11|--
0000|11|--
0000|11|--
0010|11|--
0000|11|--
0000|11|--
0000|11|--
0100|11|--
0000|11|--
0000|11|--
0000|11|--
0001|11|--
0000|11|--
0000|11|--
0000|11|--
0010|11|--
0000|11|--
0000|11|--
0000|11|--
0001|11|--
0000|11|--
0000|11|--
0000|11|--
0010|11|--
0000|11|--
0000|11|--
0000|11|--
1000|00|--
0000|00|--
0000|00|--
0000|00|--
0000|00|--
0000|00|--
0000|00|--
0000|00|--
0001|00|--
0000|00|--
0000|00|--
0000|00|--
0000|00|--
0000|00|--
0000|00|--
0000|00|--
--
0011|00|0-
0000|00|:-
0000|00|:-
0000|00|:-
0000|00|:-
0000|00|:-
0000|00|:-
0000|00|:-
0000|00|:-
0000|00|:-
0000|00|:-
0000|00|:-
0110|00|:-
0000|00|:-
0000|00|:-
0000|00|:-
0000|00|:-
0000|00|:-
0000|00|:-
0000|00|:-
0000|00|:-
0000|00|:-
0000|00|:-
0000|00|:-
1100|00|:-
0000|00|:-
0000|00|:-
0000|00|:-
0000|00|:-
0000|00|:-
0000|00|:-
0000|00|:-
0000|10|:-
0000|10|:-
0000|10|:-
0000|10|:-
0000|10|:-
0000|10|:-
0000|10|:-
0000|10|:-
0000|10|:-
0000|10|:-
0000|10|:-
0000|10|:-
0000|10|:-
0000|10|:-
0000|10|:-
0000|10|:-
0000|00|o-
0000|00|:-
0000|00|0-
0000|00|--
0000|00|--
0000|00|--
0000|00|--
0000|00|--
0000|00|--
0000|00|--
0000|00|--
0000|00|--
0000|00|--
0000|00|--
0000|00|--
0000|00|--
--
1100|00|-o
0000|00|-:
0000|00|-:
0000|00|-:
0000|00|-:
0000|00|-:
0000|00|-:
0000|00|-:
0000|00|-:
0000|00|-:
0000|00|-:
0000|00|-:
0000|00|-:
0000|00|-:
0000|00|-:
0000|00|-:
1000|00|-0
0000|00|-:
0000|00|-:
0000|00|-:
0000|00|-:
0000|00|-:
0000|00|-:
0000|00|-:
0100|00|-:
0000|00|-:
0000|00|-:
0000|00|-:
0000|00|-:
0000|00|-:
0000|00|-:
0000|00|-:
1000|00|-:
0000|00|-:
0000|00|-:
0000|00|-:
0000|00|-:
0000|00|-:
0000|00|-:
0000|00|-:
0000|00|-:
0000|00|-:
0000|00|-:
0000|00|-:
0000|00|-:
0000|00|-:
0000|00|-:
0000|00|-:
1000|00|-o
0000|00|-:
0000|00|-P
0000|00|-:
0000|00|-:
0000|00|-:
0000|00|-:
0000|00|-:
0000|00|-:
0000|00|-:
0000|00|-:
0000|00|-:
0000|00|-:
0000|00|-:
0000|00|-:
0000|00|-:
--
0001|00|0:
0000|00|::
0000|00|::
0000|00|::
0000|00|::
0000|00|::
0000|00|::
0000|00|::
0000|00|::
0000|00|::
0000|00|::
0000|00|::
0000|00|::
0000|00|::
0000|00|::
0000|00|::
0011|00|o:
0000|00|::
0000|00|::
0000|00|::
0000|00|::
0000|00|::
0000|00|::
0000|00|::
0000|00|::
0000|00|::
0000|00|::
0000|00|::
0000|00|::
0000|00|::
0000|00|::
0000|00|::
0000|01|::
0000|01|::
0000|01|::
0000|01|::
0000|01|::
0000|01|::
0000|01|::
0000|01|::
0000|01|::
0000|01|::
0001|01|::
0000|01|::
0000|01|::
0000|01|::
0000|01|::
0000|01|::
0000|01|0:
0000|01|::
0000|01|P:
0000|01|::
0000|01|::
0001|01|::
0000|01|::
0000|01|::
0000|01|::
0000|01|::
0000|01|::
0000|01|::
0000|01|::
0000|01|::
0000|01|::
0000|01|::
--
2002|00|::
2002|00|::
2002|00|::
2002|00|::
2002|00|::
2002|00|::
2002|00|::
2002|00|::
2002|00|::
2002|00|::
2002|00|::
2002|00|::
2002|00|::
2002|00|::
2002|00|::
2002|00|::
0000|11|::
0000|11|::
0000|11|::
0000|11|::
0000|11|::
0000|11|::
0000|11|::
0000|11|::
0000|11|::
0000|11|::
0000|11|::
0000|11|::
0000|11|::
0000|11|::
0000|11|::
0000|11|::
1001|00|::
0000|00|::
0000|00|::
0000|00|::
0000|00|::
0000|00|::
0000|00|::
0000|00|::
0000|00|::
0000|00|::
0000|00|::
0000|00|::
0110|00|::
0000|00|::
0000|00|::
0000|00|::
0000|00|::
0000|00|::
0000|00|::
0000|00|::
0000|00|::
0000|00|::
0000|00|::
0000|00|::
1001|00|::
0000|00|::
0000|00|::
0000|00|::
0000|00|::
0000|00|::
0000|00|::
0000|00|::
--
2222|00|::
2222|00|::
2222|00|::
2222|00|::
2222|00|::
2222|00|::
2222|00|::
2222|00|::
2222|00|::
2222|00|::
2222|00|::
2222|00|::
2222|00|::
2222|00|::
2222|00|::
2222|00|::
2222|00|::
2222|00|::
2222|00|::
2222|00|::
2222|00|::
2222|00|::
2222|00|::
2222|00|::
0000|00|::
0000|00|::
0000|00|::
0000|00|::
0000|00|::
0000|00|::
0000|00|::
0000|00|::
0000|00|PP
0000|00|::
0000|00|::
0000|00|::
0000|00|::
0000|00|::
0000|00|::
0000|00|::
0000|00|::
0000|00|::
0000|00|::
0000|00|::
0000|00|::
0000|00|::
0000|00|::
0000|00|::
0000|00|o0
0000|00|::
0000|00|0o
0000|00|::
0000|00|::
0000|00|::
0000|00|::
0000|00|::
0000|00|::
0000|00|::
0000|00|::
0000|00|::
0000|00|::
0000|00|::
0000|00|::
0000|00|::
--
0000|00|0o
0000|00|::
0000|00|P:
0000|00|::
0000|00|::
0000|00|::
0000|00|::
0000|00|::
0000|00|::
0000|00|::
0000|00|::
0000|00|::
0000|00|::
0000|00|::
0000|00|::
0000|00|::
0000|20|:0
0000|00|::
0000|00|::
0000|00|::
0000|00|::
0000|00|::
0000|00|::
0000|00|::
0000|00|::
0000|00|::
0000|00|::
0000|00|::
0000|00|::
0000|00|::
0000|00|::
0000|00|::
0000|00|:o
0000|00|::
0000|00|::
0000|00|::
0000|00|::
0000|00|::
0000|00|::
0000|00|::
0000|00|::
0000|00|::
0000|00|::
0000|00|::
0000|00|::
0000|00|::
0000|00|::
0000|00|::
0000|20|:0
0000|00|::
0000|00|::
0000|00|::
0000|00|::
0000|00|::
0000|00|::
0000|00|::
0000|00|::
0000|00|::
0000|00|::
0000|00|::
0000|00|::
0000|00|::
0000|00|::
0000|00|::
--
0000|00|Po
0000|00|::
0000|00|0P
0000|00|::
0000|00|::
0000|00|::
0000|00|::
0000|00|::
0000|00|::
0000|00|::
0000|00|::
0000|00|::
0000|00|::
0000|00|::
0000|00|::
0000|00|::
0000|02|o:
0000|00|::
0000|00|::
0000|00|::
0000|00|::
0000|00|::
0000|00|::
0000|00|::
0000|00|::
0000|00|::
0000|00|::
0000|00|::
0000|00|::
0000|00|::
0000|00|::
0000|00|::
0000|00|0:
0000|00|::
0000|00|::
0000|00|::
0000|00|::
0000|00|::
0000|00|::
0000|00|::
0000|00|::
0000|00|::
0000|00|::
0000|00|::
0000|00|::
0000|00|::
0000|00|::
0000|00|::
0000|02|o:
0000|00|::
0000|00|::
0000|00|::
0000|00|::
0000|00|::
0000|00|::
0000|00|::
0000|00|::
0000|00|::
0000|00|::
0000|00|::
0000|00|::
0000|00|::
0000|00|::
0000|00|::
--
0000|00|0P
0000|00|::
0000|00|Po
0000|00|--
0000|00|--
0000|00|--
0000|00|--
0000|00|--
0000|00|--
0000|00|--
0000|00|--
0000|00|--
0000|00|--
0000|00|--
0000|00|--
0000|00|--
0110|00|--
0000|00|--
0000|00|--
0000|00|--
0000|00|--
0000|00|--
0000|00|--
0000|00|--
0000|00|--
0000|00|--
0000|00|--
0000|00|--
0000|00|--
0000|00|--
0000|00|--
0000|00|--
1000|01|--
0000|01|--
0000|01|--
0000|01|--
0100|01|--
0000|01|--
0000|01|--
0000|01|--
0010|10|--
0000|10|--
0000|10|--
0000|10|--
0001|10|--
0000|10|--
0000|10|--
0000|10|--
1000|01|--
0000|01|--
0000|01|--
0000|01|--
0100|01|--
0000|01|--
0000|01|--
0000|01|--
0010|10|--
0000|10|--
0000|10|--
0000|10|--
0001|10|--
0000|10|--
0000|10|--
0000|10|--
--
1100|02|--
0000|00|--
0000|00|--
0000|00|--
0000|00|--
0000|00|--
0000|00|--
0000|00|--
0000|00|--
0000|00|--
0000|00|--
0000|00|--
1100|00|--
0000|00|--
0000|00|--
0000|00|--
0000|02|--
0000|00|--
0000|00|--
0000|00|--
0000|00|--
0000|00|--
0000|00|--
0000|00|--
1100|00|--
0000|00|--
0000|00|--
0000|00|--
0000|00|--
0000|00|--
0000|00|--
0000|00|--
0000|02|--
0000|00|--
0000|00|--
0000|00|--
0000|00|--
0000|00|--
0000|00|--
0000|00|--
0110|00|--
0000|00|--
0000|00|--
0000|00|--
0000|00|--
0000|00|--
0000|00|--
0000|00|--
2200|02|--
2200|00|--
2200|00|--
2200|00|--
2200|00|--
2200|00|--
2200|00|--
2200|00|--
0000|00|--
0000|00|--
0000|00|--
0000|00|--
0000|00|--
0000|00|--
0000|00|--
0000|00|--
--
0011|20|--
0000|00|--
0000|00|--
0000|00|--
0000|00|--
0000|00|--
0000|00|--
0000|00|--
0000|00|--
0000|00|--
0000|00|--
0000|00|--
0011|00|--
0000|00|--
0000|00|--
0000|00|--
0000|20|--
0000|00|--
0000|00|--
0000|00|--
0000|00|--
0000|00|--
0000|00|--
0000|00|--
0011|00|--
0000|00|--
0000|00|--
0000|00|--
0000|00|--
0000|00|--
0000|00|--
0000|00|--
0000|20|--
0000|00|--
0000|00|--
0000|00|--
0000|00|--
0000|00|--
0000|00|--
0000|00|--
0110|00|--
0000|00|--
0000|00|--
0000|00|--
0000|00|--
0000|00|--
0000|00|--
0000|00|--
0022|20|--
0022|00|--
0022|00|--
0022|00|--
0022|00|--
0022|00|--
0022|00|--
0022|00|--
0000|00|--
0000|00|--
0000|00|--
0000|00|--
0000|00|--
0000|00|--
0000|00|--
0000|00|--
--
0010|11|--
0000|11|--
0000|11|--
0000|11|--
0001|11|--
0000|11|--
0000|11|--
0000|11|--
0010|11|--
0000|11|--
0000|11|--
0000|11|--
0001|11|--
0000|11|--
0000|11|--
0000|11|--
0100|11|--
0000|11|--
0000|11|--
0000|11|--
0010|11|--
0000|11|--
0000|11|--
0000|11|--
0100|11|--
0000|11|--
0000|11|--
0000|11|--
0010|11|--
0000|11|--
0000|11|--
0000|11|--
1000|11|--
0000|11|--
0000|11|--
0000|11|--
0100|11|--
0000|11|--
0000|11|--
0000|11|--
1000|11|--
0000|11|--
0000|11|--
0000|11|--
0100|11|--
0000|11|--
0000|11|--
0000|11|--
1000|11|--
0000|11|--
0000|11|--
0000|11|--
0100|11|--
0000|11|--
0000|11|--
0000|11|--
0010|11|--
0000|11|--
0000|11|--
0000|11|--
0001|11|--
0000|11|--
0000|11|--
0000|11|--
--
0010|11|--
0000|11|--
0000|11|--
0000|11|--
0001|11|--
0000|11|--
0000|11|--
0000|11|--
0100|11|--
0000|11|--
0000|11|--
0000|11|--
0010|11|--
0000|11|--
0000|11|--
0000|11|--
1000|11|--
0000|11|--
0000|11|--
0000|11|--
0100|11|--
0000|11|--
0000|11|--
0000|11|--
1000|11|--
0000|11|--
0000|11|--
0000|11|--
0010|11|--
0000|11|--
0000|11|--
0000|11|--
0100|11|--
0000|11|--
0000|11|--
0000|11|--
0001|11|--
0000|11|--
0000|11|--
0000|11|--
0010|11|--
0000|11|--
0000|11|--
0000|11|--
0001|11|--
0000|11|--
0000|11|--
0000|11|--
0100|11|--
0000|11|--
0000|11|--
0000|11|--
0010|11|--
0000|11|--
0000|11|--
0000|11|--
1000|11|--
0000|11|--
0000|11|--
0000|11|--
0100|11|--
0000|11|--
0000|11|--
0000|11|--
--
2002|00|--
2002|00|--
2002|00|--
2002|00|--
2002|00|--
2002|00|--
2002|00|--
2002|00|--
2002|00|--
2002|00|--
2002|00|--
2002|00|--
2002|00|--
2002|00|--
2002|00|--
2002|00|--
2002|00|--
2002|00|--
2002|00|--
2002|00|--
2002|00|--
2002|00|--
2002|00|--
2002|00|--
2002|00|--
2002|00|--
2002|00|--
2002|00|--
2002|00|--
2002|00|--
2002|00|--
2002|00|--
2002|00|--
2002|00|--
2002|00|--
2002|00|--
2002|00|--
2002|00|--
2002|00|--
2002|00|--
2002|00|--
2002|00|--
2002|00|--
2002|00|--
2002|00|--
2002|00|--
2002|00|--
2002|00|--
2002|00|--
2002|00|--
2002|00|--
2002|00|--
2002|00|--
2002|00|--
2002|00|--
2002|00|--
2002|00|--
2002|00|--
2002|00|--
2002|00|--
2002|00|--
2002|00|--
2002|00|--
2002|00|--
--
0000|00|--
0000|00|--
0000|00|--
0000|00|--
0000|00|--
0000|00|--
0000|00|--
0000|00|--
0000|00|--
0000|00|--
0000|00|--
0000|00|--
0000|00|--
0000|00|--
0000|00|--
0000|00|--
0000|00|--
0000|00|--
0000|00|--
0000|00|--
0000|00|--
0000|00|--
0000|00|--
0000|00|--
0000|00|--
0000|00|--
0000|00|--
0000|00|--
0000|00|--
0000|00|--
0000|00|--
0000|00|--
0000|00|--
0000|00|--
0000|00|--
0000|00|--
0000|00|--
0000|00|--
0000|00|--
0000|00|--
0000|00|--
0000|00|--
0000|00|--
0000|00|--
0000|00|--
0000|00|--
0000|00|--
0000|00|--
0000|00|--
0000|00|--
0000|00|--
0000|00|--
0000|00|--
0000|00|--
0000|00|--
0000|00|--
0000|00|--
0000|00|--
0000|00|--
0000|00|--
0000|00|--
0000|00|--
0000|00|--
0000|00|--
--
0000|00|--
0000|00|--
0000|00|--
0000|00|--
0000|00|--
0000|00|--
0000|00|--
0000|00|--
0000|00|--
0000|00|--
0000|00|--
0000|00|--
0000|00|--
0000|00|--
0000|00|--
0000|00|--
0000|00|--
0000|00|--
0000|00|--
0000|00|--
0000|00|--
0000|00|--
0000|00|--
0000|00|--
0000|00|--
0000|00|--
0000|00|--
0000|00|--
0000|00|--
0000|00|--
0000|00|--
0000|00|--
0000|00|--
0000|00|--
0000|00|--
0000|00|--
0000|00|--
0000|00|--
0000|00|--
0000|00|--
0000|00|--
0000|00|--
0000|00|--
0000|00|--
0000|00|--
0000|00|--
0000|00|--
0000|00|--
0000|00|--
0000|00|--
0000|00|--
0000|00|--
0000|00|--
0000|00|--
0000|00|--
0000|00|--
0000|00|--
0000|00|--
0000|00|--
0000|00|--
0000|00|--
0000|00|--
0000|00|--
0000|00|--
--
0000|00|--
0000|00|--
0000|00|--
0000|00|--
0000|00|--
0000|00|--
0000|00|--
0000|00|--
0000|00|--
0000|00|--
0000|00|--
0000|00|--
0000|00|--
0000|00|--
0000|00|--
0000|00|--
0000|00|--
0000|00|--
0000|00|--
0000|00|--
0000|00|--
0000|00|--
0000|00|--
0000|00|--
0000|00|--
0000|00|--
0000|00|--
0000|00|--
0000|00|--
0000|00|--
0000|00|--
0000|00|--
0000|00|--
0000|00|--
0000|00|--
0000|00|--
0000|00|--
0000|00|--
0000|00|--
0000|00|--
0000|00|--
0000|00|--
0000|00|--
0000|00|--
0000|00|--
0000|00|--
0000|00|--
0000|00|--
0000|00|--
0000|00|--
0000|00|--
0000|00|--
0000|00|--
0000|00|--
0000|00|--
0000|00|--
0000|00|--
0000|00|--
0000|00|--
0000|00|--
0000|00|--
0000|00|--
0000|00|--
0000|00|--
--
