title=DEADLOCK XXX
artist=BlackY
effect=月刊ミズタニ
jacket=nov_jacket.png
illustrator=XTC
difficulty=extended
level=15
t=222
m=nofx.ogg;exh.ogg
mvol=100
o=0
bg=grass
layer=arrow
po=29207
plength=15000
pfiltergain=0
filtertype=fx;bitc
chokkakuvol=0
icon=../sdvx02.png
ver=140d
--
beat=4/4
t=222
tilt=normal
0000|00|--
0000|00|--
0000|00|--
0000|00|--
0000|00|--
0000|00|--
0000|00|--
0000|00|--
0000|00|--
0000|00|--
0000|00|--
0000|00|--
0000|00|--
0000|00|--
0000|00|--
0000|00|--
0000|00|--
0000|00|--
0000|00|--
0000|00|--
0000|00|--
0000|00|--
0000|00|--
0000|00|--
0000|00|--
0000|00|--
0000|00|--
0000|00|--
0000|00|--
0000|00|--
0000|00|--
0000|00|--
0000|00|--
0000|00|--
0000|00|--
0000|00|--
0000|00|--
0000|00|--
0000|00|--
0000|00|--
0000|00|-o
0000|00|-:
0000|00|-:
0000|00|-:
0000|00|-:
0000|00|-:
0000|00|-:
0000|00|-:
0000|00|-:
0000|00|-:
0000|00|-:
0000|00|-:
0000|00|-:
0000|00|-:
0000|00|-:
0000|00|-:
0000|00|-:
0000|00|-:
0000|00|-:
0000|00|-:
0000|00|-:
0000|00|-:
0000|00|-:
0000|00|-:
--
0000|00|-:
0000|00|-:
0000|00|-:
0000|00|-:
0000|00|-:
0000|00|-:
0000|00|-:
0000|00|-:
0000|00|-:
0000|00|-:
0000|00|-:
0000|00|-:
0000|00|-:
0000|00|-:
0000|00|-:
0000|00|-:
0000|00|-:
0000|00|-:
0000|00|-:
0000|00|-:
0000|00|-:
0000|00|-:
0000|00|-:
0000|00|-:
0000|00|-:
0000|00|-:
0000|00|-:
0000|00|-:
0000|00|-:
0000|00|-:
0000|00|-:
0000|00|-:
0000|00|-:
0000|00|-:
0000|00|-:
0000|00|-:
0000|00|-:
0000|00|-:
0000|00|-:
0000|00|-:
0000|00|-:
0000|00|-:
0000|00|-:
0000|00|-:
0000|00|-:
0000|00|-:
0000|00|-:
0000|00|-:
0000|00|-:
0000|00|-:
0000|00|-:
0000|00|-:
0000|00|-:
0000|00|-:
0000|00|-:
0000|00|-:
0000|00|-:
0000|00|-:
0000|00|-:
0000|00|-:
0000|00|-:
0000|00|-:
0000|00|-:
0000|00|-:
--
1100|00|-0
0000|00|-:
0000|00|-o
0000|00|--
0000|00|--
0000|00|--
0000|00|--
0000|00|--
1100|00|--
0000|00|--
0000|00|--
0000|00|--
0000|00|--
0000|00|--
0000|00|--
0000|00|--
0000|00|--
0000|00|--
0000|00|--
0000|00|--
0000|00|--
0000|00|--
0000|00|--
0000|00|--
0220|00|--
0220|00|--
0220|00|--
0220|00|--
0220|00|--
0220|00|--
0220|00|--
0220|00|--
0220|00|--
0220|00|--
0220|00|--
0220|00|--
0220|00|--
0220|00|--
0220|00|--
0220|00|--
1001|00|--
0000|00|--
0000|00|--
0000|00|--
0000|00|--
0000|00|--
0000|00|--
0000|00|--
1001|00|--
0000|00|--
0000|00|--
0000|00|--
0000|00|--
0000|00|--
0000|00|--
0000|00|--
0000|00|--
0000|00|--
0000|00|--
0000|00|--
0000|00|--
0000|00|--
0000|00|--
0000|00|--
--
0011|00|--
0000|00|--
0000|00|--
0000|00|--
0000|00|--
0000|00|--
0000|00|--
0000|00|--
0011|00|--
0000|00|--
0000|00|--
0000|00|--
0000|00|--
0000|00|--
0000|00|--
0000|00|--
0000|00|--
0000|00|--
0000|00|--
0000|00|--
0000|00|--
0000|00|--
0000|00|--
0000|00|--
0220|00|--
0220|00|--
0220|00|--
0220|00|--
0220|00|--
0220|00|--
0220|00|--
0220|00|--
0220|00|--
0220|00|--
0220|00|--
0220|00|--
0220|00|--
0220|00|--
0220|00|--
0220|00|--
1001|00|--
0000|00|--
0000|00|--
0000|00|--
0000|00|--
0000|00|--
0000|00|--
0000|00|--
1001|00|--
0000|00|--
0000|00|--
0000|00|--
0000|00|--
0000|00|--
0000|00|--
0000|00|--
1001|00|--
0000|00|--
0000|00|--
0000|00|--
0000|00|--
0000|00|--
0000|00|--
0000|00|--
--
0000|02|--
0000|00|--
0000|00|--
0000|00|--
0000|00|--
0000|00|--
0000|00|--
0000|00|--
0000|02|--
0000|00|--
0000|00|--
0000|00|--
0000|00|--
0000|00|--
0000|00|--
0000|00|--
0000|00|--
0000|00|--
0000|00|--
0000|00|--
0000|00|--
0000|00|--
0000|00|--
0000|00|--
0000|10|--
0000|10|--
0000|10|--
0000|10|--
0000|10|--
0000|10|--
0000|10|--
0000|10|--
0000|10|--
0000|10|--
0000|10|--
0000|10|--
0000|10|--
0000|10|--
0000|10|--
0000|10|--
0000|02|--
0000|00|--
0000|00|--
0000|00|--
0000|00|--
0000|00|--
0000|00|--
0000|00|--
0000|02|--
0000|00|--
0000|00|--
0000|00|--
0000|00|--
0000|00|--
0000|00|--
0000|00|--
0000|00|--
0000|00|--
0000|00|--
0000|00|--
0000|00|--
0000|00|--
0000|00|--
0000|00|--
--
0000|20|--
0000|00|--
0000|00|--
0000|00|--
0000|00|--
0000|00|--
0000|00|--
0000|00|--
0000|10|--
0000|10|--
0000|10|--
0000|10|--
0000|10|--
0000|10|--
0000|10|--
0000|10|--
0000|10|--
0000|10|--
0000|10|--
0000|10|--
0000|10|--
0000|10|--
0000|10|--
0000|10|--
0000|02|--
0000|00|--
0000|00|--
0000|00|--
0000|00|--
0000|00|--
0000|00|--
0000|00|--
0000|20|--
0000|00|--
0000|00|--
0000|00|--
0000|00|--
0000|02|--
0000|00|--
0000|00|--
0000|00|--
0000|00|--
0000|20|--
0000|00|--
0000|00|--
0000|00|--
0000|00|--
0000|00|--
0000|02|--
0000|00|--
0000|00|--
0000|00|--
0000|00|--
0000|20|--
0000|00|--
0000|00|--
0000|00|--
0000|00|--
0000|02|--
0000|00|--
0000|00|--
0000|00|--
0000|00|--
0000|00|--
--
1100|00|--
0000|00|--
0000|00|--
0000|00|--
0000|00|--
0000|00|--
0000|00|--
0000|00|--
1100|00|--
0000|00|--
0000|00|--
0000|00|--
0000|00|--
0000|00|--
0000|00|--
0000|00|--
0000|00|--
0000|00|--
0000|00|--
0000|00|--
0000|00|--
0000|00|--
0000|00|--
0000|00|--
0022|00|--
0022|00|--
0022|00|--
0022|00|--
0022|00|--
0022|00|--
0022|00|--
0022|00|--
0022|00|--
0022|00|--
0022|00|--
0022|00|--
0022|00|--
0022|00|--
0022|00|--
0022|00|--
1100|00|--
0000|00|--
0000|00|--
0000|00|--
0000|00|--
0000|00|--
0000|00|--
0000|00|--
1100|00|--
0000|00|--
0000|00|--
0000|00|--
0000|00|--
0000|00|--
0000|00|--
0000|00|--
0000|00|--
0000|00|--
0000|00|--
0000|00|--
0000|00|--
0000|00|--
0000|00|--
0000|00|--
--
0110|00|--
0000|00|--
0000|00|--
0000|00|--
0000|00|--
0000|00|--
0000|00|--
0000|00|--
0000|00|--
0000|00|--
0000|00|--
0000|00|--
0000|00|--
0000|00|--
0000|00|--
0000|00|--
0011|00|--
0000|00|--
0000|00|--
0000|00|--
0000|00|--
0000|00|--
0000|00|--
0000|00|--
0022|00|--
0022|00|--
0022|00|--
0022|00|--
0022|00|--
0022|00|--
0022|00|--
0022|00|--
0022|00|--
0022|00|--
0022|00|--
0022|00|--
0022|00|--
0022|00|--
0022|00|--
0022|00|--
0100|00|--
0000|00|--
0000|00|--
0000|00|--
0010|00|--
0000|00|--
0000|00|--
0000|00|--
0100|00|--
0000|00|--
0000|00|--
0000|00|--
0010|00|--
0000|00|--
0000|00|--
0000|00|--
0100|00|--
0000|00|--
0000|00|--
0000|00|--
0010|00|--
0000|00|--
0000|00|--
0000|00|--
--
0000|10|--
0000|10|--
0000|10|--
0000|10|--
0000|10|--
0000|10|--
0000|10|--
0000|10|--
0000|10|--
0000|10|--
0000|10|--
0000|10|--
0000|10|--
0000|10|--
0000|10|--
0000|10|--
1000|01|--
0000|01|--
0000|01|--
0000|01|--
0000|01|--
1000|01|--
0000|01|--
0000|01|--
0000|01|--
0000|01|--
1000|01|--
0000|01|--
0000|01|--
0000|01|--
0000|01|--
0000|01|--
0010|00|--
0000|00|--
0000|00|--
0000|00|--
0000|00|--
0000|00|--
0000|00|--
0000|00|--
0100|00|--
0000|00|--
0000|00|--
0000|00|--
0000|00|--
0000|00|--
0000|00|--
0000|00|--
0010|00|--
0000|00|--
0000|00|--
0000|00|--
0000|00|--
0000|00|--
0000|00|--
0000|00|--
0100|00|--
0000|00|--
0000|00|--
0000|00|--
0000|00|--
0000|00|--
0000|00|--
0000|00|--
--
0010|00|--
0000|00|--
0000|00|--
0000|00|--
0000|00|--
0000|00|--
0000|00|--
0000|00|--
2200|00|--
2200|00|--
2200|00|--
2200|00|--
2200|00|--
2200|00|--
2200|00|--
2200|00|--
2200|00|--
2200|00|--
2200|00|--
2200|00|--
2200|00|--
2200|00|--
2200|00|--
2200|00|--
0010|00|--
0000|00|--
0000|00|--
0000|00|--
0000|00|--
0000|00|--
0000|00|--
0000|00|--
0001|00|--
0000|00|--
0000|00|--
0000|00|--
1000|00|--
0000|00|--
0000|00|--
0000|00|--
0001|00|--
0000|00|--
0000|00|--
0000|00|--
1000|00|--
0000|00|--
0000|00|--
0000|00|--
0000|01|--
0000|01|--
0000|01|--
0000|01|--
0000|01|--
0000|01|--
0000|01|--
0000|01|--
0000|01|--
0000|01|--
0000|01|--
0000|01|--
0000|01|--
0000|01|--
0000|01|--
0000|01|--
--
0100|00|--
0000|00|--
0000|00|--
0000|00|--
0000|00|--
0000|00|--
0000|00|--
0000|00|--
0100|00|--
0000|00|--
0000|00|--
0000|00|--
0000|00|--
0000|00|--
0000|00|--
0000|00|--
0000|00|--
0000|00|--
0000|00|--
0000|00|--
0000|00|--
0000|00|--
0000|00|--
0000|00|--
0200|00|--
0200|00|--
0200|00|--
0200|00|--
0200|00|--
0200|00|--
0200|00|--
0200|00|--
0200|00|-o
0200|00|-:
0200|00|-0
0200|00|--
0200|00|--
0200|00|--
0200|00|--
0200|00|--
1010|00|--
0000|00|--
0000|00|--
0000|00|--
0000|00|--
0000|00|--
0000|00|--
0000|00|--
1010|00|--
0000|00|--
0000|00|--
0000|00|--
0000|00|--
0000|00|--
0000|00|--
0000|00|--
0000|00|--
0000|00|--
0000|00|--
0000|00|--
0000|00|--
0000|00|--
0000|00|--
0000|00|--
--
0010|00|--
0000|00|--
0000|00|--
0000|00|--
0000|00|--
0000|00|--
0000|00|--
0000|00|--
0010|00|--
0000|00|--
0000|00|--
0000|00|--
0000|00|--
0000|00|--
0000|00|--
0000|00|--
0000|00|--
0000|00|--
0000|00|--
0000|00|--
0000|00|--
0000|00|--
0000|00|--
0000|00|--
0020|00|--
0020|00|--
0020|00|--
0020|00|--
0020|00|--
0020|00|--
0020|00|--
0020|00|--
0020|00|0-
0020|00|:-
0020|00|o-
0020|00|--
0020|00|--
0020|00|--
0020|00|--
0020|00|--
0101|00|--
0000|00|--
0000|00|--
0000|00|--
0000|00|--
0000|00|--
0000|00|--
0000|00|--
0101|00|--
0000|00|--
0000|00|--
0000|00|--
0000|00|--
0000|00|--
0000|00|--
0000|00|--
0101|00|--
0000|00|--
0000|00|--
0000|00|--
0000|00|--
0000|00|--
0000|00|--
0000|00|--
--
1000|00|--
0000|00|--
0000|00|--
0000|00|--
0000|00|--
0000|00|--
0000|00|--
0000|00|--
1000|00|--
0000|00|--
0000|00|--
0000|00|--
0000|00|--
0000|00|--
0000|00|--
0000|00|--
0000|00|--
0000|00|--
0000|00|--
0000|00|--
0000|00|--
0000|00|--
0000|00|--
0000|00|--
0200|00|--
0200|00|--
0200|00|--
0200|00|--
0200|00|--
0200|00|--
0200|00|--
0200|00|--
0200|00|-o
0200|00|-:
0200|00|-0
0200|00|--
0200|00|--
0200|00|--
0200|00|--
0200|00|--
1010|00|--
0000|00|--
0000|00|--
0000|00|--
0000|00|--
0000|00|--
0000|00|--
0000|00|--
1010|00|--
0000|00|--
0000|00|--
0000|00|--
0000|00|--
0000|00|--
0000|00|--
0000|00|--
0000|00|--
0000|00|--
0000|00|--
0000|00|--
0000|00|--
0000|00|--
0000|00|--
0000|00|--
--
0001|00|--
0000|00|--
0000|00|--
0000|00|--
0000|00|--
0000|00|--
0000|00|--
0000|00|--
0020|00|--
0020|00|--
0020|00|--
0020|00|--
0020|00|--
0020|00|--
0020|00|--
0020|00|--
0020|00|--
0020|00|--
0020|00|--
0020|00|--
0020|00|--
0020|00|--
0020|00|--
0020|00|--
0001|00|--
0000|00|--
0000|00|--
0000|00|--
0000|00|--
0000|00|--
0000|00|--
0000|00|--
0000|01|0-
0000|01|:-
0000|01|o-
0000|01|--
0000|01|--
0000|01|--
0000|01|--
0000|01|--
0000|01|--
0000|01|--
0000|01|--
0000|01|--
0000|01|--
0000|01|--
0000|01|--
0000|01|--
0000|10|--
0000|10|--
0000|10|--
0000|10|--
0000|10|--
0000|10|--
0000|10|--
0000|10|--
0000|10|--
0000|10|--
0000|10|--
0000|10|--
0000|10|--
0000|10|--
0000|10|--
0000|10|--
--
0110|00|--
0000|00|--
0000|00|--
0000|00|--
0000|00|--
0000|00|--
0000|00|--
0000|00|--
0110|00|--
0000|00|--
0000|00|--
0000|00|--
0000|00|--
0000|00|--
0000|00|--
0000|00|--
0000|00|--
0000|00|--
0000|00|--
0000|00|--
0000|00|--
0000|00|--
0000|00|--
0000|00|--
0220|00|--
0220|00|--
0220|00|--
0220|00|--
0220|00|--
0220|00|--
0220|00|--
0220|00|--
0220|00|-o
0220|00|-:
0220|00|-0
0220|00|--
0220|00|--
0220|00|--
0220|00|--
0220|00|--
1000|00|--
0000|00|--
0000|00|--
0000|00|--
0000|00|--
0000|00|--
0000|00|--
0000|00|--
1000|00|--
0000|00|--
0000|00|--
0000|00|--
0000|00|--
0000|00|--
0000|00|--
0000|00|--
0000|00|--
0000|00|--
0000|00|--
0000|00|--
0000|00|--
0000|00|--
0000|00|--
0000|00|--
--
0110|00|--
0000|00|--
0000|00|--
0000|00|--
0000|00|--
0000|00|--
0000|00|--
0000|00|--
0000|00|--
0000|00|--
0000|00|--
0000|00|--
0000|00|--
0000|00|--
0000|00|--
0000|00|--
0110|00|--
0000|00|--
0000|00|--
0000|00|--
0000|00|--
0000|00|--
0000|00|--
0000|00|--
0220|00|--
0220|00|--
0220|00|--
0220|00|--
0220|00|--
0220|00|--
0220|00|--
0220|00|--
0220|00|0-
0220|00|:-
0220|00|o-
0220|00|--
0220|00|--
0220|00|--
0220|00|--
0220|00|--
0001|00|--
0000|00|--
0000|00|--
0000|00|--
1000|00|--
0000|00|--
0000|00|--
0000|00|--
0001|00|--
0000|00|--
0000|00|--
0000|00|--
1000|00|--
0000|00|--
0000|00|--
0000|00|--
0001|00|--
0000|00|--
0000|00|--
0000|00|--
1000|00|--
0000|00|--
0000|00|--
0000|00|--
--
0000|01|--
0000|01|--
0000|01|--
0000|01|--
0000|01|--
0000|01|--
0000|01|--
0000|01|--
0000|01|--
0000|01|--
0000|01|--
0000|01|--
0000|01|--
0000|01|--
0000|01|--
0000|01|--
0000|10|--
0000|10|--
0000|10|--
0000|10|--
0000|10|--
0000|10|--
0000|10|--
0000|10|--
0000|10|--
0000|10|--
0000|10|--
0000|10|--
0000|10|--
0000|10|--
0000|10|--
0000|10|--
0000|00|-o
0000|00|-:
0000|00|-0
0000|00|--
0000|00|--
0000|00|--
0000|00|--
0000|00|--
0100|00|--
0000|00|--
0000|00|--
0000|00|--
0000|00|--
0000|00|--
0000|00|--
0000|00|--
1010|00|--
0000|00|--
0000|00|--
0000|00|--
0000|00|--
0000|00|--
0000|00|--
0000|00|--
1010|00|--
0000|00|--
0000|00|--
0000|00|--
0000|00|--
0000|00|--
0000|00|--
0000|00|--
--
0101|00|--
0000|00|--
0000|00|--
0000|00|--
0000|00|--
0000|00|--
0000|00|--
0000|00|--
0202|00|--
0202|00|--
0202|00|--
0202|00|--
0202|00|--
0202|00|--
0202|00|--
0202|00|--
0202|00|--
0202|00|--
0202|00|--
0202|00|--
0202|00|--
0202|00|--
0202|00|--
0202|00|--
0010|00|--
0000|00|--
0000|00|--
0000|00|--
0000|00|--
0000|00|--
0000|00|--
0000|00|--
0000|01|0-
0000|01|:-
0000|01|:-
0000|01|:-
0000|01|:-
0000|01|:-
0000|01|:-
0000|01|:-
0000|01|:-
0000|01|:-
0000|01|:-
0000|01|:-
0000|01|:-
0000|01|:-
0000|01|:-
0000|01|:-
0000|01|:-
0000|01|:-
0000|01|:-
0000|01|:-
0000|01|:-
0000|01|:-
0000|01|:-
0000|01|:-
0000|01|:-
0000|01|:-
0000|01|:-
0000|01|:-
0000|01|:-
0000|01|:-
0000|01|:-
0000|01|:-
--
0001|00|o-
0000|00|:-
0000|00|:-
0000|00|:-
0000|00|:-
0000|00|:-
0000|00|:-
0000|00|:-
0001|00|:-
0000|00|:-
0000|00|:-
0000|00|:-
0000|00|:-
0000|00|:-
0000|00|:-
0000|00|:-
0000|00|:-
0000|00|:-
0000|00|:-
0000|00|:-
0000|00|:-
0000|00|:-
0000|00|:-
0000|00|:-
0002|00|:-
0002|00|:-
0002|00|:-
0002|00|:-
0002|00|:-
0002|00|:-
0002|00|:-
0002|00|:-
0002|00|0-
0002|00|:-
0002|00|o-
0002|00|:-
0002|00|:-
0002|00|:-
0002|00|:-
0002|00|:-
0010|00|:-
0000|00|:-
0000|00|:-
0000|00|:-
0000|00|:-
0000|00|:-
0000|00|:-
0000|00|:-
0010|00|:-
0000|00|:-
0000|00|:-
0000|00|:-
0000|00|:-
0000|00|:-
0000|00|:-
0000|00|:-
0010|00|:-
0000|00|:-
0000|00|:-
0000|00|:-
0000|00|:-
0000|00|:-
0000|00|:-
0000|00|:-
--
0100|00|o-
0000|00|:-
0000|00|:-
0000|00|:-
0000|00|:-
0000|00|:-
0000|00|:-
0000|00|:-
0100|00|:-
0000|00|:-
0000|00|:-
0000|00|:-
0000|00|:-
0000|00|:-
0000|00|:-
0000|00|:-
0000|00|:-
0000|00|:-
0000|00|:-
0000|00|:-
0000|00|:-
0000|00|:-
0000|00|:-
0000|00|:-
0200|00|:-
0200|00|:-
0200|00|:-
0200|00|:-
0200|00|:-
0200|00|:-
0200|00|:-
0200|00|:-
0200|00|0-
0200|00|:-
0200|00|o-
0200|00|--
0200|00|--
0200|00|--
0200|00|--
0200|00|--
0010|00|--
0000|00|--
0000|00|--
0000|00|--
0000|00|--
0000|00|--
0000|00|--
0000|00|--
0010|00|--
0000|00|--
0000|00|--
0000|00|--
0000|00|--
0000|00|--
0000|00|--
0000|00|--
0010|00|--
0000|00|--
0000|00|--
0000|00|--
0000|00|--
0000|00|--
0000|00|--
0000|00|--
--
1000|00|-o
0000|00|-:
0000|00|-:
0000|00|-:
0000|00|-:
0000|00|-:
0000|00|-:
0000|00|-:
1000|00|-:
0000|00|-:
0000|00|-:
0000|00|-:
0000|00|-:
0000|00|-:
0000|00|-:
0000|00|-:
0000|00|-:
0000|00|-:
0000|00|-:
0000|00|-:
0000|00|-:
0000|00|-:
0000|00|-:
0000|00|-:
2000|00|-:
2000|00|-:
2000|00|-:
2000|00|-:
2000|00|-:
2000|00|-:
2000|00|-:
2000|00|-:
2000|00|-0
2000|00|-:
2000|00|-o
2000|00|-:
2000|00|-:
2000|00|-:
2000|00|-:
2000|00|-:
0100|00|-:
0000|00|-:
0000|00|-:
0000|00|-:
0000|00|-:
0000|00|-:
0000|00|-:
0000|00|-:
0100|00|-:
0000|00|-:
0000|00|-:
0000|00|-:
0000|00|-:
0000|00|-:
0000|00|-:
0000|00|-:
0100|00|-:
0000|00|-:
0000|00|-:
0000|00|-:
0000|00|-:
0000|00|-:
0000|00|-:
0000|00|-:
--
0010|00|-o
0000|00|-:
0000|00|-:
0000|00|-:
0000|00|-:
0000|00|-:
0000|00|-:
0000|00|-:
0020|00|-:
0020|00|-:
0020|00|-:
0020|00|-:
0020|00|-:
0020|00|-:
0020|00|-:
0020|00|-:
0020|00|-:
0020|00|-:
0020|00|-:
0020|00|-:
0020|00|-:
0020|00|-:
0020|00|-:
0020|00|-:
0100|00|-:
0000|00|-:
0000|00|-:
0000|00|-:
0000|00|-:
0000|00|-:
0000|00|-:
0000|00|-:
0000|10|-0
0000|10|-:
0000|10|-o
0000|10|--
0000|10|--
0000|10|--
0000|10|--
0000|10|--
0000|10|--
0000|10|--
0000|10|--
0000|10|--
0000|10|--
0000|10|--
0000|10|--
0000|10|--
0000|01|--
0000|01|--
0000|01|--
0000|01|--
0000|01|--
0000|01|--
0000|01|--
0000|01|--
0000|01|--
0000|01|--
0000|01|--
0000|01|--
0000|01|--
0000|01|--
0000|01|--
0000|01|--
--
0001|00|0-
0000|00|:-
0000|00|:-
0000|00|:-
0000|00|:-
0000|00|:-
0000|00|:-
0000|00|:-
0001|00|:-
0000|00|:-
0000|00|:-
0000|00|:-
0000|00|:-
0000|00|:-
0000|00|:-
0000|00|:-
0000|00|:-
0000|00|:-
0000|00|:-
0000|00|:-
0000|00|:-
0000|00|:-
0000|00|:-
0000|00|:-
0002|00|:-
0002|00|:-
0002|00|:-
0002|00|:-
0002|00|:-
0002|00|:-
0002|00|:-
0002|00|:-
0002|00|o-
0002|00|:-
0002|00|0-
0002|00|:-
0002|00|:-
0002|00|:-
0002|00|:-
0002|00|:-
0010|00|:-
0000|00|:-
0000|00|:-
0000|00|:-
0000|00|:-
0000|00|:-
0000|00|:-
0000|00|:-
0010|00|:-
0000|00|:-
0000|00|:-
0000|00|:-
0000|00|:-
0000|00|:-
0000|00|:-
0000|00|:-
0010|00|:-
0000|00|:-
0000|00|:-
0000|00|:-
0000|00|:-
0000|00|:-
0000|00|:-
0000|00|:-
--
0100|00|0-
0000|00|:-
0000|00|:-
0000|00|:-
0000|00|:-
0000|00|:-
0000|00|:-
0000|00|:-
0000|00|:-
0000|00|:-
0000|00|:-
0000|00|:-
0000|00|:-
0000|00|:-
0000|00|:-
0000|00|:-
0100|00|:-
0000|00|:-
0000|00|:-
0000|00|:-
0000|00|:-
0000|00|:-
0000|00|:-
0000|00|:-
0200|00|:-
0200|00|:-
0200|00|:-
0200|00|:-
0200|00|:-
0200|00|:-
0200|00|:-
0200|00|:-
0200|00|o-
0200|00|:-
0200|00|0-
0200|00|--
0200|00|--
0200|00|--
0200|00|--
0200|00|--
0010|00|--
0000|00|--
0000|00|--
0000|00|--
0000|00|--
0000|00|--
0000|00|--
0000|00|--
0010|00|--
0000|00|--
0000|00|--
0000|00|--
0000|00|--
0000|00|--
0000|00|--
0000|00|--
0010|00|--
0000|00|--
0000|00|--
0000|00|--
0000|00|--
0000|00|--
0000|00|--
0000|00|--
--
0000|10|-o
0000|10|-:
0000|10|-:
0000|10|-:
0000|10|-:
0000|10|-:
0000|10|-:
0000|10|-:
0000|10|-:
0000|10|-:
0000|10|-:
0000|10|-:
0000|10|-:
0000|10|-:
0000|10|-:
0000|10|-:
0000|01|-:
0000|01|-:
0000|01|-:
0000|01|-:
0000|01|-:
0000|01|-:
0000|01|-:
0000|01|-:
0000|01|-:
0000|01|-:
0000|01|-:
0000|01|-:
0000|01|-:
0000|01|-:
0000|01|-:
0000|01|-:
0000|10|-0
0000|10|-:
0000|10|-o
0000|10|-:
0000|10|-:
0000|10|-:
0000|10|-:
0000|10|-:
0000|10|-:
0000|10|-:
0000|10|-:
0000|10|-:
0000|10|-:
0000|10|-:
0000|10|-:
0000|10|-:
0000|01|-:
0000|01|-:
0000|01|-:
0000|01|-:
0000|01|-:
0000|01|-:
0000|01|-:
0000|01|-:
0000|01|-:
0000|01|-:
0000|01|-:
0000|01|-:
0000|01|-:
0000|01|-:
0000|01|-:
0000|01|-:
--
0000|00|-0
0000|00|-:
0000|00|-:
0000|00|-:
0000|00|-:
0000|00|-:
0000|00|-:
0000|00|-:
0000|00|-:
0000|00|-:
0000|00|-:
0000|00|-:
0000|00|-:
0000|00|-:
0000|00|-:
0000|00|-:
0000|00|0:
0000|00|::
0000|00|::
0000|00|::
0000|00|::
0000|00|::
0000|00|::
0000|00|::
0000|00|::
0000|00|::
0000|00|::
0000|00|::
0000|00|::
0000|00|::
0000|00|::
0000|00|::
0000|00|oo
0000|00|::
0000|00|::
0000|00|::
0000|00|::
0000|00|::
0000|00|::
0000|00|::
0000|00|:0
0000|00|::
0000|00|::
0000|00|::
0000|00|::
0000|00|::
0000|00|::
0000|00|::
0000|00|:o
0000|00|::
0000|00|::
0000|00|::
0000|00|::
0000|00|::
0000|00|::
0000|00|::
0000|00|::
0000|00|::
0000|00|::
0000|00|::
0000|00|::
0000|00|::
0000|00|::
0000|00|::
--
0000|00|00
0000|00|--
0000|00|--
0000|00|--
0000|00|--
0000|00|--
0000|00|--
0000|00|--
0000|00|--
0000|00|--
0000|00|--
0000|00|--
0000|00|--
0000|00|--
0000|00|--
0000|00|--
0000|00|--
0000|00|--
0000|00|--
0000|00|--
0000|00|--
0000|00|--
0000|00|--
0000|00|--
0000|00|--
0000|00|--
0000|00|--
0000|00|--
0000|00|--
0000|00|--
0000|00|--
0000|00|--
0000|11|--
0000|11|--
0000|11|--
0000|11|--
0000|11|--
0000|11|--
0000|11|--
0000|11|--
0000|11|--
0000|11|--
0000|11|--
0000|11|--
0000|11|--
0000|11|--
0000|11|--
0000|11|--
0000|11|--
0000|11|--
0000|11|--
0000|11|--
0000|11|--
0000|11|--
0000|11|--
0000|11|--
0000|11|--
0000|11|--
0000|11|--
0000|11|--
0000|11|--
0000|11|--
0000|11|--
0000|11|--
--
0101|00|--
0000|00|--
0000|00|--
0000|00|--
0000|00|--
0000|00|--
0000|00|--
0000|00|--
1000|00|--
0000|00|--
0000|00|--
0000|00|--
0000|00|--
0000|00|--
0000|00|--
0000|00|--
0110|00|--
0000|00|--
0000|00|--
0000|00|--
0000|00|--
0000|00|--
0000|00|--
0000|00|--
1000|00|--
0000|00|--
0000|00|--
0000|00|--
0000|00|--
0000|00|--
0000|00|--
0000|00|--
0011|00|--
0000|00|--
0000|00|--
0000|00|--
0000|00|--
0000|00|--
0000|00|--
0000|00|--
0100|00|--
0000|00|--
0000|00|--
0000|00|--
0000|00|--
0000|00|--
0000|00|--
0000|00|--
1001|00|--
0000|00|--
0000|00|--
0000|00|--
0000|00|--
0000|00|--
0000|00|--
0000|00|--
0100|00|--
0000|00|--
0000|00|--
0000|00|--
0000|00|--
0000|00|--
0000|00|--
0000|00|--
--
1010|00|--
0000|00|--
0000|00|--
0000|00|--
0000|00|--
0000|00|--
0000|00|--
0000|00|--
0001|00|--
0000|00|--
0000|00|--
0000|00|--
0000|00|--
0000|00|--
0000|00|--
0000|00|--
0110|00|--
0000|00|--
0000|00|--
0000|00|--
0000|00|--
0000|00|--
0000|00|--
0000|00|--
0001|00|--
0000|00|--
0000|00|--
0000|00|--
0000|00|--
0000|00|--
0000|00|--
0000|00|--
1100|00|--
0000|00|--
0000|00|--
0000|00|--
0000|00|--
0000|00|--
0000|00|--
0000|00|--
0010|00|--
0000|00|--
0000|00|--
0000|00|--
0000|00|--
0000|00|--
0000|00|--
0000|00|--
1001|00|--
0000|00|--
0000|00|--
0000|00|--
0000|00|--
0000|00|--
0000|00|--
0000|00|--
0010|00|--
0000|00|--
0000|00|--
0000|00|--
0100|00|--
0000|00|--
0000|00|--
0000|00|--
--
0011|00|--
0000|00|--
0000|00|--
0000|00|--
0000|00|--
0000|00|--
0000|00|--
0000|00|--
1000|00|--
0000|00|--
0000|00|--
0000|00|--
0000|00|--
0000|00|--
0000|00|--
0000|00|--
0110|00|--
0000|00|--
0000|00|--
0000|00|--
0000|00|--
0000|00|--
0000|00|--
0000|00|--
1000|00|--
0000|00|--
0000|00|--
0000|00|--
0000|00|--
0000|00|--
0000|00|--
0000|00|--
0011|00|--
0000|00|--
0000|00|--
0000|00|--
0000|00|--
0000|00|--
0000|00|--
0000|00|--
1000|00|--
0000|00|--
0000|00|--
0000|00|--
0000|00|--
0000|00|--
0000|00|--
0000|00|--
0110|00|--
0000|00|--
0000|00|--
0000|00|--
0000|00|--
0000|00|--
0000|00|--
0000|00|--
1000|00|--
0000|00|--
0000|00|--
0000|00|--
0000|00|--
0000|00|--
0000|00|--
0000|00|--
--
0011|00|--
0000|00|--
0000|00|--
0000|00|--
0000|00|--
0000|00|--
0000|00|--
0000|00|--
0000|10|--
0000|10|--
0000|10|--
0000|10|--
0000|10|--
0000|10|--
0000|10|--
0000|10|--
0101|00|--
0000|00|--
0000|00|--
0000|00|--
0000|00|--
0000|00|--
0000|00|--
0000|00|--
0000|10|--
0000|10|--
0000|10|--
0000|10|--
0000|10|--
0000|10|--
0000|10|--
0000|10|--
0110|01|--
0000|01|--
0000|01|--
0000|01|--
0000|01|--
0000|01|--
0000|01|--
0000|01|--
0000|10|--
0000|10|--
0000|10|--
0000|10|--
0000|10|--
0000|10|--
0000|10|--
0000|10|--
1000|01|--
0000|01|--
0000|01|--
0000|01|--
0000|01|--
0000|01|--
0000|01|--
0000|01|--
1000|01|--
0000|01|--
0000|01|--
0000|01|--
0000|01|--
0000|01|--
0000|01|--
0000|01|--
--
0110|00|--
0000|00|--
0000|00|--
0000|00|--
0000|00|--
0000|00|--
0000|00|--
0000|00|--
0001|00|--
0000|00|--
0000|00|--
0000|00|--
0000|00|--
0000|00|--
0000|00|--
0000|00|--
1010|00|--
0000|00|--
0000|00|--
0000|00|--
0000|00|--
0000|00|--
0000|00|--
0000|00|--
0001|00|--
0000|00|--
0000|00|--
0000|00|--
0000|00|--
0000|00|--
0000|00|--
0000|00|--
1100|00|--
0000|00|--
0000|00|--
0000|00|--
0000|00|--
0000|00|--
0000|00|--
0000|00|--
0010|00|--
0000|00|--
0000|00|--
0000|00|--
0000|00|--
0000|00|--
0000|00|--
0000|00|--
1001|00|--
0000|00|--
0000|00|--
0000|00|--
0000|00|--
0000|00|--
0000|00|--
0000|00|--
0100|00|--
0000|00|--
0000|00|--
0000|00|--
0010|00|--
0000|00|--
0000|00|--
0000|00|--
--
0101|00|--
0000|00|--
0000|00|--
0000|00|--
0000|00|--
0000|00|--
0000|00|--
0000|00|--
1000|00|--
0000|00|--
0000|00|--
0000|00|--
0000|00|--
0000|00|--
0000|00|--
0000|00|--
0110|00|--
0000|00|--
0000|00|--
0000|00|--
0000|00|--
0000|00|--
0000|00|--
0000|00|--
1000|00|--
0000|00|--
0000|00|--
0000|00|--
0000|00|--
0000|00|--
0000|00|--
0000|00|--
0011|00|--
0000|00|--
0000|00|--
0000|00|--
0000|00|--
0000|00|--
0000|00|--
0000|00|--
0100|00|--
0000|00|--
0000|00|--
0000|00|--
0000|00|--
0000|00|--
0000|00|--
0000|00|--
1000|00|--
0000|00|--
0000|00|--
0000|00|--
0010|00|--
0000|00|--
0000|00|--
0000|00|--
1000|00|--
0000|00|--
0000|00|--
0000|00|--
0010|00|--
0000|00|--
0000|00|--
0000|00|--
--
0001|10|--
0000|10|--
0000|10|--
0000|10|--
0010|10|--
0000|10|--
0000|10|--
0000|10|--
0100|10|--
0000|10|--
0000|10|--
0000|10|--
1000|10|--
0000|10|--
0000|10|--
0000|10|--
0000|01|--
0000|01|--
0000|01|--
0000|01|--
0000|01|--
0000|01|--
0000|01|--
0000|01|--
0000|01|--
0000|01|--
0000|01|--
0000|01|--
0000|01|--
0000|01|--
0000|01|--
0000|01|--
0101|00|--
0000|00|--
0000|00|--
0000|00|--
0000|00|--
0000|00|--
0000|00|--
0000|00|--
1000|00|--
0000|00|--
0000|00|--
0000|00|--
0000|00|--
0000|00|--
0000|00|--
0000|00|--
0022|00|--
0022|00|--
0022|00|--
0022|00|--
0022|00|--
0022|00|--
0022|00|--
0022|00|--
0022|00|--
0022|00|--
0022|00|--
0022|00|--
0022|00|--
0022|00|--
0022|00|--
0022|00|--
--
0100|02|--
0000|00|--
0000|00|--
0000|00|--
0000|00|--
0000|00|--
0000|00|--
0000|00|--
0100|02|--
0000|00|--
0000|00|--
0000|00|--
0000|00|--
0000|00|--
0000|00|--
0000|00|--
0100|02|--
0000|00|--
0000|00|--
0000|00|--
0000|00|--
0000|00|--
0000|00|--
0000|00|--
0100|02|--
0000|00|--
0000|00|--
0000|00|--
0000|00|--
0000|00|--
0000|00|--
0000|00|--
1000|00|--
0000|00|--
0000|00|--
0000|00|--
0000|00|--
0000|00|--
0000|00|--
0000|00|--
0100|01|--
0000|01|--
0000|01|--
0000|01|--
0000|01|--
0000|01|--
0000|01|--
0000|01|--
0010|01|--
0000|01|--
0000|01|--
0000|01|--
0000|01|--
0000|01|--
0000|01|--
0000|01|--
0001|01|--
0000|01|--
0000|01|--
0000|01|--
0000|01|--
0000|01|--
0000|01|--
0000|01|--
--
0010|00|0-
0000|00|:-
0000|00|:-
0000|00|:-
0000|00|:-
0000|00|:-
0000|00|:-
0000|00|:-
0001|00|:-
0000|00|:-
0000|00|:-
0000|00|:-
0000|00|:-
0000|00|:-
0000|00|:-
0000|00|:-
0010|00|P-
0000|00|:-
0000|00|:-
0000|00|:-
0000|00|:-
0000|00|:-
0000|00|:-
0000|00|:-
0001|00|:-
0000|00|:-
0000|00|:-
0000|00|:-
0000|00|:-
0000|00|:-
0000|00|:-
0000|00|:-
0100|00|:o
0000|00|::
0000|00|::
0000|00|::
0000|00|::
0000|00|::
0000|00|::
0000|00|::
1000|00|::
0000|00|::
0000|00|::
0000|00|::
0000|00|::
0000|00|::
0000|00|::
0000|00|::
0100|00|:P
0000|00|::
0000|00|::
0000|00|::
0000|00|::
0000|00|::
0000|00|::
0000|00|::
1000|00|::
0000|00|::
0000|00|::
0000|00|::
0000|00|::
0000|00|::
0000|00|::
0000|00|::
--
0001|00|P:
0000|00|::
0000|00|::
0000|00|::
0000|00|::
0000|00|::
0000|00|::
0000|00|::
0010|00|::
0000|00|::
0000|00|::
0000|00|::
0000|00|::
0000|00|::
0000|00|::
0000|00|::
0001|00|o:
0000|00|::
0000|00|::
0000|00|::
0000|00|::
0000|00|::
0000|00|::
0000|00|::
0010|00|::
0000|00|::
0000|00|::
0000|00|::
0000|00|::
0000|00|::
0000|00|::
0000|00|::
1000|00|:P
0000|00|::
0000|00|::
0000|00|::
0000|00|::
0000|00|::
0000|00|::
0000|00|::
0100|00|::
0000|00|::
0000|00|::
0000|00|::
0000|00|::
0000|00|::
0000|00|::
0000|00|::
1000|00|:0
0000|00|::
0000|00|::
0000|00|::
0000|00|::
0000|00|::
0000|00|::
0000|00|::
0100|00|::
0000|00|::
0000|00|::
0000|00|::
0000|00|::
0000|00|::
0000|00|::
0000|00|::
--
0000|01|o:
0000|01|::
0000|01|::
0000|01|::
0000|01|::
0000|01|::
0000|01|::
0000|01|::
0000|01|::
0000|01|::
0000|01|::
0000|01|::
0000|01|::
0000|01|::
0000|01|::
0000|01|::
0010|00|P:
0000|00|::
0000|00|::
0000|00|::
0000|00|::
0000|00|::
0000|00|::
0000|00|::
0001|00|::
0000|00|::
0000|00|::
0000|00|::
0000|00|::
0000|00|::
0000|00|::
0000|00|::
0000|10|:0
0000|10|::
0000|10|::
0000|10|::
0000|10|::
0000|10|::
0000|10|::
0000|10|::
0000|10|::
0000|10|::
0000|10|::
0000|10|::
0000|10|::
0000|10|::
0000|10|::
0000|10|::
0100|00|:P
0000|00|::
0000|00|::
0000|00|::
0000|00|::
0000|00|::
0000|00|::
0000|00|::
1000|00|::
0000|00|::
0000|00|::
0000|00|::
0000|00|::
0000|00|::
0000|00|::
0000|00|::
--
0001|00|P:
0000|00|::
0000|00|::
0000|00|::
0000|00|::
0000|00|::
0000|00|::
0000|00|::
0010|00|::
0000|00|::
0000|00|::
0000|00|::
0000|00|::
0000|00|::
0000|00|::
0000|00|::
0001|00|0:
0000|00|::
0000|00|::
0000|00|::
0000|00|::
0000|00|::
0000|00|::
0000|00|::
0010|00|::
0000|00|::
0000|00|::
0000|00|::
0000|00|::
0000|00|::
0000|00|::
0000|00|::
1000|00|:P
0000|00|::
0000|00|::
0000|00|::
0000|00|::
0000|00|::
0000|00|::
0000|00|::
0100|00|::
0000|00|::
0000|00|::
0000|00|::
0000|00|::
0000|00|::
0000|00|::
0000|00|::
0000|10|:o
0000|10|::
0000|10|::
0000|10|::
0000|10|::
0000|10|::
0000|10|::
0000|10|::
0000|10|::
0000|10|::
0000|00|::
0000|00|::
0000|00|::
0000|00|::
0000|00|::
0000|00|::
--
0010|00|0:
0000|00|::
0000|00|::
0000|00|::
0000|00|::
0000|00|::
0000|00|::
0000|00|::
0001|00|::
0000|00|::
0000|00|::
0000|00|::
0000|00|::
0000|00|::
0000|00|::
0000|00|::
0010|00|P:
0000|00|::
0000|00|::
0000|00|::
0000|00|::
0000|00|::
0000|00|::
0000|00|::
0001|00|::
0000|00|::
0000|00|::
0000|00|::
0000|00|::
0000|00|::
0000|00|::
0000|00|::
0100|00|:o
0000|00|::
0000|00|::
0000|00|::
0000|00|::
0000|00|::
0000|00|::
0000|00|::
1000|00|::
0000|00|::
0000|00|::
0000|00|::
0000|00|::
0000|00|::
0000|00|::
0000|00|::
0100|00|:P
0000|00|::
0000|00|::
0000|00|::
0000|00|::
0000|00|::
0000|00|::
0000|00|::
1000|00|::
0000|00|::
0000|00|::
0000|00|::
0000|00|::
0000|00|::
0000|00|::
0000|00|::
--
0001|00|P:
0000|00|::
0000|00|::
0000|00|::
0000|00|::
0000|00|::
0000|00|::
0000|00|::
0010|00|::
0000|00|::
0000|00|::
0000|00|::
0000|00|::
0000|00|::
0000|00|::
0000|00|::
0001|00|o:
0000|00|::
0000|00|::
0000|00|::
0000|00|::
0000|00|::
0000|00|::
0000|00|::
0010|00|::
0000|00|::
0000|00|::
0000|00|::
0000|00|::
0000|00|::
0000|00|::
0000|00|::
1000|00|:P
0000|00|::
0000|00|::
0000|00|::
0000|00|::
0000|00|::
0000|00|::
0000|00|::
0100|00|::
0000|00|::
0000|00|::
0000|00|::
0000|00|::
0000|00|::
0000|00|::
0000|00|::
0000|10|:0
0000|10|::
0000|10|::
0000|10|::
0000|10|::
0000|10|::
0000|10|::
0000|10|::
0000|10|::
0000|10|::
0000|10|::
0000|10|::
0000|10|::
0000|10|::
0000|10|::
0000|10|::
--
0000|00|:0
0000|00|::
0000|00|:o
0000|00|::
0000|00|::
0000|00|::
0000|00|::
0000|00|::
0000|00|::
0000|00|::
0000|00|::
0000|00|::
0000|00|::
0000|00|::
0000|00|::
0000|00|::
0000|00|o:
0000|00|::
0000|00|0:
0000|00|::
0000|00|::
0000|00|::
0000|00|::
0000|00|::
0000|00|::
0000|00|::
0000|00|::
0000|00|::
0000|00|::
0000|00|::
0000|00|::
0000|00|::
0000|00|:o
0000|00|::
0000|00|:0
0000|00|:-
0000|00|:-
0000|00|:-
0000|00|:-
0000|00|:-
0000|00|:-
0000|00|:-
0000|00|:-
0000|00|:-
0000|00|:-
0000|00|:-
0000|00|:-
0000|00|:-
0022|00|0-
0022|00|:-
0022|00|o-
0022|00|--
0022|00|--
0022|00|--
0022|00|--
0022|00|--
0022|00|--
0022|00|--
0022|00|--
0022|00|--
0022|00|--
0022|00|--
0022|00|--
0022|00|--
--
1000|00|--
0000|00|--
0000|00|--
0000|00|--
0010|00|--
0000|00|--
0000|00|--
0000|00|--
1000|00|--
0000|00|--
0000|00|--
0000|00|--
0010|00|--
0000|00|--
0000|00|--
0000|00|--
1000|00|--
0000|00|--
0000|00|--
0000|00|--
0010|00|--
0000|00|--
0000|00|--
0000|00|--
1000|00|--
0000|00|--
0000|00|--
0000|00|--
0010|00|--
0000|00|--
0000|00|--
0000|00|--
0100|00|--
0000|00|--
0000|00|--
0000|00|--
0001|00|--
0000|00|--
0000|00|--
0000|00|--
0100|00|--
0000|00|--
0000|00|--
0000|00|--
0001|00|--
0000|00|--
0000|00|--
0000|00|--
0000|01|--
0000|01|--
0000|01|--
0000|01|--
0000|01|--
0000|01|--
0000|01|--
0000|01|--
0000|01|--
0000|01|--
0000|01|--
0000|01|--
0000|01|--
0000|01|--
0000|01|--
0000|01|--
--
0000|00|0-
0000|00|:-
0000|00|o-
0000|00|:-
0000|00|:-
0000|00|:-
0000|00|:-
0000|00|:-
0000|00|:-
0000|00|:-
0000|00|:-
0000|00|:-
0000|00|:-
0000|00|:-
0000|00|:-
0000|00|:-
0000|00|:-
0000|00|:-
0000|00|:-
0000|00|:-
0000|00|:-
0000|00|:-
0000|00|:-
0000|00|:-
0000|00|:-
0000|00|:-
0000|00|:-
0000|00|:-
0000|00|:-
0000|00|:-
0000|00|:-
0000|00|:-
0000|00|:o
0000|00|::
0000|00|::
0000|00|::
0000|00|::
0000|00|::
0000|00|::
0000|00|::
0000|00|::
0000|00|::
0000|00|::
0000|00|::
0000|00|::
0000|00|::
0000|00|::
0000|00|::
0000|00|::
0000|00|::
0000|00|::
0000|00|::
0000|00|::
0000|00|::
0000|00|::
0000|00|::
0000|00|::
0000|00|::
0000|00|::
0000|00|::
0000|00|::
0000|00|::
0000|00|::
0000|00|::
--
0000|00|0:
0000|00|::
0000|00|::
0000|00|::
0000|00|::
0000|00|::
0000|00|::
0000|00|::
0000|00|::
0000|00|::
0000|00|::
0000|00|::
0000|00|::
0000|00|::
0000|00|::
0000|00|::
0000|00|PP
0000|00|::
0000|00|::
0000|00|::
0000|00|::
0000|00|::
0000|00|::
0000|00|::
0000|00|::
0000|00|::
0000|00|::
0000|00|::
0000|00|::
0000|00|::
0000|00|::
0000|00|::
0000|00|Do
0000|00|::
0000|00|::
0000|00|::
0000|00|::
0000|00|::
0000|00|::
0000|00|::
0000|00|::
0000|00|::
0000|00|::
0000|00|::
0000|00|::
0000|00|::
0000|00|::
0000|00|::
0000|00|cc
0000|00|::
0000|00|::
0000|00|::
0000|00|::
0000|00|::
0000|00|::
0000|00|::
0000|00|::
0000|00|::
0000|00|::
0000|00|::
0000|00|::
0000|00|::
0000|00|::
0000|00|::
--
0000|00|Po
0000|00|::
0000|00|:0
0000|00|::
0000|00|::
0000|00|::
0000|00|::
0000|00|::
0000|00|::
0000|00|::
0000|00|::
0000|00|::
0000|00|::
0000|00|::
0000|00|::
0000|00|::
0000|00|::
0000|00|::
0000|00|::
0000|00|::
0000|00|::
0000|00|::
0000|00|::
0000|00|::
0000|00|::
0000|00|::
0000|00|::
0000|00|::
0000|00|::
0000|00|::
0000|00|::
0000|00|::
0000|00|o:
0000|00|::
0000|00|::
0000|00|::
0000|00|::
0000|00|::
0000|00|::
0000|00|::
0000|00|::
0000|00|::
0000|00|::
0000|00|::
0000|00|::
0000|00|::
0000|00|::
0000|00|::
0000|00|::
0000|00|::
0000|00|::
0000|00|::
0000|00|::
0000|00|::
0000|00|::
0000|00|::
0000|00|::
0000|00|::
0000|00|::
0000|00|::
0000|00|::
0000|00|::
0000|00|::
0000|00|::
--
0000|00|Do
0000|00|::
0000|00|::
0000|00|::
0000|00|::
0000|00|::
0000|00|::
0000|00|::
0000|00|::
0000|00|::
0000|00|::
0000|00|::
0000|00|::
0000|00|::
0000|00|::
0000|00|::
0000|00|PP
0000|00|::
0000|00|::
0000|00|::
0000|00|::
0000|00|::
0000|00|::
0000|00|::
0000|00|::
0000|00|::
0000|00|::
0000|00|::
0000|00|::
0000|00|::
0000|00|::
0000|00|::
0000|00|0c
0000|00|::
0000|00|::
0000|00|::
0000|00|::
0000|00|::
0000|00|::
0000|00|::
0000|00|::
0000|00|::
0000|00|::
0000|00|::
0000|00|::
0000|00|::
0000|00|::
0000|00|::
0000|00|DD
0000|00|::
0000|00|::
0000|00|::
0000|00|::
0000|00|::
0000|00|::
0000|00|::
0000|00|::
0000|00|::
0000|00|::
0000|00|::
0000|00|::
0000|00|::
0000|00|::
0000|00|::
--
0000|00|0P
0000|00|::
0000|00|o:
0000|00|::
0000|00|::
0000|00|::
0000|00|::
0000|00|::
0000|00|::
0000|00|::
0000|00|::
0000|00|::
0000|00|::
0000|00|::
0000|00|::
0000|00|::
0000|00|::
0000|00|::
0000|00|::
0000|00|::
0000|00|::
0000|00|::
0000|00|::
0000|00|::
0000|00|::
0000|00|::
0000|00|::
0000|00|::
0000|00|::
0000|00|::
0000|00|::
0000|00|::
0000|00|:0
0000|00|::
0000|00|::
0000|00|::
0000|00|::
0000|00|::
0000|00|::
0000|00|::
0000|00|::
0000|00|::
0000|00|::
0000|00|::
0000|00|::
0000|00|::
0000|00|::
0000|00|::
0000|00|::
0000|00|::
0000|00|::
0000|00|::
0000|00|::
0000|00|::
0000|00|::
0000|00|::
0000|00|::
0000|00|::
0000|00|::
0000|00|::
0000|00|::
0000|00|::
0000|00|::
0000|00|::
--
0000|00|0c
0000|00|::
0000|00|::
0000|00|::
0000|00|::
0000|00|::
0000|00|::
0000|00|::
0000|00|::
0000|00|::
0000|00|::
0000|00|::
0000|00|::
0000|00|::
0000|00|::
0000|00|::
0000|00|::
0000|00|::
0000|00|::
0000|00|::
0000|00|::
0000|00|::
0000|00|::
0000|00|::
0000|00|::
0000|00|::
0000|00|::
0000|00|::
0000|00|::
0000|00|::
0000|00|::
0000|00|::
0000|00|o0
0000|00|::
0000|00|::
0000|00|::
0000|00|::
0000|00|::
0000|00|::
0000|00|::
0000|00|::
0000|00|::
0000|00|::
0000|00|::
0000|00|::
0000|00|::
0000|00|::
0000|00|::
0000|00|PP
0000|00|::
0000|00|::
0000|00|::
0000|00|::
0000|00|::
0000|00|::
0000|00|::
0000|00|::
0000|00|::
0000|00|::
0000|00|::
0000|00|::
0000|00|::
0000|00|::
0000|00|::
--
0000|00|o0
0000|00|::
0000|00|0o
0000|00|::
0000|00|::
0000|00|::
0000|00|::
0000|00|::
0000|00|::
0000|00|::
0000|00|::
0000|00|::
0000|00|::
0000|00|::
0000|00|::
0000|00|::
0000|10|::
0000|10|::
0000|10|::
0000|10|::
0000|10|::
0000|10|::
0000|10|::
0000|10|::
0000|10|::
0000|10|::
0000|10|::
0000|10|::
0000|10|::
0000|10|::
0000|10|::
0000|10|::
0000|01|::
0000|01|::
0000|01|::
0000|01|::
0000|01|::
0000|01|::
0000|01|::
0000|01|::
0000|01|::
0000|01|::
0000|01|::
0000|01|::
0000|01|::
0000|01|::
0000|01|::
0000|01|::
0000|20|::
0000|00|::
0000|00|::
0000|00|::
0000|00|::
0000|00|::
0000|00|::
0000|00|::
0000|00|::
0000|00|::
0000|00|::
0000|00|::
0000|00|::
0000|00|::
0000|00|::
0000|00|::
--
0000|00|0o
0000|00|::
0000|00|o0
0000|00|::
0000|00|::
0000|00|::
0000|00|::
0000|00|::
0000|00|::
0000|00|::
0000|00|::
0000|00|::
0000|00|::
0000|00|::
0000|00|::
0000|00|::
0000|01|::
0000|01|::
0000|01|::
0000|01|::
0000|01|::
0000|01|::
0000|01|::
0000|01|::
0000|01|::
0000|01|::
0000|01|::
0000|01|::
0000|01|::
0000|01|::
0000|01|::
0000|01|::
0000|10|::
0000|10|::
0000|10|::
0000|10|::
0000|10|::
0000|10|::
0000|10|::
0000|10|::
0000|10|::
0000|10|::
0000|10|::
0000|10|::
0000|10|::
0000|10|::
0000|10|::
0000|10|::
0000|02|::
0000|00|::
0000|00|::
0000|00|::
0000|00|::
0000|00|::
0000|00|::
0000|00|::
0000|00|::
0000|00|::
0000|00|::
0000|00|::
0000|00|::
0000|00|::
0000|00|::
0000|00|::
--
1000|00|::
0000|00|::
0000|00|::
0000|00|::
0000|00|::
0100|00|::
0000|00|::
0000|00|::
0000|00|::
0000|00|::
0010|00|::
0000|00|::
0000|00|::
0000|00|::
0000|00|::
0000|00|::
1001|00|::
0000|00|::
0000|00|::
0000|00|::
0000|00|::
0010|00|::
0000|00|::
0000|00|::
0000|00|::
0000|00|::
0100|00|::
0000|00|::
0000|00|::
0000|00|::
0000|00|::
0000|00|::
1000|00|::
0000|00|::
0000|00|::
0000|00|::
0000|00|::
0100|00|::
0000|00|::
0000|00|::
0000|00|::
0000|00|::
0010|00|::
0000|00|::
0000|00|::
0000|00|::
0000|00|::
0000|00|::
1001|00|::
0000|00|::
0000|00|::
0000|00|::
0000|00|::
0010|00|::
0000|00|::
0000|00|::
0000|00|::
0000|00|::
0100|00|::
0000|00|::
0000|00|::
0000|00|::
0000|00|::
0000|00|::
--
1000|00|::
0000|00|::
0000|00|::
0000|00|::
0000|00|::
0100|00|::
0000|00|::
0000|00|::
0000|00|::
0000|00|::
0010|00|::
0000|00|::
0000|00|::
0000|00|::
0000|00|::
0000|00|::
1001|00|::
0000|00|::
0000|00|::
0000|00|::
0000|00|::
0010|00|::
0000|00|::
0000|00|::
0000|00|::
0000|00|::
0100|00|::
0000|00|::
0000|00|::
0000|00|::
0000|00|::
0000|00|::
1000|00|::
0000|00|::
0000|00|::
0000|00|::
0000|00|::
0100|00|::
0000|00|::
0000|00|::
0000|00|::
0000|00|::
0010|00|::
0000|00|::
0000|00|::
0000|00|::
0000|00|::
0000|00|::
0000|01|::
0000|01|::
0000|01|::
0000|01|::
0000|01|::
0000|01|::
0000|01|::
0000|01|::
0000|01|::
0000|01|::
0000|01|::
0000|01|::
0000|01|::
0000|01|::
0000|01|::
0000|01|::
--
0001|00|::
0000|00|::
0000|00|::
0000|00|::
0000|00|::
0010|00|::
0000|00|::
0000|00|::
0000|00|::
0000|00|::
0100|00|::
0000|00|::
0000|00|::
0000|00|::
0000|00|::
0000|00|::
1001|00|::
0000|00|::
0000|00|::
0000|00|::
0000|00|::
0100|00|::
0000|00|::
0000|00|::
0000|00|::
0000|00|::
0010|00|::
0000|00|::
0000|00|::
0000|00|::
0000|00|::
0000|00|::
0001|00|::
0000|00|::
0000|00|::
0000|00|::
0000|00|::
0010|00|::
0000|00|::
0000|00|::
0000|00|::
0000|00|::
0100|00|::
0000|00|::
0000|00|::
0000|00|::
0000|00|::
0000|00|::
1001|00|::
0000|00|::
0000|00|::
0000|00|::
0000|00|::
0100|00|::
0000|00|::
0000|00|::
0000|00|::
0000|00|::
0010|00|::
0000|00|::
0000|00|::
0000|00|::
0000|00|::
0000|00|::
--
0001|00|::
0000|00|::
0000|00|::
0000|00|::
0000|00|::
0010|00|::
0000|00|::
0000|00|::
0000|00|::
0000|00|::
0100|00|::
0000|00|::
0000|00|::
0000|00|::
0000|00|::
0000|00|::
1001|00|::
0000|00|::
0000|00|::
0000|00|::
0000|00|::
0100|00|::
0000|00|::
0000|00|::
0000|00|::
0000|00|::
0010|00|::
0000|00|::
0000|00|::
0000|00|::
0000|00|::
0000|00|::
0001|00|::
0000|00|::
0000|00|::
0000|00|::
0000|00|::
0010|00|::
0000|00|::
0000|00|::
0000|00|::
0000|00|::
0100|00|::
0000|00|::
0000|00|::
0000|00|::
0000|00|::
0000|00|::
0000|10|::
0000|10|::
0000|10|::
0000|10|::
0000|10|::
0000|10|::
0000|10|::
0000|10|::
0000|10|::
0000|10|::
0000|10|::
0000|10|::
0000|10|::
0000|10|::
0000|10|::
0000|10|::
--
1000|00|::
0000|00|::
0000|00|::
0000|00|::
0000|00|::
0100|00|::
0000|00|::
0000|00|::
0000|00|::
0000|00|::
0010|00|::
0000|00|::
0000|00|::
0000|00|::
0000|00|::
0000|00|::
0001|00|o:
0000|00|::
0000|00|0:
0000|00|::
0000|00|::
0000|00|::
0000|00|::
0000|00|::
0000|00|::
0000|00|::
0000|00|::
0000|00|::
0000|00|::
0000|00|::
0000|00|::
0000|00|::
0001|00|::
0000|00|::
0000|00|::
0000|00|::
0000|00|::
0010|00|::
0000|00|::
0000|00|::
0000|00|::
0000|00|::
0100|00|::
0000|00|::
0000|00|::
0000|00|::
0000|00|::
0000|00|::
1000|00|:0
0000|00|::
0000|00|:o
0000|00|::
0000|00|::
0000|00|::
0000|00|::
0000|00|::
0000|00|::
0000|00|::
0000|00|::
0000|00|::
0000|00|::
0000|00|::
0000|00|::
0000|00|::
--
1000|00|::
0000|00|::
0000|00|::
0000|00|::
0000|00|::
0100|00|::
0000|00|::
0000|00|::
0000|00|::
0000|00|::
0010|00|::
0000|00|::
0000|00|::
0000|00|::
0000|00|::
0000|00|::
0001|00|0:
0000|00|::
0000|00|o:
0000|00|::
0000|00|::
0000|00|::
0000|00|::
0000|00|::
0000|00|::
0000|00|::
0000|00|::
0000|00|::
0000|00|::
0000|00|::
0000|00|::
0000|00|::
0001|00|::
0000|00|::
0000|00|::
0000|00|::
0000|00|::
0010|00|::
0000|00|::
0000|00|::
0000|00|::
0000|00|::
0100|00|::
0000|00|::
0000|00|::
0000|00|::
0000|00|::
0000|00|::
1000|00|:o
0000|00|::
0000|00|:0
0000|00|::
0000|00|::
0000|00|::
0000|00|::
0000|00|::
0000|00|::
0000|00|::
0000|00|::
0000|00|::
0000|00|::
0000|00|::
0000|00|::
0000|00|::
--
1000|00|::
0000|00|::
0000|00|::
0000|00|::
0000|00|::
0100|00|::
0000|00|::
0000|00|::
0000|00|::
0000|00|::
0010|00|::
0000|00|::
0000|00|::
0000|00|::
0000|00|::
0000|00|::
0001|00|::
0000|00|::
0000|00|::
0000|00|::
0000|00|::
0010|00|::
0000|00|::
0000|00|::
0000|00|::
0000|00|::
0100|00|::
0000|00|::
0000|00|::
0000|00|::
0000|00|::
0000|00|::
1000|00|::
0000|00|::
0000|00|::
0000|00|::
0000|00|::
0100|00|::
0000|00|::
0000|00|::
0000|00|::
0000|00|::
0010|00|::
0000|00|::
0000|00|::
0000|00|::
0000|00|::
0000|00|::
0001|00|::
0000|00|::
0000|00|::
0000|00|::
0000|00|::
0010|00|::
0000|00|::
0000|00|::
0000|00|::
0000|00|::
0100|00|::
0000|00|::
0000|00|::
0000|00|::
0000|00|::
0000|00|::
--
1000|01|::
0000|01|::
0000|01|::
0000|01|::
0000|01|::
0100|01|::
0000|01|::
0000|01|::
0000|01|::
0000|01|::
0010|01|::
0000|01|::
0000|01|::
0000|01|::
0000|01|::
0000|01|::
0001|01|::
0000|01|::
0000|01|::
0000|01|::
0000|01|::
0010|01|::
0000|01|::
0000|01|::
0000|01|::
0000|01|::
0100|01|::
0000|01|::
0000|01|::
0000|01|::
0000|01|::
0000|01|::
0000|10|::
0000|10|::
0000|10|::
0000|10|::
0000|10|::
0000|10|::
0000|10|::
0000|10|::
0000|10|::
0000|10|::
0000|10|::
0000|10|::
0000|10|::
0000|10|::
0000|10|::
0000|10|::
0000|00|::
0000|00|::
0000|00|::
0000|00|::
0000|00|::
0000|00|::
0000|00|::
0000|00|::
0000|00|::
0000|00|::
0000|00|::
0000|00|::
0000|00|::
0000|00|::
0000|00|::
0000|00|::
--
0000|00|o0
0000|00|::
0000|00|::
0000|00|::
0000|00|::
0000|00|::
0000|00|::
0000|00|::
0000|00|::
0000|00|::
0000|00|::
0000|00|::
0000|00|::
0000|00|::
0000|00|::
0000|00|::
0000|00|::
0000|00|::
0000|00|::
0000|00|::
0000|00|::
0000|00|::
0000|00|::
0000|00|::
0000|00|0o
0000|00|--
0000|00|--
0000|00|--
0000|00|--
0000|00|--
0000|00|--
0000|00|--
0000|11|--
0000|11|--
0000|11|--
0000|11|--
0000|11|--
0000|11|--
0000|11|--
0000|11|--
0000|11|--
0000|11|--
0000|11|--
0000|11|--
0000|11|--
0000|11|--
0000|11|--
0000|11|--
0000|11|--
0000|11|--
0000|11|--
0000|11|--
0000|11|--
0000|11|--
0000|11|--
0000|11|--
0000|11|--
0000|11|--
0000|11|--
0000|11|--
0000|11|--
0000|11|--
0000|11|--
0000|11|--
--
1100|00|--
0000|00|--
0000|00|--
0000|00|--
0000|00|--
0000|00|--
0000|00|--
0000|00|--
1100|00|--
0000|00|--
0000|00|--
0000|00|--
0010|00|--
0000|00|--
0000|00|--
0000|00|--
1100|00|--
0000|00|--
0000|00|--
0000|00|--
0000|00|--
0000|00|--
0000|00|--
0000|00|--
0011|00|--
0000|00|--
0000|00|--
0000|00|--
0000|00|--
0000|00|--
0000|00|--
0000|00|--
0011|00|--
0000|00|--
0000|00|--
0000|00|--
0000|00|--
0000|00|--
0000|00|--
0000|00|--
0001|00|--
0000|00|--
0000|00|--
0000|00|--
0010|00|--
0000|00|--
0000|00|--
0000|00|--
1100|00|--
0000|00|--
0000|00|--
0000|00|--
0000|00|--
0000|00|--
0000|00|--
0000|00|--
1100|00|--
0000|00|--
0000|00|--
0000|00|--
0000|00|--
0000|00|--
0000|00|--
0000|00|--
--
1100|00|--
0000|00|--
0000|00|--
0000|00|--
0000|00|--
0000|00|--
0000|00|--
0000|00|--
0000|02|--
0000|00|--
0000|00|--
0000|00|--
0000|00|--
0000|00|--
0000|00|--
0000|00|--
0000|10|--
0000|10|--
0000|10|--
0000|10|--
0000|10|--
0000|10|--
0000|10|--
0000|10|--
0000|02|--
0000|00|--
0000|00|--
0000|00|--
0000|00|--
0000|00|--
0000|00|--
0000|00|--
0001|00|--
0000|00|--
0000|00|--
0000|00|--
0010|00|--
0000|00|--
0000|00|--
0000|00|--
0100|00|--
0000|00|--
0000|00|--
0000|00|--
1000|00|--
0000|00|--
0000|00|--
0000|00|--
0001|00|--
0000|00|--
0000|00|--
0000|00|--
0010|00|--
0000|00|--
0000|00|--
0000|00|--
0100|00|--
0000|00|--
0000|00|--
0000|00|--
1000|00|--
0000|00|--
0000|00|--
0000|00|--
--
0000|01|--
0000|01|--
0000|01|--
0000|01|--
0000|01|--
0000|01|--
0000|01|--
0000|01|--
1100|00|--
0000|00|--
0000|00|--
0000|00|--
0010|00|--
0000|00|--
0000|00|--
0000|00|--
1100|00|--
0000|00|--
0000|00|--
0000|00|--
0000|00|--
0000|00|--
0000|00|--
0000|00|--
0011|00|--
0000|00|--
0000|00|--
0000|00|--
0000|00|--
0000|00|--
0000|00|--
0000|00|--
0011|00|--
0000|00|--
0000|00|--
0000|00|--
0000|00|--
0000|00|--
0000|00|--
0000|00|--
0001|00|--
0000|00|--
0000|00|--
0000|00|--
0010|00|--
0000|00|--
0000|00|--
0000|00|--
1100|00|--
0000|00|--
0000|00|--
0000|00|--
0000|00|--
0000|00|--
0000|00|--
0000|00|--
1100|00|--
0000|00|--
0000|00|--
0000|00|--
0000|00|--
0000|00|--
0000|00|--
0000|00|--
--
0001|10|--
0000|10|--
0000|10|--
0000|10|--
0000|10|--
0100|10|--
0000|10|--
0000|10|--
0000|10|--
0000|10|--
1000|10|--
0000|10|--
0000|10|--
0000|10|--
0000|10|--
0000|10|--
0001|10|--
0000|10|--
0000|10|--
0000|10|--
0000|10|--
0010|10|--
0000|10|--
0000|10|--
0000|10|--
0000|10|--
1000|10|--
0000|10|--
0000|10|--
0000|10|--
0000|10|--
0000|10|--
0100|01|--
0000|01|--
0000|01|--
0000|01|--
0000|01|--
0100|01|--
0000|01|--
0000|01|--
0000|01|--
0000|01|--
0100|01|--
0000|01|--
0000|01|--
0000|01|--
0000|01|--
0000|01|--
0001|01|--
0000|01|--
0000|01|--
0000|01|--
0000|01|--
0001|01|--
0000|01|--
0000|01|--
0000|01|--
0000|01|--
0001|01|--
0000|01|--
0000|01|--
0000|01|--
0000|01|--
0000|01|--
--
1100|00|--
0000|00|--
0000|00|--
0000|00|--
0000|00|--
0000|00|--
0000|00|--
0000|00|--
1100|00|--
0000|00|--
0000|00|--
0000|00|--
0010|00|--
0000|00|--
0000|00|--
0000|00|--
1100|00|--
0000|00|--
0000|00|--
0000|00|--
0000|00|--
0000|00|--
0000|00|--
0000|00|--
0011|00|--
0000|00|--
0000|00|--
0000|00|--
0000|00|--
0000|00|--
0000|00|--
0000|00|--
0011|00|--
0000|00|--
0000|00|--
0000|00|--
0000|00|--
0000|00|--
0000|00|--
0000|00|--
0001|00|--
0000|00|--
0000|00|--
0000|00|--
0010|00|--
0000|00|--
0000|00|--
0000|00|--
1100|00|--
0000|00|--
0000|00|--
0000|00|--
0000|00|--
0000|00|--
0000|00|--
0000|00|--
1100|00|--
0000|00|--
0000|00|--
0000|00|--
0000|00|--
0000|00|--
0000|00|--
0000|00|--
--
1100|00|--
0000|00|--
0000|00|--
0000|00|--
0000|00|--
0000|00|--
0000|00|--
0000|00|--
0000|02|--
0000|00|--
0000|00|--
0000|00|--
0000|00|--
0000|00|--
0000|00|--
0000|00|--
0000|10|--
0000|10|--
0000|10|--
0000|10|--
0000|10|--
0000|10|--
0000|10|--
0000|10|--
0000|02|--
0000|00|--
0000|00|--
0000|00|--
0000|00|--
0000|00|--
0000|00|--
0000|00|--
0001|00|--
0000|00|--
0000|00|--
0000|00|--
0010|00|--
0000|00|--
0000|00|--
0000|00|--
0100|00|--
0000|00|--
0000|00|--
0000|00|--
1000|00|--
0000|00|--
0000|00|--
0000|00|--
0001|00|--
0000|00|--
0000|00|--
0000|00|--
0010|00|--
0000|00|--
0000|00|--
0000|00|--
0100|00|--
0000|00|--
0000|00|--
0000|00|--
1000|00|--
0000|00|--
0000|00|--
0000|00|--
--
0000|01|--
0000|01|--
0000|01|--
0000|01|--
0000|01|--
0000|01|--
0000|01|--
0000|01|--
1100|00|--
0000|00|--
0000|00|--
0000|00|--
0010|00|--
0000|00|--
0000|00|--
0000|00|--
1100|00|--
0000|00|--
0000|00|--
0000|00|--
0000|00|--
0000|00|--
0000|00|--
0000|00|--
0011|00|--
0000|00|--
0000|00|--
0000|00|--
0000|00|--
0000|00|--
0000|00|--
0000|00|--
0000|10|--
0000|10|--
0000|10|--
0000|10|--
0000|10|--
0000|10|--
0000|10|--
0000|10|--
0011|00|--
0000|00|--
0000|00|--
0000|00|--
0000|00|--
0000|00|--
0000|00|--
0000|00|--
1100|00|--
0000|00|--
0000|00|--
0000|00|--
0010|00|--
0000|00|--
0000|00|--
0000|00|--
1100|00|--
0000|00|--
0000|00|--
0000|00|--
0000|00|--
0000|00|--
0000|00|--
0000|00|--
--
0001|00|--
0000|00|--
0000|00|--
0000|00|--
0000|00|--
0000|00|--
0000|00|--
0000|00|--
0000|20|--
0000|00|--
0000|00|--
0000|00|--
0010|00|--
0000|00|--
0000|00|--
0000|00|--
0000|00|--
0000|00|--
0000|00|--
0000|00|--
0000|20|--
0000|00|--
0000|00|--
0000|00|--
0010|00|--
0000|00|--
0000|00|--
0000|00|--
0000|00|--
0000|00|--
0000|00|--
0000|00|--
0001|00|--
0000|00|--
0000|00|--
0000|00|--
0000|00|--
0000|00|--
0000|00|--
0000|00|--
0000|20|--
0000|00|--
0000|00|--
0000|00|--
0010|00|--
0000|00|--
0000|00|--
0000|00|--
0000|00|--
0000|00|--
0000|00|--
0000|00|--
0000|20|--
0000|00|--
0000|00|--
0000|00|--
0001|00|--
0000|00|--
0000|00|--
0000|00|--
0000|00|--
0000|00|--
0000|00|--
0000|00|--
--
0011|00|--
0000|00|--
0000|00|--
0000|00|--
0000|00|--
0000|00|--
0000|00|--
0000|00|--
0011|00|--
0000|00|--
0000|00|--
0000|00|--
0110|00|--
0000|00|--
0000|00|--
0000|00|--
0011|00|--
0000|00|--
0000|00|--
0000|00|--
0000|00|--
0000|00|--
0000|00|--
0000|00|--
1100|00|--
0000|00|--
0000|00|--
0000|00|--
0000|00|--
0000|00|--
0000|00|--
0000|00|--
1100|00|--
0000|00|--
0000|00|--
0000|00|--
0110|00|--
0000|00|--
0000|00|--
0000|00|--
1100|00|--
0000|00|--
0000|00|--
0000|00|--
0000|00|--
0000|00|--
0000|00|--
0000|00|--
0011|00|--
0000|00|--
0000|00|--
0000|00|--
0000|00|--
0000|00|--
0000|00|--
0000|00|--
0011|00|--
0000|00|--
0000|00|--
0000|00|--
0000|00|--
0000|00|--
0000|00|--
0000|00|--
--
0011|00|--
0000|00|--
0000|00|--
0000|00|--
0000|00|--
0000|00|--
0000|00|--
0000|00|--
0000|20|--
0000|00|--
0000|00|--
0000|00|--
0000|00|--
0000|00|--
0000|00|--
0000|00|--
0000|01|--
0000|01|--
0000|01|--
0000|01|--
0000|01|--
0000|01|--
0000|01|--
0000|01|--
0000|20|--
0000|00|--
0000|00|--
0000|00|--
0000|00|--
0000|00|--
0000|00|--
0000|00|--
0001|00|--
0000|00|--
0000|00|--
0000|00|--
0010|00|--
0000|00|--
0000|00|--
0000|00|--
0100|00|--
0000|00|--
0000|00|--
0000|00|--
1000|00|--
0000|00|--
0000|00|--
0000|00|--
0001|10|--
0000|10|--
0000|10|--
0000|10|--
0010|10|--
0000|10|--
0000|10|--
0000|10|--
0100|10|--
0000|10|--
0000|10|--
0000|10|--
1000|10|--
0000|10|--
0000|10|--
0000|10|--
--
0001|01|--
0000|01|--
0000|01|--
0000|01|--
0010|01|--
0000|01|--
0000|01|--
0000|01|--
1100|00|--
0000|00|--
0000|00|--
0000|00|--
0000|00|--
0000|00|--
0000|00|--
0000|00|--
1100|00|--
0000|00|--
0000|00|--
0000|00|--
0000|00|--
0000|00|--
0000|00|--
0000|00|--
0011|00|--
0000|00|--
0000|00|--
0000|00|--
0000|00|--
0000|00|--
0000|00|--
0000|00|--
0000|10|--
0000|10|--
0000|10|--
0000|10|--
0000|10|--
0000|10|--
0000|10|--
0000|10|--
0011|00|--
0000|00|--
0000|00|--
0000|00|--
0000|00|--
0000|00|--
0000|00|--
0000|00|--
1100|00|--
0000|00|--
0000|00|--
0000|00|--
0110|00|--
0000|00|--
0000|00|--
0000|00|--
1100|00|--
0000|00|--
0000|00|--
0000|00|--
0000|00|--
0000|00|--
0000|00|--
0000|00|--
--
0001|10|--
0000|10|--
0000|10|--
0000|10|--
0000|10|--
0000|10|--
0000|10|--
0000|10|--
0001|10|--
0000|10|--
0000|10|--
0000|10|--
0000|10|--
0000|10|--
0000|10|--
0000|10|--
1000|01|--
0000|01|--
0000|01|--
0000|01|--
0100|01|--
0000|01|--
0000|01|--
0000|01|--
0010|01|--
0000|01|--
0000|01|--
0000|01|--
0001|01|--
0000|01|--
0000|01|--
0000|01|--
0000|10|--
0000|10|--
0000|10|--
0000|10|--
0000|10|--
0000|10|--
0000|10|--
0000|10|--
0000|10|--
0000|10|--
0000|10|--
0000|10|--
0110|00|--
0000|00|--
0000|00|--
0000|00|--
0000|00|--
0000|00|--
0000|00|--
0000|00|--
0000|00|--
0000|00|--
0000|00|--
0000|00|--
0011|00|--
0000|00|--
0000|00|--
0000|00|--
0000|00|--
0000|00|--
0000|00|--
0000|00|--
--
0000|00|0-
0000|00|:-
0000|00|J-
0000|00|:-
0000|00|:-
0000|00|:-
0000|00|:-
0000|00|:-
0000|00|:-
0000|00|:-
0000|00|:o
0000|00|::
0000|00|:V
0000|00|::
0000|00|::
0000|00|::
0000|00|::
0000|00|::
0000|00|::
0000|00|::
0000|00|::
0000|00|JV
0000|00|::
0000|00|0o
0000|00|::
0000|00|::
0000|00|::
0000|00|::
0000|00|::
0000|00|::
0000|00|::
0000|00|::
0000|00|:o
0000|00|::
0000|00|:V
0000|00|::
0000|00|::
0000|00|::
0000|00|::
0000|00|::
0000|00|::
0000|00|::
0000|00|0:
0000|00|::
0000|00|J:
0000|00|::
0000|00|::
0000|00|::
0000|00|::
0000|00|::
0000|00|::
0000|00|::
0000|00|::
0000|00|JV
0000|00|::
0000|00|0o
0000|00|::
0000|00|::
0000|00|::
0000|00|::
0000|00|::
0000|00|::
0000|00|::
0000|00|::
--
0000|00|0:
0000|00|::
0000|00|J:
0000|00|::
0000|00|::
0000|00|::
0000|00|::
0000|00|::
0000|00|::
0000|00|::
0000|00|:o
0000|00|::
0000|00|:V
0000|00|::
0000|00|::
0000|00|::
0000|00|::
0000|00|::
0000|00|::
0000|00|::
0000|00|::
0000|00|JV
0000|00|::
0000|00|0o
0000|00|::
0000|00|::
0000|00|::
0000|00|::
0000|00|::
0000|00|::
0000|00|::
0000|00|::
0000|00|:o
0000|00|::
0000|00|:0
0000|00|::
0000|00|::
0000|00|::
0000|00|::
0000|00|::
0000|00|::
0000|00|::
0000|00|0:
0000|00|::
0000|00|o:
0000|00|::
0000|00|::
0000|00|::
0000|00|::
0000|00|::
0000|00|::
0000|00|::
0000|00|::
0000|00|o0
0000|00|::
0000|00|PP
0000|00|::
0000|00|::
0000|00|::
0000|00|::
0000|00|::
0000|00|::
0000|00|::
0000|00|::
--
0101|00|::
0000|00|::
0000|00|::
0000|00|::
0000|00|::
0000|00|::
0000|00|::
0000|00|::
0101|00|::
0000|00|::
0000|00|::
0000|00|::
0000|00|::
0000|00|::
0000|00|::
0000|00|::
0101|00|::
0000|00|::
0000|00|::
0000|00|::
0000|00|::
0000|00|::
0000|00|::
0000|00|::
0101|00|::
0000|00|::
0000|00|::
0000|00|::
0000|00|::
0000|00|::
0000|00|::
0000|00|::
1000|02|::
0000|00|::
0000|00|::
0000|00|::
0000|00|::
0000|00|::
0000|00|::
0000|00|::
1000|02|::
0000|00|::
0000|00|::
0000|00|::
0000|00|::
0000|00|::
0000|00|::
0000|00|::
1000|02|::
0000|00|::
0000|00|::
0000|00|::
0000|00|::
0000|00|::
0000|00|::
0000|00|::
1000|02|::
0000|00|::
0000|00|::
0000|00|::
0000|00|::
0000|00|::
0000|00|::
0000|00|::
--
0001|20|::
0000|00|::
0000|00|::
0000|00|::
0000|00|::
0000|00|::
0000|00|::
0000|00|::
0001|20|::
0000|00|::
0000|00|::
0000|00|::
0000|00|::
0000|00|::
0000|00|::
0000|00|::
0001|20|::
0000|00|::
0000|00|::
0000|00|::
0000|00|::
0000|00|::
0000|00|::
0000|00|::
0001|20|::
0000|00|::
0000|00|::
0000|00|::
0000|00|::
0000|00|::
0000|00|::
0000|00|::
1010|00|::
0000|00|::
0000|00|::
0000|00|::
0000|00|::
0000|00|::
0000|00|::
0000|00|::
1010|00|::
0000|00|::
0000|00|::
0000|00|::
0000|00|::
0000|00|::
0000|00|::
0000|00|::
1010|00|::
0000|00|::
0000|00|::
0000|00|::
0000|00|::
0000|00|::
0000|00|::
0000|00|::
1010|00|::
0000|00|::
0000|00|::
0000|00|::
0000|00|::
0000|00|::
0000|00|::
0000|00|::
--
tilt=bigger
0110|00|PP
0000|00|:-
0000|00|:-
0000|00|:-
0000|00|:-
0000|00|:-
0000|00|:-
0000|00|:-
0110|00|:-
0000|00|:-
0000|00|:-
0000|00|:-
0000|00|:-
0000|00|:-
0000|00|:-
0000|00|:-
0110|00|:-
0000|00|:-
0000|00|:-
0000|00|:-
0000|00|:-
0000|00|:-
0000|00|:-
0000|00|:-
0110|00|:-
0000|00|:-
0000|00|:-
0000|00|:-
0000|00|:-
0000|00|:-
0000|00|:-
0000|00|:-
0110|00|c-
0000|00|:-
0000|00|0-
0000|00|:-
0000|00|:-
0000|00|:-
0000|00|:-
0000|00|:-
0000|00|:-
0000|00|:-
0000|00|:-
0000|00|:-
0000|00|:-
0000|00|:-
0000|00|:-
0000|00|:-
0101|00|0-
0000|00|:-
0000|00|:-
0000|00|:-
0000|00|:-
0000|00|:-
0000|00|:-
0000|00|:-
0101|00|:-
0000|00|:-
0000|00|:-
0000|00|:-
0000|00|:-
0000|00|:-
0000|00|:-
0000|00|:-
--
0101|00|:-
0000|00|:-
0000|00|:-
0000|00|:-
0000|00|:-
0000|00|:-
0000|00|:-
0000|00|:-
0101|00|:-
0000|00|:-
0000|00|:-
0000|00|:-
0000|00|:-
0000|00|:-
0000|00|:-
0000|00|:-
0101|00|i-
0000|00|:-
0000|00|0-
0000|00|--
0000|00|--
0000|00|--
0000|00|--
0000|00|--
0000|00|--
0000|00|--
0000|00|--
0000|00|--
0000|00|--
0000|00|--
0000|00|--
0000|00|--
0100|01|--
0000|01|--
0000|01|--
0000|01|--
0010|01|--
0000|01|--
0000|01|--
0000|01|--
0100|01|--
0000|01|--
0000|01|--
0000|01|--
0010|01|--
0000|01|--
0000|01|--
0000|01|--
0000|10|--
0000|10|--
0000|10|--
0000|10|--
0000|10|--
0000|10|--
0000|10|--
0000|10|--
0000|10|--
0000|10|--
0000|10|--
0000|10|--
0000|10|--
0000|10|--
0000|10|--
0000|10|--
--
1100|00|-o
0000|00|-:
0000|00|-:
0000|00|-:
0000|00|-:
0000|00|-:
0000|00|-:
0000|00|-:
1100|00|-:
0000|00|-:
0000|00|-:
0000|00|-:
0000|00|-:
0000|00|-:
0000|00|-:
0000|00|-:
1100|00|-:
0000|00|-:
0000|00|-:
0000|00|-:
0000|00|-:
0000|00|-:
0000|00|-:
0000|00|-:
1100|00|-:
0000|00|-:
0000|00|-:
0000|00|-:
0000|00|-:
0000|00|-:
0000|00|-:
0000|00|-:
1100|00|-D
0000|00|-:
0000|00|-o
0000|00|-:
0000|00|-:
0000|00|-:
0000|00|-:
0000|00|-:
0000|00|-:
0000|00|-:
0000|00|-:
0000|00|-:
0000|00|-:
0000|00|-:
0000|00|-:
0000|00|-:
1010|00|-o
0000|00|-:
0000|00|-:
0000|00|-:
0000|00|-:
0000|00|-:
0000|00|-:
0000|00|-:
1010|00|-:
0000|00|-:
0000|00|-:
0000|00|-:
0000|00|-:
0000|00|-:
0000|00|-:
0000|00|-:
--
1010|00|-:
0000|00|-:
0000|00|-:
0000|00|-:
0000|00|-:
0000|00|-:
0000|00|-:
0000|00|-:
1010|00|-:
0000|00|-:
0000|00|-:
0000|00|-:
0000|00|-:
0000|00|-:
0000|00|-:
0000|00|-:
1010|00|-6
0000|00|-:
0000|00|-o
0000|00|--
0000|00|--
0000|00|--
0000|00|--
0000|00|--
0000|00|--
0000|00|--
0000|00|--
0000|00|--
0000|00|--
0000|00|--
0000|00|--
0000|00|--
0010|10|--
0000|10|--
0000|10|--
0000|10|--
0100|10|--
0000|10|--
0000|10|--
0000|10|--
0010|10|--
0000|10|--
0000|10|--
0000|10|--
0100|10|--
0000|10|--
0000|10|--
0000|10|--
0000|01|--
0000|01|--
0000|01|--
0000|01|--
0000|01|--
0000|01|--
0000|01|--
0000|01|--
0000|01|--
0000|01|--
0000|01|--
0000|01|--
0000|01|--
0000|01|--
0000|01|--
0000|01|--
--
0101|00|0-
0000|00|:-
0000|00|o-
0000|00|:-
0000|00|:-
0000|00|:-
0000|00|:-
0000|00|:-
0101|00|o-
0000|00|:-
0000|00|0-
0000|00|:-
0000|00|:-
0000|00|:-
0000|00|:-
0000|00|:-
0101|00|0-
0000|00|:-
0000|00|o-
0000|00|:-
0000|00|:-
0000|00|:-
0000|00|:-
0000|00|:-
0101|00|o-
0000|00|:-
0000|00|0-
0000|00|:-
0000|00|:-
0000|00|:-
0000|00|:-
0000|00|:-
0101|00|0-
0000|00|:-
0000|00|o-
0000|00|--
0000|00|--
0000|00|--
0000|00|--
0000|00|--
0000|00|--
0000|00|--
0000|00|--
0000|00|--
0000|00|--
0000|00|--
0000|00|--
0000|00|--
1010|00|-o
0000|00|-:
0000|00|-0
0000|00|-:
0000|00|-:
0000|00|-:
0000|00|-:
0000|00|-:
1010|00|-0
0000|00|-:
0000|00|-o
0000|00|-:
0000|00|-:
0000|00|-:
0000|00|-:
0000|00|-:
--
1010|00|-o
0000|00|-:
0000|00|-0
0000|00|-:
0000|00|-:
0000|00|-:
0000|00|-:
0000|00|-:
1010|00|-0
0000|00|-:
0000|00|-o
0000|00|-:
0000|00|-:
0000|00|-:
0000|00|-:
0000|00|-:
1010|00|-o
0000|00|-:
0000|00|-0
0000|00|--
0000|00|--
0000|00|--
0000|00|--
0000|00|--
0000|00|--
0000|00|--
0000|00|--
0000|00|--
0000|00|--
0000|00|--
0000|00|--
0000|00|--
tilt=normal
0000|01|--
0000|01|--
0000|01|--
0000|01|--
0000|01|--
0000|01|--
0000|01|--
0000|01|--
0000|01|--
0000|01|--
0000|01|--
0000|01|--
0000|01|--
0000|01|--
0000|01|--
0000|01|--
0000|10|--
0000|10|--
0000|10|--
0000|10|--
0000|10|--
0000|10|--
0000|10|--
0000|10|--
0000|10|--
0000|10|--
0000|10|--
0000|10|--
0000|10|--
0000|10|--
0000|10|--
0000|10|--
--
1000|00|--
0000|00|--
0000|00|--
0000|00|--
0100|00|--
0000|00|--
0000|00|--
0000|00|--
0010|00|--
0000|00|--
0000|00|--
0000|00|--
0001|00|--
0000|00|--
0000|00|--
0000|00|--
1000|00|--
0000|00|--
0000|00|--
0000|00|--
0100|00|--
0000|00|--
0000|00|--
0000|00|--
0010|00|--
0000|00|--
0000|00|--
0000|00|--
0001|00|--
0000|00|--
0000|00|--
0000|00|--
1000|00|--
0000|00|--
0000|00|--
0000|00|--
0100|00|--
0000|00|--
0000|00|--
0000|00|--
0010|00|--
0000|00|--
0000|00|--
0000|00|--
0001|00|--
0000|00|--
0000|00|--
0000|00|--
1000|00|--
0000|00|--
0000|00|--
0000|00|--
0100|00|--
0000|00|--
0000|00|--
0000|00|--
0010|00|--
0000|00|--
0000|00|--
0000|00|--
0001|00|--
0000|00|--
0000|00|--
0000|00|--
--
0100|00|--
0000|00|--
0000|00|--
0000|00|--
0010|00|--
0000|00|--
0000|00|--
0000|00|--
0100|00|--
0000|00|--
0000|00|--
0000|00|--
0010|00|--
0000|00|--
0000|00|--
0000|00|--
0100|00|--
0000|00|--
0000|00|--
0000|00|--
0010|00|--
0000|00|--
0000|00|--
0000|00|--
0100|00|--
0000|00|--
0000|00|--
0000|00|--
0010|00|--
0000|00|--
0000|00|--
0000|00|--
1100|01|--
0000|01|--
0000|01|--
0000|01|--
0011|01|--
0000|01|--
0000|01|--
0000|01|--
1100|01|--
0000|01|--
0000|01|--
0000|01|--
0011|01|--
0000|01|--
0000|01|--
0000|01|--
1100|01|--
0000|01|--
0000|01|--
0000|01|--
0011|01|--
0000|01|--
0000|01|--
0000|01|--
1100|01|--
0000|01|--
0000|01|--
0000|01|--
0011|01|--
0000|01|--
0000|01|--
0000|01|--
--
0000|00|0-@)168
0000|00|:-
0000|00|o-
0000|00|--
0000|00|--
0000|00|--
0000|00|--
0000|00|--
0000|00|--
0000|00|--
0000|00|--
0000|00|--
0000|00|--
0000|00|--
0000|00|--
0000|00|--
0000|00|--
0000|00|--
0000|00|--
0000|00|--
0000|00|--
0000|00|--
0000|00|--
0000|00|--
0000|00|--
0000|00|--
0000|00|--
0000|00|--
0000|00|--
0000|00|--
0000|00|--
0000|00|--
0000|00|--
0000|00|--
0000|00|--
0000|00|--
0000|00|--
0000|00|--
0000|00|--
0000|00|--
0000|00|--
0000|00|--
0000|00|--
0000|00|--
0000|00|--
0000|00|--
0000|00|--
0000|00|--
0000|00|--
0000|00|--
0000|00|--
0000|00|--
0000|00|--
0000|00|--
0000|00|--
0000|00|--
0000|00|--
0000|00|--
0000|00|--
0000|00|--
0000|00|--
0000|00|--
0000|00|--
0000|00|--
--
0000|00|--
0000|00|--
0000|00|--
0000|00|--
0000|00|--
0000|00|--
0000|00|--
0000|00|--
0000|00|--
0000|00|--
0000|00|--
0000|00|--
0000|00|--
0000|00|--
0000|00|--
0000|00|--
0000|00|--
0000|00|--
0000|00|--
0000|00|--
0000|00|--
0000|00|--
0000|00|--
0000|00|--
0000|00|--
0000|00|--
0000|00|--
0000|00|--
0000|00|--
0000|00|--
0000|00|--
0000|00|--
0000|00|--
0000|00|--
0000|00|--
0000|00|--
0000|00|--
0000|00|--
0000|00|--
0000|00|--
0000|00|--
0000|00|--
0000|00|--
0000|00|--
0000|00|--
0000|00|--
0000|00|--
0000|00|--
0000|00|--
0000|00|--
0000|00|--
0000|00|--
0000|00|--
0000|00|--
0000|00|--
0000|00|--
0000|00|--
0000|00|--
0000|00|--
0000|00|--
0000|00|--
0000|00|--
0000|00|--
0000|00|--
--
0000|00|--
0000|00|--
0000|00|--
0000|00|--
0000|00|--
0000|00|--
0000|00|--
0000|00|--
0000|00|--
0000|00|--
0000|00|--
0000|00|--
0000|00|--
0000|00|--
0000|00|--
0000|00|--
0000|00|--
0000|00|--
0000|00|--
0000|00|--
0000|00|--
0000|00|--
0000|00|--
0000|00|--
0000|00|--
0000|00|--
0000|00|--
0000|00|--
0000|00|--
0000|00|--
0000|00|--
0000|00|--
0000|00|--
0000|00|--
0000|00|--
0000|00|--
0000|00|--
0000|00|--
0000|00|--
0000|00|--
0000|00|--
0000|00|--
0000|00|--
0000|00|--
0000|00|--
0000|00|--
0000|00|--
0000|00|--
0000|00|--
0000|00|--
0000|00|--
0000|00|--
0000|00|--
0000|00|--
0000|00|--
0000|00|--
0000|00|--
0000|00|--
0000|00|--
0000|00|--
0000|00|--
0000|00|--
0000|00|--
0000|00|--
--
0000|00|--
0000|00|--
0000|00|--
0000|00|--
0000|00|--
0000|00|--
0000|00|--
0000|00|--
0000|00|--
0000|00|--
0000|00|--
0000|00|--
0000|00|--
0000|00|--
0000|00|--
0000|00|--
0000|00|--
0000|00|--
0000|00|--
0000|00|--
0000|00|--
0000|00|--
0000|00|--
0000|00|--
0000|00|--
0000|00|--
0000|00|--
0000|00|--
0000|00|--
0000|00|--
0000|00|--
0000|00|--
0000|00|--
0000|00|--
0000|00|--
0000|00|--
0000|00|--
0000|00|--
0000|00|--
0000|00|--
0000|00|--
0000|00|--
0000|00|--
0000|00|--
0000|00|--
0000|00|--
0000|00|--
0000|00|--
0000|00|--
0000|00|--
0000|00|--
0000|00|--
0000|00|--
0000|00|--
0000|00|--
0000|00|--
0000|00|--
0000|00|--
0000|00|--
0000|00|--
0000|00|--
0000|00|--
0000|00|--
0000|00|--
--
